osu file format v14

[General]
AudioFilename: audio.mp3
AudioLeadIn: 0
PreviewTime: 56444
Countdown: 0
SampleSet: Soft
StackLeniency: 0.7
Mode: 0
LetterboxInBreaks: 0
WidescreenStoryboard: 0

[Editor]
DistanceSpacing: 1.1
BeatDivisor: 4
GridSize: 32
TimelineZoom: 1.4

[Metadata]
Title:bad guy
TitleUnicode:bad guy
Artist:Billie Eilish
ArtistUnicode:Billie Eilish
Creator:Alumetri
Version:duh.
Source:
Tags:
BeatmapID:2011027
BeatmapSetID:960555

[Difficulty]
HPDrainRate:4.5
CircleSize:3.8
OverallDifficulty:8.2
ApproachRate:9
SliderMultiplier:1.72
SliderTickRate:1

[Events]
//Background and Video events
0,0,"bg.jpg",0,0
//Break Periods
//Storyboard Layer 0 (Background)
//Storyboard Layer 1 (Fail)
//Storyboard Layer 2 (Pass)
//Storyboard Layer 3 (Foreground)
//Storyboard Sound Samples

[TimingPoints]
0,444.444444444444,4,2,0,100,1,0
0,-100,4,2,0,50,0,0
14222,-95.2380952380952,4,2,0,50,0,0
42666,-90.9090909090909,4,2,0,50,0,0
57037,-200,4,2,0,50,0,0
59999,-400,4,2,0,50,0,0
60444,-83.3333333333333,4,2,0,50,0,0
74666,-100,4,2,0,50,0,0
88888,-90.0900900900901,4,2,0,50,0,0
103111,-82.6446280991736,4,2,0,50,0,0
117481,-200,4,2,0,50,0,0
120444,-400,4,2,0,50,0,0
120888,-80,4,2,0,50,0,0
151099,500,4,2,0,100,1,0
151099,-66.6666666666667,4,2,0,50,0,0

[HitObjects]
69,58,0,6,0,P|111:47|153:68,1,86
224,134,444,2,0,P|266:145|308:124,1,86
381,61,888,2,0,P|423:50|465:71,1,86
512,157,1333,2,0,L|498:248,1,86
410,339,1777,2,0,L|396:254,1,86
309,200,2222,2,0,P|268:188|229:205,1,86
168,288,2666,2,0,P|127:299|88:282,1,86
9,217,3111,2,0,L|22:132,1,86
152,42,3555,6,0,L|60:53,1,86
211,149,3999,2,0,L|119:138,1,86
319,60,4444,2,0,L|227:71,1,86
386,171,4888,2,0,L|294:160,1,86
460,114,5333,2,0,P|478:149|467:211,1,86
440,292,5777,2,0,P|418:325|359:346,1,86
282,304,6222,2,0,P|243:285|201:288,1,86
116,346,6666,2,0,P|77:364|35:361,1,86
52,199,7111,6,0,L|64:287,1,86
150,128,7555,2,0,L|138:213,1,86
241,77,7999,2,0,L|252:162,1,86
358,121,8444,2,0,L|346:206,1,86
432,318,8888,2,0,P|456:283|460:235,1,86
346,206,9333,2,0,L|256:244,1,86
192,314,9777,2,0,L|112:280,1,86
28,220,10222,2,0,P|21:173|53:122,1,86
115,73,10666,6,0,L|206:78,1,86
345,152,11111,2,0,L|254:157,1,86
124,238,11555,2,0,L|215:243,1,86
347,319,11999,2,0,L|261:323,1,86
391,248,12444,2,0,P|420:282|426:333,1,86
489,142,12888,2,0,P|480:185|501:233,1,86
379,108,13333,1,0,0:0:0:0:
379,108,13777,2,0,L|267:104,1,86
195,172,14222,6,0,P|191:216|209:274,1,90.2999972442628
75,155,14666,2,0,P|67:198|35:249,1,90.2999972442628
135,74,15111,1,0,0:0:0:0:
218,176,15333,2,0,P|258:173|310:154,1,90.2999972442628
390,87,15777,2,0,P|430:90|482:109,1,90.2999972442628
310,180,16222,2,0,P|270:183|218:202,1,90.2999972442628
155,343,16666,2,0,L|133:242,1,90.2999972442628
50,150,17111,1,0,0:0:0:0:
45,283,17333,2,0,L|64:371,1,90.2999972442628
135,254,17777,6,0,P|176:235|243:234,1,90.2999972442628
381,325,18222,2,0,P|340:306|273:305,1,90.2999972442628
198,374,18666,1,0,0:0:0:0:
220,230,18888,2,0,P|225:182|221:134,1,90.2999972442628
117,88,19333,2,0,P|71:91|25:120,1,90.2999972442628
224,61,19777,2,0,P|267:75|304:115,1,90.2999972442628
352,255,20222,2,0,L|395:157,1,90.2999972442628
493,70,20666,1,0,0:0:0:0:
484,217,20888,2,0,L|447:299,1,90.2999972442628
306,336,21333,6,0,P|267:317|231:268,1,90.2999972442628
77,294,21777,2,0,P|109:265|131:208,1,90.2999972442628
185,100,22222,1,0,0:0:0:0:
277,214,22444,2,0,P|321:200|366:175,1,90.2999972442628
185,149,22888,2,0,P|142:135|102:114,1,90.2999972442628
312,90,23333,2,0,P|354:76|394:55,1,90.2999972442628
179,121,23777,2,0,P|136:107|96:86,1,90.2999972442628
244,30,24222,1,0,0:0:0:0:
257,185,24444,2,0,P|249:224|228:273,1,90.2999972442628
70,309,24888,6,0,L|160:329,1,90.2999972442628
275,370,25333,2,0,L|363:350,1,90.2999972442628
429,237,25777,1,0,0:0:0:0:
483,373,25999,2,0,P|496:327|496:271,1,90.2999972442628
380,182,26444,2,0,P|381:227|394:270,1,90.2999972442628
461,113,26888,1,0,0:0:0:0:
345,69,27111,2,0,P|299:71|256:84,1,90.2999972442628
176,185,27555,1,0,0:0:0:0:
176,185,27999,2,0,L|161:88,1,90.2999972442628
91,250,28444,6,0,L|76:347,1,90.2999972442628
211,192,28888,2,0,L|226:289,1,90.2999972442628
319,358,29333,1,0,0:0:0:0:
377,250,29555,2,0,P|382:208|396:160,1,90.2999972442628
498,111,29999,2,0,P|493:69|479:21,1,90.2999972442628
348,9,30444,2,0,L|255:23,1,90.2999972442628
148,110,30888,2,0,L|241:124,1,90.2999972442628
395,161,31333,1,0,0:0:0:0:
221,212,31555,2,0,L|240:108,1,90.2999972442628
323,299,31999,6,0,P|366:299|420:277,1,90.2999972442628
197,248,32444,2,0,P|163:223|106:202,1,90.2999972442628
11,261,32888,1,0,0:0:0:0:
68,134,33111,2,0,P|112:128|160:134,1,90.2999972442628
277,208,33555,2,0,P|321:214|369:208,1,90.2999972442628
478,90,33999,2,0,P|465:133|467:192,1,90.2999972442628
335,40,34444,2,0,P|336:84|319:141,1,90.2999972442628
239,243,34888,1,0,0:0:0:0:
152,121,35111,2,0,P|140:77|142:32,1,90.2999972442628
82,202,35555,6,0,P|70:245|72:290,1,90.2999972442628
229,154,35999,2,0,P|240:197|238:242,1,90.2999972442628
190,359,36444,1,0,0:0:0:0:
318,317,36666,2,0,P|358:303|408:301,1,90.2999972442628
507,207,37111,2,0,P|467:193|417:191,1,90.2999972442628
229,154,37555,2,0,P|269:140|319:138,1,90.2999972442628
483,79,37999,2,0,P|443:65|393:63,1,90.2999972442628
229,57,38444,1,0,0:0:0:0:
307,226,38666,2,0,P|318:181|316:136,1,90.2999972442628
186,264,39111,6,0,P|175:309|177:354,1,90.2999972442628
307,226,39555,2,0,P|318:271|316:316,1,90.2999972442628
230,171,39999,1,0,0:0:0:0:
109,222,40222,2,0,P|61:243|31:271,1,90.2999972442628
205,148,40666,2,0,P|250:152|306:173,1,90.2999972442628
103,117,41111,1,0,0:0:0:0:
230,39,41333,2,0,P|274:31|334:37,1,90.2999972442628
319,33,41999,5,0,0:0:0:0:
217,132,42222,1,0,0:0:0:0:
366,178,42444,1,0,0:0:0:0:
228,266,42666,6,0,L|123:260,1,94.600002886963
351,212,43111,2,0,L|456:206,1,94.600002886963
238,168,43555,1,0,0:0:0:0:
376,102,43777,1,0,0:0:0:0:
335,244,43999,1,0,0:0:0:0:
340,66,44222,1,0,0:0:0:0:
252,255,44444,6,0,P|254:304|268:355,1,94.600002886963
388,188,44888,2,0,P|386:237|372:288,1,94.600002886963
284,106,45333,1,0,0:0:0:0:
236,240,45555,1,0,0:0:0:0:
268,74,45777,1,0,0:0:0:0:
388,188,45999,1,0,0:0:0:0:
199,155,46222,6,0,P|149:156|83:170,1,94.600002886963
294,59,46666,2,0,P|344:60|410:74,1,94.600002886963
479,187,47111,1,0,0:0:0:0:
347,226,47333,1,0,0:0:0:0:
490,145,47555,1,0,0:0:0:0:
309,139,47777,1,0,0:0:0:0:
414,287,47999,6,0,P|425:240|426:191,1,94.600002886963
264,320,48444,2,0,P|253:273|252:224,1,94.600002886963
251,226,49333,5,0,0:0:0:0:
274,384,49555,1,0,0:0:0:0:
159,228,49777,6,0,P|157:177|171:131,1,94.600002886963
353,228,50222,2,0,P|354:177|341:131,1,94.600002886963
170,52,50666,1,0,0:0:0:0:
345,50,50888,1,0,0:0:0:0:
254,182,51111,1,0,0:0:0:0:
253,0,51333,1,0,0:0:0:0:
169,135,51555,6,0,P|157:180|159:228,1,94.600002886963
342,135,51999,2,0,P|354:180|353:228,1,94.600002886963
170,332,52444,1,0,0:0:0:0:
345,334,52666,1,0,0:0:0:0:
254,202,52889,1,0,0:0:0:0:
253,384,53111,1,0,0:0:0:0:
352,227,53333,6,0,P|398:218|447:217,1,94.600002886963
224,238,53777,2,0,P|178:229|129:228,1,94.600002886963
294,153,54222,1,0,0:0:0:0:
155,114,54444,1,0,0:0:0:0:
331,129,54666,1,0,0:0:0:0:
214,265,54888,1,0,0:0:0:0:
240,93,55111,6,0,P|253:53|285:7,1,94.600002886963
373,212,55555,2,0,P|360:172|328:126,1,94.600002886963
330,128,56444,1,0,0:0:0:0:
310,149,56740,1,0,0:0:0:0:
237,183,57037,6,0,B|135:147|160:220|46:173,1,193.5
109,114,58166,2,0,P|191:99|288:126,1,182.75
285,124,59999,6,0,L|281:149,1,21.5
265,252,60444,5,0,0:0:0:0:
289,97,60666,1,0,0:0:0:0:
224,284,60888,2,0,P|171:285|107:269,1,103.199996850586
339,321,61333,1,0,0:0:0:0:
200,375,61555,1,0,0:0:0:0:
349,285,61777,2,0,P|402:284|466:300,1,103.199996850586
286,212,62222,5,0,0:0:0:0:
426,162,62444,1,0,0:0:0:0:
246,198,62666,2,0,P|191:191|135:176,1,103.199996850586
47,92,63111,1,0,0:0:0:0:
190,53,63333,1,0,0:0:0:0:
41,124,63555,1,0,0:0:0:0:
186,11,63777,1,0,0:0:0:0:
144,179,63999,5,0,0:0:0:0:
97,22,64222,1,0,0:0:0:0:
117,218,64444,2,0,P|133:265|144:321,1,103.199996850586
209,148,64888,1,0,0:0:0:0:
253,294,65111,1,0,0:0:0:0:
306,127,65333,2,0,P|311:90|338:16,1,103.199996850586
407,191,65777,5,0,0:0:0:0:
257,230,65999,1,0,0:0:0:0:
411,140,66222,2,0,P|445:131|524:130,1,103.199996850586
272,133,66666,1,0,0:0:0:0:
403,51,66888,1,0,0:0:0:0:
345,201,67111,1,0,0:0:0:0:
276,29,67333,1,0,0:0:0:0:
257,230,67555,5,0,0:0:0:0:
411,140,67777,1,0,0:0:0:0:
199,166,67999,2,0,P|147:172|97:187,1,103.199996850586
283,97,68444,1,0,0:0:0:0:
105,61,68666,1,0,0:0:0:0:
310,119,68888,2,0,P|361:124|410:139,1,103.199996850586
196,217,69333,5,0,0:0:0:0:
360,256,69555,1,0,0:0:0:0:
183,338,69777,2,0,P|168:295|168:229,1,103.199996850586
212,97,70222,1,0,0:0:0:0:
275,253,70444,1,0,0:0:0:0:
253,63,70666,1,0,0:0:0:0:
166,237,70888,1,0,0:0:0:0:
128,67,71111,5,0,0:0:0:0:
275,253,71333,1,0,0:0:0:0:
57,251,71555,2,0,P|60:197|78:143,1,103.199996850586
159,324,71999,1,0,0:0:0:0:
201,162,72222,1,0,0:0:0:0:
257,354,72444,2,0,P|270:303|275:247,1,103.199996850586
264,87,72888,5,0,0:0:0:0:
365,227,73111,1,0,0:0:0:0:
395,67,73333,1,0,0:0:0:0:
274,252,73555,1,0,0:0:0:0:
162,80,73777,1,0,0:0:0:0:
382,148,73999,1,0,0:0:0:0:
160,217,74222,2,0,L|61:249,1,103.199996850586
225,326,74666,6,0,L|318:334,1,86
418,261,75111,5,0,0:0:0:0:
418,261,75999,1,0,0:0:0:0:
418,261,76222,1,0,0:0:0:0:
418,261,76888,5,0,0:0:0:0:
418,261,77776,1,0,0:0:0:0:
418,261,77999,1,0,0:0:0:0:
418,261,78666,5,0,0:0:0:0:
418,261,79554,1,0,0:0:0:0:
418,261,79777,1,0,0:0:0:0:
418,261,80444,5,0,0:0:0:0:
418,261,81332,1,0,0:0:0:0:
418,261,81555,1,0,0:0:0:0:
418,261,82221,5,0,0:0:0:0:
418,261,83111,1,0,0:0:0:0:
418,261,83332,1,0,0:0:0:0:
418,261,83999,5,0,0:0:0:0:
418,261,84887,1,0,0:0:0:0:
418,261,85110,1,0,0:0:0:0:
418,261,85777,5,0,0:0:0:0:
418,261,86665,1,0,0:0:0:0:
418,261,86888,1,0,0:0:0:0:
418,261,87333,5,0,0:0:0:0:
339,197,87555,2,0,L|246:210,1,86
161,159,87999,2,0,P|156:137|157:117,3,43
240,56,88444,2,0,B|313:75|281:108|369:127,1,129
416,199,88888,6,0,P|418:249|399:298,1,95.4600023305665
312,361,89333,2,0,L|205:343,1,95.4600023305665
113,275,89777,1,0,0:0:0:0:
232,235,89999,2,0,L|326:250,1,95.4600023305665
144,187,90444,2,0,L|49:202,1,95.4600023305665
241,129,90888,2,0,L|335:144,1,95.4600023305665
133,85,91333,2,0,L|38:100,1,95.4600023305665
238,18,91777,1,0,0:0:0:0:
117,0,91999,2,0,L|22:15,1,95.4600023305665
233,52,92444,6,0,L|327:67,1,95.4600023305665
469,91,92888,2,0,P|486:44|481:-7,1,95.4600023305665
396,165,93333,1,0,0:0:0:0:
266,120,93555,2,0,P|216:110|157:110,1,95.4600023305665
363,194,93999,2,0,P|413:184|472:184,1,95.4600023305665
248,245,94444,2,0,P|198:235|139:235,1,95.4600023305665
377,293,94888,2,0,P|427:283|486:283,1,95.4600023305665
268,353,95333,1,0,0:0:0:0:
407,373,95555,2,0,P|454:374|501:384,1,95.4600023305665
280,314,95999,6,0,P|232:315|185:325,1,95.4600023305665
11,360,96444,2,0,P|58:361|105:371,1,95.4600023305665
45,223,96888,1,0,0:0:0:0:
185,325,97111,2,0,P|194:282|188:229,1,95.4600023305665
48,129,97555,2,0,P|39:172|45:225,1,95.4600023305665
188,53,97999,2,0,P|197:96|191:149,1,95.4600023305665
51,35,98444,2,0,P|42:78|48:131,1,95.4600023305665
204,3,98888,1,0,0:0:0:0:
154,168,99111,2,0,P|143:215|143:277,1,95.4600023305665
292,121,99555,6,0,P|303:168|303:230,1,95.4600023305665
265,355,99999,2,0,P|305:337|357:327,1,95.4600023305665
454,256,100444,1,0,0:0:0:0:
304,215,100666,2,0,P|256:207|209:211,1,95.4600023305665
393,131,101111,2,0,P|440:123|487:127,1,95.4600023305665
278,96,101555,1,0,0:0:0:0:
410,34,101777,2,0,P|455:18|502:14,1,95.4600023305665
502,14,102444,5,0,0:0:0:0:
490,186,102666,1,0,0:0:0:0:
410,34,102888,1,0,0:0:0:0:
352,232,103111,6,0,P|338:189|331:126,1,104.059997062515
469,287,103555,2,0,P|483:244|490:181,1,104.059997062515
363,346,103999,1,0,0:0:0:0:
311,208,104222,1,0,0:0:0:0:
330,371,104444,1,0,0:0:0:0:
469,287,104666,1,0,0:0:0:0:
265,284,104888,6,0,P|206:293|161:306,1,104.059997062515
335,187,105333,2,0,P|394:196|439:209,1,104.059997062515
203,166,105777,1,0,0:0:0:0:
342,92,105999,1,0,0:0:0:0:
196,208,106222,1,0,0:0:0:0:
351,269,106444,1,0,0:0:0:0:
235,89,106666,6,0,P|177:89|128:129,1,104.059997062515
164,292,107111,2,0,P|222:292|271:252,1,104.059997062515
332,132,107555,1,0,0:0:0:0:
367,300,107777,1,0,0:0:0:0:
196,221,107999,1,0,0:0:0:0:
401,192,108222,1,0,0:0:0:0:
189,139,108444,6,0,L|81:163,1,104.059997062515
161,310,108888,2,0,L|269:334,1,104.059997062515
401,192,109333,2,0,L|293:216,1,104.059997062515
477,278,109777,1,0,0:0:0:0:
339,324,109999,1,0,0:0:0:0:
485,174,110222,6,0,L|476:279,1,104.059997062515
339,120,110666,2,0,L|348:225,1,104.059997062515
431,63,111111,1,0,0:0:0:0:
481,209,111333,1,0,0:0:0:0:
502,13,111555,1,0,0:0:0:0:
339,120,111777,1,0,0:0:0:0:
207,31,111999,6,0,P|152:37|104:55,1,104.059997062515
253,145,112444,2,0,P|308:151|356:169,1,104.059997062515
140,168,112888,1,0,0:0:0:0:
259,62,113111,1,0,0:0:0:0:
65,122,113333,1,0,0:0:0:0:
253,145,113555,1,0,0:0:0:0:
69,265,113777,6,0,P|60:216|65:159,1,104.059997062515
263,183,114222,2,0,P|259:232|239:286,1,104.059997062515
348,110,114666,1,0,0:0:0:0:
376,263,114888,1,0,0:0:0:0:
377,78,115111,1,0,0:0:0:0:
468,227,115333,1,0,0:0:0:0:
263,183,115555,6,0,P|209:170|144:161,1,104.059997062515
295,314,115999,2,0,P|349:301|414:292,1,104.059997062515
396,293,116888,1,0,0:0:0:0:
415,264,117185,1,0,0:0:0:0:
437,183,117481,6,0,B|410:175|410:175|395:180|395:180|375:175|375:175|353:182|353:182|332:175|332:175|310:182|310:182|288:173|288:173|251:183,1,193.5
191,264,118611,2,0,P|150:185|187:105,1,182.75
187,104,120444,6,0,L|215:99,1,21.5
316,78,120888,5,0,0:0:0:0:
111,119,121111,1,0,0:0:0:0:
292,173,121333,2,0,L|402:156,1,107.5
202,243,121777,1,0,0:0:0:0:
349,271,121999,1,0,0:0:0:0:
178,321,122222,1,0,0:0:0:0:
292,173,122444,1,0,0:0:0:0:
325,375,122666,6,0,L|350:265,2,107.5
423,195,123333,1,0,0:0:0:0:
452,347,123555,1,0,0:0:0:0:
493,152,123777,1,0,0:0:0:0:
348,270,123999,1,0,0:0:0:0:
317,99,124222,1,0,0:0:0:0:
208,284,124444,6,0,P|198:228|172:173,2,107.5
300,129,125111,1,0,0:0:0:0:
326,298,125333,1,0,0:0:0:0:
266,110,125555,1,0,0:0:0:0:
208,284,125777,1,0,0:0:0:0:
371,207,125999,1,0,0:0:0:0:
164,164,126222,5,0,0:0:0:0:
369,108,126444,1,0,0:0:0:0:
161,76,126666,2,0,L|50:97,1,107.5
270,15,127111,1,0,0:0:0:0:
105,3,127333,1,0,0:0:0:0:
301,42,127555,1,0,0:0:0:0:
174,153,127777,1,0,0:0:0:0:
361,134,127999,6,0,L|472:111,2,107.5
229,223,128666,1,0,0:0:0:0:
301,42,128888,1,0,0:0:0:0:
341,237,129111,1,0,0:0:0:0:
334,15,129333,1,0,0:0:0:0:
159,109,129555,1,0,0:0:0:0:
361,134,129777,5,0,0:0:0:0:
150,208,129999,1,0,0:0:0:0:
353,263,130222,2,0,L|474:278,1,107.5
226,318,130666,1,0,0:0:0:0:
275,152,130888,1,0,0:0:0:0:
339,369,131111,2,0,L|354:248,1,107.5
371,94,131555,5,0,0:0:0:0:
262,234,131777,1,0,0:0:0:0:
413,103,131999,2,0,P|446:66|495:24,1,107.5
256,124,132444,1,0,0:0:0:0:
359,7,132666,1,0,0:0:0:0:
362,188,132888,1,0,0:0:0:0:
253,27,133111,1,0,0:0:0:0:
196,207,133333,6,0,P|183:259|178:313,1,107.5
333,172,133777,2,0,P|346:224|351:278,1,107.5
162,174,134222,2,0,P|149:226|144:280,1,107.5
375,255,134666,2,0,P|370:201|357:149,1,107.5
196,64,135111,5,0,0:0:0:0:
368,17,135333,1,0,0:0:0:0:
124,10,135555,1,0,0:0:0:0:
258,170,135777,6,0,L|265:99,1,53.75
138,226,135999,2,0,L|145:297,1,53.75
272,160,136222,2,0,L|279:89,1,53.75
122,234,136444,2,0,L|129:305,1,53.75
286,150,136666,2,0,L|293:79,1,53.75
88,140,136888,5,0,0:0:0:0:
250,256,137111,1,0,0:0:0:0:
211,78,137333,1,0,0:0:0:0:
127,287,137555,6,0,P|122:315|123:352,1,53.75
286,267,137777,2,0,P|276:241|263:218,1,53.75
113,273,137999,2,0,P|108:301|109:338,1,53.75
294,253,138222,2,0,P|284:227|271:204,1,53.75
99,259,138444,2,0,P|94:287|95:324,1,53.75
245,365,138666,5,0,0:0:0:0:
172,182,138888,1,0,0:0:0:0:
284,343,139111,1,0,0:0:0:0:
312,161,139333,6,0,P|314:131|324:88,1,53.75
452,218,139555,2,0,P|450:188|440:145,1,53.75
297,148,139777,2,0,P|299:118|309:75,1,53.75
472,229,139999,2,0,P|470:199|460:156,1,53.75
282,135,140222,2,0,P|284:105|294:62,1,53.75
421,17,140444,5,0,0:0:0:0:
378,192,140666,1,0,0:0:0:0:
381,1,140888,1,0,0:0:0:0:
465,175,141111,1,0,0:0:0:0:
288,81,141333,1,0,0:0:0:0:
494,33,141555,1,0,0:0:0:0:
269,173,141777,1,0,0:0:0:0:
457,265,141999,1,0,0:0:0:0:
237,307,142222,6,0,L|130:330,1,107.5
11,253,142666,1,0,0:0:0:0:
146,172,142888,6,0,L|204:160,1,53.75
336,247,143111,2,0,L|283:236,1,53.75
148,154,143333,2,0,L|206:142,1,53.75
336,264,143555,2,0,L|283:253,1,53.75
150,136,143777,2,0,L|208:124,1,53.75
353,101,143999,5,0,0:0:0:0:
195,225,144222,1,0,0:0:0:0:
400,195,144444,1,0,0:0:0:0:
287,40,144666,6,0,P|261:40|231:51,1,53.75
347,203,144888,2,0,P|373:203|403:192,1,53.75
278,27,145111,2,0,P|252:27|222:38,1,53.75
360,215,145333,2,0,P|386:215|416:204,1,53.75
269,14,145555,2,0,P|243:14|213:25,1,53.75
179,176,145777,5,0,0:0:0:0:
75,23,145999,1,0,0:0:0:0:
132,239,146222,1,0,0:0:0:0:
216,22,146444,6,0,P|242:14|269:14,1,53.75
412,206,146666,2,0,P|386:214|360:215,1,53.75
225,35,146888,2,0,P|251:27|278:27,1,53.75
399,194,147111,2,0,P|373:202|347:203,1,53.75
234,48,147333,2,0,P|260:40|287:40,1,53.75
254,226,147555,5,0,0:0:0:0:
329,117,147777,1,0,0:0:0:0:
320,283,147999,1,0,0:0:0:0:
239,139,148222,1,0,0:0:0:0:
186,292,148444,1,0,0:0:0:0:
186,292,151099,6,0,B|179:323|143:330|143:330|76:259|79:143|145:91|237:112|245:161,1,387.000014762879
299,263,152099,1,0,0:0:0:0:
299,263,152599,6,0,B|389:139|267:154|300:-5|459:-26|551:57|526:207|416:210,1,516.000019683839
412,131,153849,1,0,0:0:0:0:
252,183,154099,2,0,P|193:203|126:209,1,129.00000492096
48,142,154599,2,0,L|45:109,4,32.2500012302399
206,105,155099,6,0,B|278:72|354:106|319:189|416:223|505:234|508:41|390:101,1,387.000014762879
252,183,156099,1,0,0:0:0:0:
252,183,156599,6,0,B|272:251|263:324|212:383|135:386|39:325|39:325|93:250|176:244,1,516.000019683839
325,313,157849,1,0,0:0:0:0:
165,245,158099,1,0,0:0:0:0:
165,245,158599,5,0,0:0:0:0:
238,153,158765,1,0,0:0:0:0:
271,264,158932,1,0,0:0:0:0:
156,163,159099,6,0,B|130:141|83:131|83:131|396:99,1,387.000014762879
512,87,160099,1,0,0:0:0:0:
512,87,160599,6,0,B|483:59|483:27|483:27|485:214|398:154|347:308|441:335|521:351|559:275|526:222,1,516.000019683839
387,99,161849,1,0,0:0:0:0:
367,342,162099,2,0,P|347:288|341:214,1,129.00000492096
355,90,162599,2,0,L|390:99,4,32.2500012302399
265,48,163099,6,0,B|211:30|140:60|196:109|109:116|28:197|-29:103|15:42|75:13|68:160,1,387.000014762879
11,280,164099,1,0,0:0:0:0:
11,280,164599,6,0,B|35:284|59:268|59:268|36:320|71:385|146:386|212:378|266:349|252:267|252:267|240:316|219:329|179:341|136:339,1,516.000019683839
172,250,165849,1,0,0:0:0:0:
323,325,166099,2,0,P|386:334|426:284,1,129.00000492096
425,288,166599,5,0,0:0:0:0:
348,237,166765,1,0,0:0:0:0:
484,202,166932,1,0,0:0:0:0:
315,139,167099,6,0,B|341:168|400:156|458:43|275:-16|205:64|286:144|121:160,1,387.000014762879
21,65,168099,1,0,0:0:0:0:
21,65,168599,6,0,B|21:-2|149:-22|226:75|84:216|91:296|91:296|84:216|23:202,1,516.000019683839
173,269,169849,1,0,0:0:0:0:
232,128,170099,2,0,P|240:82|275:2,1,129.00000492096
406,2,170599,2,0,L|450:-1,4,32.2500012302399
351,106,171099,5,0,0:0:0:0:
471,80,171265,1,0,0:0:0:0:
331,159,171432,2,0,P|321:120|317:69,1,86.0000032806398
403,235,171765,1,0,0:0:0:0:
490,163,171932,2,0,P|500:124|504:73,1,86.0000032806398
402,273,172265,1,0,0:0:0:0:
293,153,172432,2,0,P|283:114|279:63,2,86.0000032806398
278,303,172932,1,0,0:0:0:0:
409,190,173099,6,0,P|445:173|492:162,1,86.0000032806398
293,153,173432,1,0,0:0:0:0:
402,273,173599,2,0,P|441:276|487:290,1,86.0000032806398
279,338,173932,1,0,0:0:0:0:
177,245,174099,2,0,P|137:248|91:262,1,86.0000032806398
93,261,174599,5,0,0:0:0:0:
61,359,174765,1,0,0:0:0:0:
19,223,174932,1,0,0:0:0:0:
149,328,175099,6,0,B|171:343|185:374|185:374|172:215|163:35,1,387.000014762879
266,180,176099,1,0,0:0:0:0:
266,180,176599,6,0,B|391:196|324:46|531:63|627:227|447:404|421:243|291:345,1,516.000019683839
412,216,177849,1,0,0:0:0:0:
285,104,178099,2,0,P|224:101|158:129,1,129.00000492096
104,241,178599,2,0,L|94:198,4,32.2500012302399
241,321,179099,6,0,B|192:308|140:327|140:327|207:276|292:320|292:320|353:350|433:350,1,387.000014762879
501,247,180099,1,0,0:0:0:0:
501,247,180599,6,0,B|485:171|552:90|488:13|488:13|411:23|379:106|379:106|319:63|252:98,1,516.000019683839
146,37,181849,1,0,0:0:0:0:
315,162,182099,2,0,P|246:167|185:134,1,129.00000492096
146,37,182599,5,0,0:0:0:0:
263,92,182765,1,0,0:0:0:0:
111,122,182932,1,0,0:0:0:0:
227,8,183099,6,0,B|283:1|283:1|480:54|480:54|350:78,1,387.000014762879
206,110,184099,1,0,0:0:0:0:
206,110,184599,6,0,B|237:296|182:186|257:303|202:379|42:363|28:262|54:198|54:198|52:235|96:270,1,516.000019683839
9,359,185849,1,0,0:0:0:0:
130,196,186099,2,0,P|106:144|40:123,1,129.00000492096
37,225,186599,2,0,L|60:188,4,32.2500012302399
173,265,187099,6,0,B|321:311|277:223|424:178|521:282|417:376|373:329,1,387.000014762879
239,194,188099,1,0,0:0:0:0:
239,194,188599,6,0,B|91:148|135:236|-17:265|-55:90|-12:11|56:-25|163:6|173:87|98:122,1,516.000019683839
0,241,189849,1,0,0:0:0:0:
179,267,190099,2,0,P|236:270|317:286,1,129.00000492096
443,358,190599,2,0,P|386:361|305:377,1,129.00000492096
