osu file format v14

[General]
AudioFilename: audio.mp3
AudioLeadIn: 0
PreviewTime: 109397
Countdown: 0
SampleSet: Soft
StackLeniency: 0.7
Mode: 0
LetterboxInBreaks: 0
WidescreenStoryboard: 1

[Editor]
Bookmarks: 5169,147674,294711
DistanceSpacing: 1.2
BeatDivisor: 4
GridSize: 32
TimelineZoom: 2.7

[Metadata]
Title:Happier Than Ever
TitleUnicode:Happier Than Ever
Artist:Billie Eilish
ArtistUnicode:Billie Eilish
Creator:ninore
Version:you're not worth it
Source:
Tags:my angel nino english pop alternative alt noise rock 2021 youre
BeatmapID:4048812
BeatmapSetID:1954885

[Difficulty]
HPDrainRate:5
CircleSize:4
OverallDifficulty:8
ApproachRate:8.2
SliderMultiplier:1.8
SliderTickRate:1

[Events]
//Background and Video events
0,0,"wallhaven-z8jxjv_1920x1080.jpg",0,0
//Break Periods
2,138402,146959
//Storyboard Layer 0 (Background)
//Storyboard Layer 1 (Fail)
//Storyboard Layer 2 (Pass)
//Storyboard Layer 3 (Foreground)
//Storyboard Layer 4 (Overlay)
//Storyboard Sound Samples

[TimingPoints]
6836,666.666666666667,4,2,0,30,1,0
6836,-125,4,2,0,30,0,0
14169,655.737704918033,4,2,0,30,1,0
14169,-125,4,2,0,30,0,0
15480,625,4,2,0,30,1,0
15480,-125,4,2,0,30,0,0
15896,681.818181818182,4,2,0,30,1,0
15896,-125,4,2,0,30,0,0
16123,666.666666666667,4,2,0,30,1,0
16123,-125,4,2,0,30,0,0
16567,685.714285714286,4,2,0,30,1,0
16567,-125,4,2,0,30,0,0
17481,600,4,2,0,30,1,0
17481,-125,4,2,0,30,0,0
18681,797.34219269103,4,2,0,30,1,0
19478,693.64161849711,4,2,0,30,1,0
19478,-125,4,2,0,30,0,0
20171,638.297872340426,4,2,0,30,1,0
20171,-125,4,2,0,30,0,0
20809,710.059171597633,4,2,0,30,1,0
21282,666.666666666667,4,2,0,30,1,0
21282,-125,4,2,0,30,0,0
21504,666.666666666667,4,2,0,30,1,0
21504,-125,4,2,0,30,0,0
22170,612.244897959184,4,2,0,30,1,0
22170,-125,4,2,0,30,0,0
22578,714.285714285715,4,2,0,30,1,0
22578,-125,4,2,0,30,0,0
22816,638.297872340426,4,2,0,30,1,0
22816,-125,4,2,0,30,0,0
24092,750,4,2,0,30,1,0
24842,631.578947368421,4,2,0,30,1,0
24842,-125,4,2,0,30,0,0
26736,576.923076923077,4,2,0,30,1,0
26736,-125,4,2,0,30,0,0
27312,689.655172413793,4,2,0,30,1,0
27312,-125,4,2,0,30,0,0
28231,606.060606060606,4,2,0,30,1,0
28231,-125,4,2,0,30,0,0
29443,725.075528700906,4,2,0,30,1,0
29443,-125,4,2,0,30,0,0
30893,588.235294117647,4,2,0,30,1,0
30893,-125,4,2,0,30,0,0
31873,588.235294117647,4,2,0,30,1,0
31873,-125,4,2,0,30,0,0
32167,625,4,2,0,30,1,0
32167,-125,4,2,0,30,0,0
32583,731.70731707317,4,2,0,30,1,0
32583,-125,4,2,0,30,0,0
33314,545.454545454545,4,2,0,30,1,0
33314,-125,4,2,0,30,0,0
34950,588.235294117647,4,2,0,30,1,0
34950,-125,4,2,0,30,0,0
35538,638.297872340425,4,2,0,30,1,0
35538,-125,4,2,0,30,0,0
36814,705.882352941176,4,2,0,30,1,0
36814,-125,4,2,0,30,0,0
37755,612.244897959184,4,2,0,30,1,0
37755,-125,4,2,0,30,0,0
38367,740.74074074074,4,2,0,30,1,0
38367,-125,4,2,0,30,0,0
39107,759.493670886076,4,2,0,30,1,0
39107,-125,4,2,0,30,0,0
39866,648.648648648648,4,2,0,30,1,0
39866,-125,4,2,0,30,0,0
41163,714.285714285714,4,2,0,30,1,0
41163,-125,4,2,0,30,0,0
42591,789.473684210526,4,2,0,30,1,0
42591,-125,4,2,0,30,0,0
43117,652.173913043478,4,2,0,30,1,0
43117,-125,4,2,0,30,0,0
43769,560.747663551402,4,2,0,30,1,0
43955,714.285714285714,4,2,0,30,1,0
43955,-125,4,2,0,30,0,0
44193,638.297872340425,4,2,0,30,1,0
44193,-125,4,2,0,30,0,0
46107,697.674418604651,4,2,0,30,1,0
46107,-125,4,2,0,30,0,0
49492,681.818181818182,4,2,0,30,1,0
49492,-125,4,2,0,30,0,0
50173,625,4,2,0,30,1,0
52048,550.458715596331,4,2,0,30,1,0
52598,582.524271844661,4,2,0,30,1,0
52598,-125,4,2,0,30,0,0
53763,-125,4,2,0,30,0,0
54345,583.941605839417,4,2,0,30,1,0
54345,-125,4,2,0,30,0,0
59016,610.687022900764,4,2,0,30,1,0
59016,-125,4,2,0,30,0,0
61458,568.72037914692,4,2,0,30,1,0
61458,-125,4,2,0,30,0,0
64870,618.556701030929,4,2,0,30,1,0
64870,-125,4,2,0,30,0,0
66107,576.923076923078,4,2,0,30,1,0
66107,-125,4,2,0,30,0,0
68222,-94.435601665571,4,2,0,30,0,0
68414,638.297872340426,4,2,0,30,1,0
68414,-125,4,2,0,30,0,0
69850,-97.1102899766874,4,2,0,30,0,0
72650,612.244897959185,4,2,0,30,1,0
72650,-125,4,2,0,30,0,0
73264,498.960498960499,4,2,0,30,1,0
73264,-125,4,2,0,30,0,0
73762,542.986425339367,4,2,0,30,1,0
73762,-125,4,2,0,30,0,0
74304,633.245382585752,4,2,0,30,1,0
74304,-125,4,2,0,30,0,0
74937,604.534005037783,4,2,0,30,1,0
74937,-125,4,2,0,30,0,0
76750,567.375886524823,4,2,0,30,1,0
76750,-125,4,2,0,30,0,0
77884,578.313253012048,4,2,0,30,1,0
77884,-125,4,2,0,30,0,0
81353,607.59493670886,4,2,0,30,1,0
81353,-125,4,2,0,30,0,0
84998,550.45871559633,4,2,0,30,1,0
84998,-125,4,2,0,30,0,0
86098,576.923076923076,4,2,0,30,1,0
86098,-125,4,2,0,30,0,0
89559,621.761658031087,4,2,0,30,1,0
89559,-125,4,2,0,30,0,0
92046,491.803278688524,4,2,0,30,1,0
92046,-125,4,2,0,30,0,0
92618,571.42857142857,4,2,0,30,1,0
92618,-125,4,2,0,30,0,0
93524,571.42857142857,4,2,0,30,1,0
93714,638.297872340424,4,2,0,30,1,0
93714,-125,4,2,0,30,0,0
94990,585.365853658536,4,2,0,30,1,0
94990,-125,4,2,0,30,0,0
96746,585.365853658536,4,2,0,30,1,0
96746,-125,4,2,0,30,0,0
99087,662.983425414363,4,2,0,30,1,0
99087,-125,4,2,0,30,0,0
103396,-125,4,2,0,30,0,0
105053,-125,4,2,0,30,0,0
105783,645.161290322582,4,2,0,30,1,0
105783,-125,4,2,0,30,0,0
108363,689.655172413795,4,2,0,30,1,0
108363,-125,4,2,0,30,0,0
111129,618.556701030928,4,2,0,30,1,0
111129,-125,4,2,0,30,0,0
112366,705.882352941177,4,2,0,30,1,0
113777,521.739130434783,4,2,0,30,1,0
113777,-128.725482217428,4,2,0,30,0,0
114368,666.666666666667,4,2,0,30,1,0
114812,821.917808219178,4,2,0,30,1,0
115085,625,4,2,0,30,1,0
115085,-125,4,2,0,30,0,0
119731,672.268907563025,4,2,0,30,1,0
119731,-125,4,2,0,30,0,0
122419,659.34065934066,4,2,0,30,1,0
122419,-125,4,2,0,30,0,0
127034,674.157303370787,4,2,0,30,1,0
127034,-125,4,2,0,30,0,0
135798,697.674418604652,4,2,0,30,1,0
135798,-125,4,2,0,30,0,0
136495,731.707317073172,4,2,0,30,1,0
136495,-125,4,2,0,30,0,0
137226,1176.4705882353,4,2,0,30,1,0
137226,-125,4,2,0,30,0,0
138432,384.615384615385,6,2,0,30,1,0
138432,-125,4,2,0,30,0,0
147679,370.37037037037,6,2,0,45,1,0
163234,-250,6,2,0,50,0,0
165456,-166.666666666667,6,2,0,65,0,0
168745,370.37037037037,6,2,0,65,1,0
168745,-250,6,2,0,65,0,0
169022,-250,6,2,0,5,0,0
169115,-250,6,2,0,65,0,0
169393,-250,6,2,0,5,0,0
169486,-250,6,2,0,65,0,0
169763,-250,6,2,0,5,0,0
169856,370.37037037037,6,2,0,5,1,0
169856,-166.666666666667,6,2,0,65,0,0
172122,363.636363636363,6,2,0,65,1,0
172122,-166.666666666667,6,2,0,65,0,0
174303,370.37037037037,6,2,0,65,1,0
174303,-166.666666666667,6,2,0,65,0,0
176567,370.37037037037,6,2,0,65,1,0
176567,-166.666666666667,6,2,0,65,0,0
178775,370.37037037037,6,2,0,65,1,0
178775,-166.666666666667,6,2,0,65,0,0
181008,365.853658536585,6,2,0,65,1,0
183233,370.37037037037,6,2,0,80,1,0
183233,-71.4285714285715,6,2,0,80,0,0
183973,-100,6,2,0,80,0,0
184343,-83.3333333333333,6,2,0,80,0,0
185084,-55.5555555555556,6,2,0,80,0,0
185454,-90.9090909090909,6,2,0,80,0,0
186010,-142.857142857143,6,2,0,80,0,0
187676,-66.6666666666667,6,2,0,80,0,0
188417,-100,6,2,0,80,0,0
188788,-55.5555555555556,6,2,0,80,0,0
189158,-66.6666666666667,6,2,0,80,0,0
189528,-100,6,2,0,80,0,0
189899,-83.3333333333333,6,2,0,80,0,0
191010,-55.5555555555556,6,2,0,80,0,0
192121,-71.4285714285714,6,2,0,80,0,0
192862,-90.9090909090909,6,2,0,80,0,0
193788,-76.9230769230769,6,2,0,80,0,0
196380,-100,6,2,0,80,0,0
196565,-62.5,6,2,0,80,0,0
197306,-83.3333333333333,6,2,0,80,0,0
197676,-55.5555555555556,6,2,0,80,0,0
198047,-66.6666666666667,6,2,0,80,0,0
198417,-100,6,2,0,80,0,0
198788,-76.9230769230769,6,2,0,80,0,0
199899,-55.5555555555556,6,2,0,80,0,0
201010,-71.4285714285714,6,2,0,80,0,0
204343,-100,6,2,0,80,0,0
205454,-71.4285714285714,6,2,0,80,0,0
207676,-50,6,2,0,80,0,0
209899,-66.6666666666667,6,2,0,80,0,0
210639,-100,6,2,0,80,0,0
211751,-55.5555555555556,6,2,0,80,0,0
212121,-71.4285714285714,6,2,0,80,0,0
212306,-62.5,6,2,0,80,0,0
212676,-71.4285714285714,6,2,0,80,0,0
213973,-100,6,2,0,80,0,0
214343,-71.4285714285714,6,2,0,80,0,0
215084,-100,6,2,0,80,0,0
215454,-55.5555555555556,6,2,0,80,0,0
215825,-66.6666666666667,6,2,0,80,0,0
216195,-100,6,2,0,80,0,0
217676,-50,6,2,0,80,0,0
218788,-66.6666666666667,6,2,0,80,0,0
219528,-100,6,2,0,80,0,0
221010,-76.9230769230769,6,2,0,80,0,0
221751,-100,6,2,0,80,0,0
224343,-55.5555555555556,6,2,0,80,0,0
224714,-66.6666666666667,6,2,0,80,0,0
225084,-100,6,2,0,80,0,0
225454,-71.4285714285714,6,2,0,80,0,0
226565,-62.5,6,2,0,80,0,0
227676,-100,6,2,0,50,0,0
229343,-100,6,2,0,80,0,0
229899,-100,6,2,0,50,0,0
231565,-100,6,2,0,80,0,0
232121,-100,6,2,0,50,0,0
233788,-100,6,2,0,80,0,0
234343,-100,6,2,0,50,0,0
236010,-100,6,2,0,80,0,0
236565,-100,6,2,0,65,0,0
243232,-666.666666666667,6,2,0,87,0,1
245454,-62.5,6,2,0,80,0,0
246195,-100,6,2,0,80,0,0
246936,-142.857142857143,6,2,0,80,0,0
247306,-45.4545454545455,6,2,0,80,0,0
247676,-66.6666666666667,6,2,0,80,0,0
248047,-52.6315789473684,6,2,0,80,0,0
248788,-35.7142857142857,6,2,0,80,0,0
249158,-50,6,2,0,80,0,0
249528,-66.6666666666667,6,2,0,80,0,0
250639,-100,6,2,0,80,0,0
251380,-45.4545454545455,6,2,0,80,0,0
252121,-71.4285714285714,6,2,0,80,0,0
253232,-55.5555555555556,6,2,0,80,0,0
254343,-40,6,2,0,80,0,1
254366,-40,6,2,1,80,0,1
254389,-40,6,2,0,100,0,1
254413,-40,6,2,1,80,0,1
254436,-40,6,2,0,100,0,1
254459,-40,6,2,1,80,0,1
254482,-40,6,2,0,100,0,1
254505,-40,6,2,1,80,0,1
254528,-40,6,2,0,100,0,1
254551,-40,6,2,1,80,0,1
254574,-40,6,2,0,100,0,1
254598,-40,6,2,1,80,0,1
254621,-40,6,2,0,100,0,1
254644,-40,6,2,1,80,0,1
254667,-40,6,2,0,100,0,1
254690,-40,6,2,1,80,0,1
254713,-40,6,2,0,100,0,1
254737,-40,6,2,1,80,0,1
254760,-40,6,2,0,100,0,1
254783,-40,6,2,1,80,0,1
254806,-40,6,2,0,100,0,1
254829,-40,6,2,1,80,0,1
254852,-40,6,2,0,100,0,1
254876,-40,6,2,1,80,0,1
254899,-40,6,2,0,100,0,1
254922,-40,6,2,1,80,0,1
254945,-40,6,2,0,100,0,1
254968,-40,6,2,1,80,0,1
254991,-40,6,2,0,100,0,1
255014,-40,6,2,1,80,0,1
255037,-40,6,2,0,100,0,1
255061,-40,6,2,1,80,0,1
255084,-40,6,2,0,100,0,1
255107,-40,6,2,1,80,0,1
255130,-40,6,2,0,100,0,1
255153,-40,6,2,1,80,0,1
255176,-40,6,2,0,100,0,1
255200,-40,6,2,1,80,0,1
255223,-40,6,2,0,100,0,1
255246,-40,6,2,1,80,0,1
255269,-40,6,2,0,80,0,1
255454,-100,6,2,0,80,0,0
256195,-35.7142857142857,6,2,0,80,0,0
256565,-76.9230769230769,6,2,0,80,0,0
257306,-100,6,2,0,80,0,0
258232,-62.5,6,2,0,80,0,0
258417,-37.037037037037,6,2,0,80,0,1
258440,-37.037037037037,6,2,1,80,0,1
258464,-37.037037037037,6,2,0,100,0,1
258487,-37.037037037037,6,2,1,80,0,1
258511,-37.037037037037,6,2,0,100,0,1
258533,-37.037037037037,6,2,1,80,0,1
258557,-37.037037037037,6,2,0,100,0,1
258579,-37.037037037037,6,2,1,80,0,1
258603,-37.037037037037,6,2,0,100,0,1
258626,-37.037037037037,6,2,1,80,0,1
258650,-37.037037037037,6,2,0,100,0,1
258672,-37.037037037037,6,2,1,80,0,1
258696,-37.037037037037,6,2,0,100,0,1
258718,-37.037037037037,6,2,1,80,0,1
258742,-37.037037037037,6,2,0,100,0,1
258764,-37.037037037037,6,2,1,80,0,1
258788,-37.037037037037,6,2,0,100,0,1
258811,-37.037037037037,6,2,1,80,0,1
258835,-37.037037037037,6,2,0,100,0,1
258857,-37.037037037037,6,2,1,80,0,1
258881,-37.037037037037,6,2,0,100,0,1
258903,-37.037037037037,6,2,1,80,0,1
258927,-37.037037037037,6,2,0,100,0,1
258950,-37.037037037037,6,2,1,80,0,1
258974,-37.037037037037,6,2,0,100,0,1
258996,-37.037037037037,6,2,1,80,0,1
259020,-37.037037037037,6,2,0,100,0,1
259042,-37.037037037037,6,2,1,80,0,1
259066,-37.037037037037,6,2,0,100,0,1
259089,-37.037037037037,6,2,1,80,0,1
259113,-37.037037037037,6,2,0,100,0,1
259135,-37.037037037037,6,2,1,80,0,1
259158,-100,6,2,0,80,0,0
260454,-36.2369140289028,6,2,0,80,0,1
260477,-36.2369140289028,6,2,1,80,0,1
260501,-36.2369140289028,6,2,0,100,0,1
260524,-36.2369140289028,6,2,1,80,0,1
260548,-36.2369140289028,6,2,0,100,0,1
260570,-36.2369140289028,6,2,1,80,0,1
260594,-36.2369140289028,6,2,0,100,0,1
260616,-36.2369140289028,6,2,1,80,0,1
260640,-36.2369140289028,6,2,0,100,0,1
260663,-36.2369140289028,6,2,1,80,0,1
260687,-36.2369140289028,6,2,0,100,0,1
260709,-36.2369140289028,6,2,1,80,0,1
260733,-36.2369140289028,6,2,0,100,0,1
260755,-36.2369140289028,6,2,1,80,0,1
260779,-36.2369140289028,6,2,0,100,0,1
260801,-36.2369140289028,6,2,1,80,0,1
260825,-36.2369140289028,6,2,0,100,0,1
260848,-36.2369140289028,6,2,1,80,0,1
260872,-36.2369140289028,6,2,0,100,0,1
260894,-36.2369140289028,6,2,1,80,0,1
260918,-36.2369140289028,6,2,0,100,0,1
260940,-36.2369140289028,6,2,1,80,0,1
260964,-36.2369140289028,6,2,0,100,0,1
260987,-36.2369140289028,6,2,1,80,0,1
261011,-36.2369140289028,6,2,0,100,0,1
261033,-36.2369140289028,6,2,1,80,0,1
261057,-36.2369140289028,6,2,0,100,0,1
261079,-36.2369140289028,6,2,1,80,0,1
261103,-36.2369140289028,6,2,0,100,0,1
261126,-36.2369140289028,6,2,1,80,0,1
261150,-36.2369140289028,6,2,0,100,0,1
261172,-36.2369140289028,6,2,1,80,0,1
261196,-36.2369140289028,6,2,0,100,0,1
261218,-36.2369140289028,6,2,1,80,0,1
261242,-36.2369140289028,6,2,0,100,0,1
261264,-36.2369140289028,6,2,1,80,0,1
261288,-36.2369140289028,6,2,0,100,0,1
261311,-36.2369140289028,6,2,1,80,0,1
261335,-36.2369140289028,6,2,0,100,0,1
261357,-36.2369140289028,6,2,1,80,0,1
261381,-36.2369140289028,6,2,0,100,0,1
261403,-36.2369140289028,6,2,1,80,0,1
261427,-36.2369140289028,6,2,0,100,0,1
261450,-36.2369140289028,6,2,1,80,0,1
261474,-36.2369140289028,6,2,0,100,0,1
261496,-36.2369140289028,6,2,1,80,0,1
261520,-36.2369140289028,6,2,0,100,0,1
261542,-36.2369140289028,6,2,1,80,0,1
261566,-36.2369140289028,6,2,0,100,0,1
261589,-36.2369140289028,6,2,1,80,0,1
261613,-36.2369140289028,6,2,0,100,0,1
261635,-36.2369140289028,6,2,1,80,0,1
261659,-36.2369140289028,6,2,0,100,0,1
261681,-36.2369140289028,6,2,1,80,0,1
261705,-36.2369140289028,6,2,0,100,0,1
261727,-36.2369140289028,6,2,1,80,0,1
261751,-36.2369140289028,6,2,0,100,0,1
261774,-36.2369140289028,6,2,1,80,0,1
261798,-36.2369140289028,6,2,0,100,0,1
261820,-36.2369140289028,6,2,1,80,0,1
261844,-36.2369140289028,6,2,0,100,0,1
261866,-36.2369140289028,6,2,1,80,0,1
261890,-36.2369140289028,6,2,0,100,0,1
261913,-36.2369140289028,6,2,1,80,0,1
261937,-36.2369140289028,6,2,0,80,0,0
262121,-40,6,2,0,80,0,0
263232,-62.5,6,2,0,80,0,0
263602,-100,6,2,0,80,0,0
264343,-83.3333333333333,6,2,0,80,0,0
265084,-45.4545454545455,6,2,0,80,0,0
265454,-71.4285714285714,6,2,0,80,0,0
266195,-100,6,2,0,80,0,0
266565,-55.5555555555556,6,2,0,80,0,0
266936,-100,6,2,0,80,0,0
267676,-66.6666666666667,6,2,0,80,0,0
268417,-100,6,2,0,80,0,0
269158,-43.4782608695652,6,2,0,80,0,0
270825,-100,6,2,0,80,0,0
271010,-45.4545454545455,6,2,0,80,0,0
272862,-100,6,2,0,80,0,0
273973,-45.4545454545455,6,2,0,80,0,0
275084,-100,6,2,0,80,0,0
278047,-45.4545454545455,6,2,0,80,0,0
278788,-100,6,2,0,80,0,0
279899,-55.5555555555556,6,2,0,80,0,0
281010,-1000,6,2,0,80,0,0

[Colours]
Combo1 : 241,7,136
Combo2 : 252,184,199
Combo3 : 190,242,147
Combo4 : 162,240,244
Combo5 : 250,201,248
Combo6 : 236,0,0
Combo7 : 255,134,13
Combo8 : 178,178,178

[HitObjects]
15,357,6836,6,0,P|43:362|165:314,1,144,2|0,3:2|3:2,3:2:0:0:
243,241,8836,21,0,3:2:0:0:
144,311,9502,2,0,B|192:269|222:293|281:251,1,144,0|0,3:2|3:2,3:2:0:0:
361,235,10613,85,2,3:2:0:0:
317,168,10836,2,0,P|329:138|336:111,1,48,2|0,3:2|3:2,3:2:0:0:
425,144,11280,21,2,3:2:0:0:
407,65,11503,2,0,P|428:41|445:18,1,48,2|0,3:2|3:2,3:2:0:0:
509,10,11947,85,2,3:2:0:0:
386,68,12169,2,0,P|325:89|219:97,2,144,2|0|2,3:2|3:2|3:2,3:2:0:0:
386,68,14824,1,0,3:2:0:0:
372,211,15480,22,0,P|370:182|361:157,1,48,2|0,3:2|3:2,3:2:0:0:
453,203,15896,1,2,3:2:0:0:
295,246,16123,86,0,P|279:222|259:205,1,48,2|0,3:2|3:2,3:2:0:0:
361,198,16567,1,2,3:2:0:0:
247,316,16795,22,0,P|221:303|195:298,1,48,2|0,3:2|3:2,3:2:0:0:
280,241,17252,1,2,3:2:0:0:
135,335,17481,86,0,B|84:376|48:344|1:385,2,144,2|0|0,3:2|3:2|3:2,3:2:0:0:
33,322,19478,1,0,3:2:0:0:
112,369,20171,2,0,B|113:303|161:297|161:235,1,144,2|0,3:2|3:2,3:2:0:0:
112,24,21282,21,2,3:2:0:0:
43,67,21504,2,0,P|57:103|78:136,1,48,2|0,3:2|3:2,3:2:0:0:
186,42,21947,85,2,3:2:0:0:
147,113,22170,2,0,P|177:137|211:155,1,48,2|0,3:2|3:2,3:2:0:0:
110,33,22578,21,2,3:2:0:0:
275,120,22816,2,0,B|347:142|408:126|410:59,2,144,2|0|0,3:2|3:2|3:2,3:2:0:0:
360,102,24592,1,0,3:2:0:0:
360,102,24842,1,0,3:2:0:0:
242,18,25473,86,0,B|281:81|282:144|218:164,1,144,2|0,3:2|3:2,3:2:0:0:
446,336,26526,21,2,3:2:0:0:
91,274,27312,2,0,B|53:252|-5:239|-5:239|51:226,1,144,2|2,3:2|3:2,3:2:0:0:
161,237,28231,85,2,3:2:0:0:
274,8,28837,2,0,P|261:68|236:154,1,144,0|0,3:2|3:2,3:2:0:0:
315,324,30168,21,2,3:2:0:0:
204,132,30893,2,0,P|231:189|256:273,1,144,2|0,3:2|3:2,3:2:0:0:
284,72,31873,85,2,3:2:0:0:
384,0,32167,2,0,P|363:10|341:19,1,48,2|0,3:2|3:2,3:2:0:0:
212,102,32583,21,2,3:2:0:0:
89,78,32826,2,0,P|113:80|137:77,1,48,2|0,3:2|3:2,3:2:0:0:
274,151,33314,85,2,3:2:0:0:
351,163,33495,2,0,P|371:175|393:185,1,48,0|0,3:2|3:2,3:2:0:0:
199,194,33950,22,0,P|179:253|115:340,1,144,2|0,3:2|3:2,3:2:0:0:
267,247,34950,2,0,P|283:316|315:398,1,144,2|0,3:2|3:2,3:2:0:0:
308,384,36176,1,0,3:2:0:0:
45,243,36814,1,0,3:2:0:0:
132,158,37284,85,2,3:2:0:0:
180,221,37519,2,0,P|164:255|146:280,1,48,2|0,3:2|3:2,3:2:0:0:
201,110,37959,21,2,3:2:0:0:
279,115,38163,2,0,P|298:83|309:54,1,48,2|0,3:2|3:2,3:2:0:0:
88,87,38737,86,0,P|56:76|36:63,1,48,0|0,3:2|3:2,3:2:0:0:
8,105,39107,2,0,P|29:95|96:-9,1,144,0|0,3:2|3:2,3:2:0:0:
346,195,40838,22,0,L|329:141,1,48,0|0,3:2|3:2,3:2:0:0:
145,29,41639,86,0,P|99:41|26:84,1,120,2|0,3:2|3:2,3:2:0:0:
254,222,42591,21,2,3:2:0:0:
292,154,42854,2,0,P|283:120|274:93,1,48,2|0,3:2|3:2,3:2:0:0:
177,251,43334,85,2,3:2:0:0:
155,325,43551,2,0,P|124:342|98:354,1,48,2|0,3:2|3:2,3:2:0:0:
36,320,43955,21,2,3:2:0:0:
233,195,44193,2,0,B|273:150|322:177|378:120,2,144,2|0|0,3:2|3:2|3:2,3:2:0:0:
387,328,46107,1,0,3:2:0:0:
199,176,46804,86,0,P|175:154|158:132,2,48,2|0|2,3:2|3:2|3:2,3:2:0:0:
165,55,47502,2,0,B|126:61|51:42|10:-6,1,144,2|0,3:2|3:2,3:2:0:0:
0,0,48897,1,2,3:2:0:0:
255,32,49492,6,0,P|276:76|361:149,1,144,2|0,3:2|3:2,3:2:0:0:
271,214,51423,2,0,P|306:171|324:97,1,120,0|0,3:2|3:2,3:2:0:0:
306,34,52048,1,0,3:2:0:0:
246,196,52598,22,0,B|222:259|173:221|146:308,1,144,0|0,3:2|3:2,3:2:0:0:
0,0,53763,85,2,3:2:0:0:
308,42,54345,2,0,P|245:45|150:62,1,144,2|0,3:2|3:2,3:2:0:0:
285,87,55318,21,0,3:2:0:0:
285,87,55512,1,0,3:2:0:0:
96,12,56096,86,0,P|113:38|139:66,1,48,2|0,3:2|3:2,3:2:0:0:
37,66,56486,1,2,3:2:0:0:
76,141,56680,22,0,P|104:154|141:164,1,48,2|0,3:2|3:2,3:2:0:0:
54,218,57070,1,2,3:2:0:0:
171,268,57264,86,0,B|145:275|113:275|113:275|78:310|36:325,1,144,2|0,3:2|3:2,3:2:0:0:
42,322,58432,1,2,3:2:0:0:
377,384,59016,22,0,P|437:375|520:337,1,144,2|0,3:2|3:2,3:2:0:0:
512,341,60237,1,0,3:2:0:0:
362,285,60644,85,2,3:2:0:0:
284,293,60848,2,0,P|255:274|239:257,1,48,2|0,3:2|3:2,3:2:0:0:
293,199,61255,21,2,3:2:0:0:
240,140,61458,2,0,P|238:105|243:82,1,48,2|0,3:2|3:2,3:2:0:0:
323,73,61837,85,2,3:2:0:0:
469,0,62026,2,0,B|419:39|387:10|330:60,1,144,2|0,3:2|3:2,3:2:0:0:
256,192,63164,1,2,3:2:0:0:
76,380,63732,22,0,B|19:353|11:316|39:247,1,144,2|0,3:2|3:2,3:2:0:0:
137,148,64870,1,0,3:2:0:0:
57,280,65282,85,2,3:2:0:0:
130,249,65488,2,0,P|106:226|94:206,1,48,2|0,3:2|3:2,3:2:0:0:
171,177,65900,21,2,3:2:0:0:
244,207,66107,2,0,P|244:174|250:151,1,48,0|0,3:2|3:2,3:2:0:0:
335,192,66491,85,2,3:2:0:0:
275,364,66683,2,0,P|259:309|213:215,1,144,2|0,3:2|3:2,3:2:0:0:
397,311,67837,22,0,P|428:317|480:317,1,48,2|0,3:2|3:2,3:2:0:0:
280,271,68222,2,0,P|288:226|321:145,1,133.475085430576,2|0,3:2|3:2,3:2:0:0:
176,191,68945,2,0,P|158:159|99:119,1,96,2|2,3:2|3:2,3:2:0:0:
316,109,69850,2,0,P|371:73|442:60,1,138.807123356711,2|2,3:2|3:2,3:2:0:0:
236,3,70754,85,2,3:2:0:0:
276,381,72650,21,2,3:2:0:0:
81,247,73264,2,0,B|96:232|147:235|220:304,1,144,2|0,3:2|3:2,3:2:0:0:
299,381,74123,2,0,P|269:364|241:323,1,48,0|0,3:2|3:2,3:2:0:0:
140,210,74937,70,0,P|124:171|108:91,1,96,2|2,3:2|3:2,3:2:0:0:
227,48,75541,2,0,P|217:82|214:107,1,48,2|0,3:2|3:2,3:2:0:0:
146,47,75944,37,2,3:2:0:0:
80,105,76146,2,0,P|54:147|16:195,1,96,2|0,3:2|3:2,3:2:0:0:
479,82,77128,1,0,3:2:0:0:
410,138,77317,70,0,P|359:127|258:72,1,144,2|2,3:2|3:2,3:2:0:0:
277,86,78462,1,0,3:2:0:0:
309,231,78847,37,2,3:2:0:0:
234,251,79040,2,0,P|203:237|179:215,1,48,2|0,3:2|3:2,3:2:0:0:
352,143,79426,69,2,3:2:0:0:
307,206,79619,2,0,P|274:215|241:213,1,48,2|0,3:2|3:2,3:2:0:0:
338,63,80004,37,2,3:2:0:0:
342,236,80197,2,0,P|361:308|389:366,1,96,2|2,3:2|3:2,3:2:0:0:
362,196,80775,1,2,3:2:0:0:
74,351,81353,1,0,3:2:0:0:
0,126,81960,70,0,B|17:77|86:95|105:18,1,144,2|2,3:2|3:2,3:2:0:0:
125,196,82973,37,2,3:2:0:0:
175,252,83175,2,0,P|201:268|252:283,1,48,2|0,3:2|3:2,3:2:0:0:
221,68,83580,69,2,3:2:0:0:
205,141,83782,2,0,P|207:171|225:221,1,48,2|0,3:2|3:2,3:2:0:0:
378,49,84188,37,2,3:2:0:0:
314,88,84390,2,0,P|293:110|270:158,1,48,2|0,3:2|3:2,3:2:0:0:
449,86,84796,69,2,3:2:0:0:
227,71,84998,2,0,P|153:51|99:22,1,96,2|2,3:2|3:2,3:2:0:0:
270,49,85548,1,2,3:2:0:0:
388,342,86098,1,0,3:2:0:0:
441,122,86674,37,2,3:2:0:0:
270,49,87059,2,0,B|292:72|319:51|376:99,1,96,2|0,3:2|3:2,3:2:0:0:
350,162,87636,2,0,B|363:113|333:98|344:67,1,96,2|2,3:2|3:2,3:2:0:0:
375,176,88598,2,0,P|379:240|425:316,1,144,2|2,3:2|3:2,3:2:0:0:
488,368,89463,1,2,3:2:0:0:
30,200,91113,69,2,3:2:0:0:
162,230,91424,38,0,P|222:221|270:200,1,96,2|2,3:2|3:2,3:2:0:0:
134,203,92046,2,0,B|109:205|87:242|73:309,1,96,2|2,3:2|3:2,3:2:0:0:
270,173,92618,2,0,P|249:65|232:13,1,144,2|0,3:2|3:2,3:2:0:0:
33,10,93524,69,2,3:2:0:0:
87,60,93714,2,0,P|119:72|149:86,1,48,2|0,3:2|3:2,3:2:0:0:
195,233,94139,37,2,3:2:0:0:
211,161,94352,2,0,P|205:127|202:94,1,48,2|0,3:2|3:2,3:2:0:0:
273,18,94777,69,2,3:2:0:0:
67,127,94990,2,0,B|114:82|149:116|208:48,1,144,2|2,3:2|3:2,3:2:0:0:
320,309,96160,2,0,L|331:250,1,48,2|0,3:2|3:2,3:2:0:0:
154,103,96746,38,0,P|110:70|42:48,1,96,2|0,3:2|3:2,3:2:0:0:
329,163,97331,70,0,P|387:171|449:213,1,96,2|0,3:2|3:2,3:2:0:0:
168,234,97916,38,0,P|120:266|89:311,1,96,2|0,3:2|3:2,3:2:0:0:
322,308,98502,70,0,P|343:341|349:367,1,48,2|0,3:2|3:2,3:2:0:0:
233,366,99087,38,0,P|245:257|247:94,1,240,2|0,3:2|3:2,3:2:0:0:
235,25,100523,69,2,3:1:0:0:
256,192,100633,12,0,103506,0:2:0:0:
277,359,105053,37,2,3:2:0:0:
491,236,105783,2,0,P|504:192|489:108,1,96,2|2,3:2|3:2,3:2:0:0:
407,197,106428,2,0,P|367:227|317:238,1,96,2|2,3:2|3:2,3:2:0:0:
242,196,107073,2,0,B|196:244|156:216|112:269,1,144,2|2,3:2|3:2,3:2:0:0:
18,363,108363,69,2,3:2:0:0:
278,72,109512,37,2,3:2:0:0:
236,1,109857,2,0,P|239:53|264:224,1,216,2|2,3:2|3:2,3:2:0:0:
265,357,111129,85,2,3:2:0:0:
186,229,111747,2,0,B|203:217|216:203|216:203|277:190|318:165,1,144,0|0,3:2|3:2,3:2:0:0:
191,37,113071,5,2,3:2:0:0:
358,167,113777,2,0,P|314:130|267:42,1,158.395211645511,0|0,3:2|3:2,3:2:0:0:
173,137,114812,101,2,3:2:0:0:
148,215,115085,2,0,L|110:266,1,48,2|0,3:2|3:2,3:2:0:0:
264,384,115501,5,2,3:2:0:0:
208,334,115710,2,0,L|182:275,1,48,2|0,3:2|3:2,3:2:0:0:
18,322,116126,2,0,L|79:299,1,48,2|0,3:2|3:2,3:2:0:0:
172,313,116543,102,0,P|240:309|382:201,1,240,2|0,3:2|3:2,3:2:0:0:
418,112,117793,1,2,3:2:0:0:
203,319,119731,6,0,L|148:297,1,48,2|0,3:2|3:2,3:2:0:0:
258,257,120179,1,2,3:2:0:0:
336,273,120403,102,0,L|395:273,1,48,2|0,3:2|3:2,3:2:0:0:
306,350,120851,1,2,3:2:0:0:
216,361,121075,6,0,P|178:283|150:240,1,96,2|2,3:2|3:2,3:2:0:0:
320,92,122195,101,2,3:2:0:0:
253,16,122419,2,0,P|261:77|298:191,1,144,0|0,3:2|3:2,3:2:0:0:
283,156,123737,1,0,3:2:0:0:
171,293,124397,6,0,B|130:334|88:301|44:356,1,144,2|0,3:2|3:2,3:2:0:0:
179,201,125495,101,2,3:2:0:0:
250,233,125715,2,0,P|287:242|319:247,1,48,2|0,3:2|3:2,3:2:0:0:
353,298,126155,5,2,3:2:0:0:
403,238,126375,2,0,P|421:204|435:175,1,48,2|0,3:2|3:2,3:2:0:0:
344,144,126814,101,2,3:2:0:0:
511,0,127034,2,0,P|469:55|402:93,1,144,2|0,3:2|3:2,3:2:0:0:
405,91,129056,1,0,3:2:0:0:
208,172,129730,6,0,P|270:183|334:227,1,96,2|2,3:2|3:2,3:2:0:0:
316,323,130404,2,0,P|316:271|348:165,1,144,2|0,3:2|3:2,3:2:0:0:
339,182,131753,1,2,3:2:0:0:
277,357,132427,101,2,3:2:0:0:
245,66,133101,6,0,P|256:39|265:10,2,48,0|0|0,3:2|3:2|3:2,3:2:0:0:
183,111,133775,1,0,3:2:0:0:
270,249,134449,2,0,P|323:238|378:211,1,96,0|0,3:2|3:2,3:2:0:0:
418,171,135123,1,0,3:2:0:0:
197,197,135798,2,0,P|117:219|74:237,1,96,0|0,3:2|3:2,3:2:0:0:
50,280,136495,1,0,3:2:0:0:
255,354,137226,101,0,3:2:0:0:
68,333,147679,69,8,0:3:0:0:
76,337,148049,1,8,0:3:0:0:
83,345,148419,1,8,0:3:0:0:
98,335,148790,1,8,0:3:0:0:
110,339,149160,1,8,0:3:0:0:
123,327,149530,1,8,0:3:0:0:
144,315,149901,1,8,0:3:0:0:
138,293,150271,1,8,0:3:0:0:
141,285,150641,1,8,0:3:0:0:
118,269,151012,1,8,0:3:0:0:
131,258,151382,1,8,0:3:0:0:
153,284,151753,1,8,0:3:0:0:
184,317,152123,1,8,0:3:0:0:
177,327,152493,1,8,0:3:0:0:
177,339,152864,1,8,0:3:0:0:
198,333,153234,1,8,0:3:0:0:
234,323,153604,1,8,0:3:0:0:
283,306,153975,1,8,0:3:0:0:
361,282,154345,69,8,0:3:0:0:
391,325,154716,1,8,0:3:0:0:
447,356,155086,1,8,0:3:0:0:
349,185,155456,37,8,0:3:0:0:
370,258,155827,1,8,0:3:0:0:
377,329,156197,1,8,0:3:0:0:
381,173,156567,69,8,0:3:0:0:
400,136,156938,1,8,0:3:0:0:
394,107,157308,1,8,0:3:0:0:
388,86,157679,1,8,0:3:0:0:
395,70,158049,1,8,0:3:0:0:
405,60,158419,1,8,0:3:0:0:
403,51,158790,1,8,0:3:0:0:
427,68,159160,1,8,0:3:0:0:
435,80,159530,1,8,0:3:0:0:
447,87,159901,1,8,0:3:0:0:
424,105,160271,1,8,0:3:0:0:
383,86,160641,1,8,0:3:0:0:
325,86,161012,1,8,0:3:0:0:
309,80,161382,1,8,0:3:0:0:
285,80,161753,1,8,0:3:0:0:
277,67,162123,1,8,0:3:0:0:
224,89,162493,1,8,0:3:0:0:
143,118,162864,1,8,0:3:0:0:
19,145,163234,38,0,L|38:212,1,54,4|0,0:3|0:3,0:3:0:0:
161,165,163604,22,0,L|151:232,1,54,8|0,0:3|0:3,0:3:0:0:
245,226,163975,86,0,L|242:294,1,54,8|0,0:3|0:3,0:3:0:0:
343,122,164345,38,0,L|336:184,1,54,4|0,0:3|0:3,0:3:0:0:
441,114,164716,70,0,L|458:179,1,54,8|0,0:3|0:3,0:3:0:0:
512,75,165086,54,0,L|507:130,1,54,8|0,0:3|0:3,0:3:0:0:
357,353,165456,54,0,P|321:359|286:370,1,53.9999983520508,4|0,1:3|0:0,0:0:0:0:
411,294,165827,2,0,P|453:284|471:277,1,53.9999983520508,0|0,3:0|0:0,0:0:0:0:
443,372,166197,1,0,3:0:0:0:
343,251,166382,2,0,P|315:218|286:204,1,53.9999983520508,0|0,3:0|1:0,0:0:0:0:
366,285,166938,1,0,3:0:0:0:
355,233,167123,1,0,3:0:0:0:
388,184,167308,1,4,3:3:0:0:
352,120,167493,1,0,3:0:0:0:
381,42,167678,5,4,3:0:0:0:
397,40,168049,1,8,3:0:0:0:
400,26,168419,1,8,3:0:0:0:
300,90,168745,102,2,L|244:78,1,54,0|0,1:0|0:0,0:1:0:0:
252,157,169115,102,2,L|315:163,1,54,0|0,1:0|0:0,0:1:0:0:
264,234,169485,22,2,L|198:229,1,54,0|0,1:0|0:0,0:1:0:0:
127,292,169856,70,0,P|85:280|61:266,1,53.9999983520508,4|0,1:3|0:0,0:0:0:0:
19,325,170226,2,0,P|25:351|39:375,1,53.9999983520508,0|0,3:0|0:0,0:0:0:0:
197,332,170596,1,0,3:0:0:0:
125,371,170782,2,0,P|112:328|110:305,1,53.9999983520508,0|0,3:0|1:0,0:0:0:0:
223,372,171337,21,0,3:0:0:0:
185,313,171522,1,0,3:0:0:0:
279,320,171708,1,4,3:0:0:0:
243,383,171893,1,0,3:0:0:0:
365,382,172122,2,0,P|371:348|377:315,1,53.9999983520508,4|0,3:0|0:0,0:0:0:0:
453,349,172485,2,0,L|431:229,1,107.999996704102,8|8,3:0|3:0,0:0:0:0:
350,179,173031,6,0,P|357:136|357:105,1,53.9999983520508,2|2,0:0|1:2,0:0:0:0:
97,167,173576,2,0,P|77:198|57:284,1,107.999996704102,2|2,0:0|0:0,0:0:0:0:
58,130,174303,102,0,P|19:118|-2:107,1,53.9999983520508,4|0,1:3|0:0,0:0:0:0:
127,189,174673,2,0,P|154:220|157:306,1,107.999996704102,4|4,3:3|3:0,0:0:0:0:
163,284,175228,1,0,0:0:0:0:
117,207,175414,2,0,P|117:174|127:134,1,53.9999983520508,0|0,1:0|0:0,0:0:0:0:
186,93,175784,1,0,3:0:0:0:
373,157,176154,1,0,3:0:0:0:
186,93,176567,6,0,L|194:25,1,53.9999983520508,4|0,3:3|0:0,0:0:0:0:
98,87,176938,2,0,P|44:58|-14:42,1,107.999996704102,4|4,3:0|3:0,0:0:0:0:
0,60,177493,1,0,0:0:0:0:
56,119,177678,2,0,P|95:128|131:118,1,53.9999983520508,0|0,1:0|0:0,0:0:0:0:
18,211,178049,1,0,3:0:0:0:
114,369,178419,1,0,3:0:0:0:
18,211,178775,102,0,P|16:252|1:323,1,107.999996704102,4|4,3:0|3:0,0:0:0:0:
161,272,179330,2,0,P|130:270|99:266,1,53.9999983520508,0|4,0:0|3:0,0:0:0:0:
27,247,179700,1,0,0:0:0:0:
183,261,179886,6,0,P|230:273|285:296,1,107.999996704102,0|0,1:0|3:0,0:0:0:0:
299,181,180441,1,0,3:0:0:0:
319,235,180626,1,0,3:0:0:0:
358,275,180812,1,0,3:0:0:0:
149,221,181008,101,4,3:0:0:0:
295,76,181373,1,8,3:2:0:0:
416,295,181739,1,8,3:2:0:0:
93,289,182105,5,8,1:2:0:0:
215,14,182471,1,8,0:0:0:0:
443,201,182837,1,8,0:0:0:0:
443,201,183020,1,8,0:0:0:0:
0,7,183233,86,2,B|24:13|24:13|32:9|32:9|157:47|336:32,1,314.999990386963,4|0,1:0|0:0,0:1:0:0:
310,33,183788,1,4,3:0:0:0:
168,138,183973,2,0,P|133:93|116:45,1,90,4|0,3:0|0:0,0:0:0:0:
430,362,184344,22,0,B|452:346|452:346|473:299|459:240,1,107.999996704102,12|0,1:2|0:0,0:0:0:0:
382,297,184714,1,0,3:0:0:0:
479,363,184899,1,2,3:1:0:0:
440,242,185084,86,0,B|417:253|417:253|313:247|171:325,1,242.999992584229,4|0,0:2|0:0,0:0:0:0:
0,256,185455,22,0,B|19:336|53:285|67:395,1,148.50000453186,4|0,1:0|0:0,0:0:0:0:
14,353,185825,86,0,L|27:290,1,49.5000015106202,2|0,3:1|0:0,0:0:0:0:
17,121,186011,2,0,P|32:71|41:0,1,94.499997116089,2|0,3:1|0:0,0:0:0:0:
58,102,186381,1,4,3:0:0:0:
58,102,186474,1,4,3:0:0:0:
58,102,186566,1,12,1:2:0:0:
144,172,186752,1,0,0:0:0:0:
320,92,186937,21,4,3:0:0:0:
310,257,187122,1,12,1:2:0:0:
433,351,187307,1,4,1:3:0:0:
394,255,187492,2,0,L|389:308,1,31.4999990386963,4|0,1:3|0:0,0:0:0:0:
433,351,187677,86,2,B|420:295|394:234|394:234|449:83|449:83|437:-2,1,337.500012874604,4|0,1:0|0:0,0:1:0:0:
441,30,188233,1,4,3:0:0:0:
503,144,188418,2,0,L|407:120,1,90,4|0,3:0|0:0,0:0:0:0:
0,0,188789,22,2,B|24:39|76:82|76:82|106:244,1,242.999992584229,12|0,1:2|0:0,0:1:0:0:
232,137,189159,86,2,B|253:208|253:208|220:279|200:332|200:332|166:354,1,202.500007724762,12|0,1:2|0:0,0:1:0:0:
375,320,189529,22,2,B|331:358|304:384|304:384|259:385,1,135,12|0,1:2|0:0,0:1:0:0:
51,208,189900,86,0,B|67:195|67:195|69:120|135:38,1,161.999995056153,4|0,1:0|0:0,0:0:0:0:
78,1,190270,1,4,3:0:0:0:
134,240,190455,21,4,3:0:0:0:
59,221,190640,1,12,1:2:0:0:
112,163,190826,1,4,1:3:0:0:
499,241,191011,86,0,B|489:239|478:232|478:232|453:234|416:212,1,80.9999975280763,4|0,1:0|0:0,0:0:0:0:
436,173,191196,22,0,B|425:174|413:171|413:171|390:182|348:174,1,80.9999975280763,4|0,1:3|0:0,0:0:0:0:
346,123,191381,86,0,B|337:127|324:129|324:129|306:147|263:154,1,80.9999975280763,4|0,1:2|0:0,0:0:0:0:
276,258,191566,22,0,B|264:259|249:256|249:256|223:269|173:261,1,80.9999975280763,4|0,1:0|0:0,0:0:0:0:
178,210,191751,86,0,B|167:215|152:218|152:218|132:238|83:247,1,80.9999975280763,4|0,1:3|0:0,0:0:0:0:
59,193,191936,22,0,B|51:202|38:209|38:209|25:235|-17:261,1,80.9999975280763,4|0,1:3|0:0,0:0:0:0:
1,248,192122,86,2,B|49:286|124:240|124:240|138:333|244:394,1,314.999990386963,4|0,1:0|0:0,0:1:0:0:
227,384,192677,1,4,3:0:0:0:
95,228,192863,2,0,P|151:204|185:169,1,99.0000030212403,4|0,3:0|0:0,0:0:0:0:
473,75,193233,22,0,B|464:54|464:54|413:34|373:26,1,99.0000030212403,12|0,1:2|0:0,0:0:0:0:
386,138,193603,1,4,3:0:0:0:
211,126,193789,2,0,P|236:188|234:323,1,175.499991966248,12|0,3:2|0:0,0:0:0:0:
54,373,194159,1,4,3:0:0:0:
54,373,194252,2,0,L|23:301,1,58.4999973220826,4|4,3:0|1:0,0:0:0:0:
415,239,194715,85,0,3:0:0:0:
395,334,194900,1,4,3:0:0:0:
492,376,195085,1,4,3:0:0:0:
511,341,195270,1,0,3:0:0:0:
386,202,195455,21,12,1:2:0:0:
247,269,195640,1,0,0:0:0:0:
126,173,195826,1,4,3:0:0:0:
180,68,196011,1,12,1:2:0:0:
77,2,196196,1,4,3:0:0:0:
7,130,196381,2,0,L|64:108,1,45,4|0,3:0|0:0,0:0:0:0:
77,2,196566,86,2,B|62:37|36:80|36:80|31:166|31:166|5:212|-5:299,1,288,4|0,1:0|0:0,0:1:0:0:
118,243,197122,1,4,3:0:0:0:
153,134,197307,2,0,P|170:75|173:5,1,107.999996704102,4|0,3:0|0:0,0:0:0:0:
497,313,197677,22,2,B|459:293|436:260|436:260|332:249|280:225,1,242.999992584229,12|0,1:2|0:0,0:1:0:0:
174,344,198048,86,2,B|147:318|130:284|130:284|140:241|175:149,1,202.500007724762,12|0,1:2|0:1,0:1:0:0:
120,19,198418,22,2,B|79:46|79:46|42:47|42:47|-11:79,1,135,12|0,1:2|0:0,0:1:0:0:
270,279,198789,86,2,B|357:304|357:304|414:360|480:386,2,233.999989288331,4|0|0,1:0|0:0|0:0,0:1:0:0:
394,369,199900,22,0,B|370:361|370:361|347:322|352:268|352:268|386:217,1,161.999995056153,6|0,1:0|0:0,0:0:0:0:
464,304,200270,1,4,1:3:0:0:
184,216,200455,86,0,B|187:193|181:158|181:158|244:126|278:77,1,161.999995056153,6|0,1:0|0:0,0:0:0:0:
283,205,200826,1,4,3:0:0:0:
94,338,201011,22,0,P|22:304|-10:196,1,188.999994232178,4|0,1:0|0:0,0:0:0:0:
149,264,201381,2,0,P|242:314|276:406,1,188.999994232178,4|0,0:0|0:0,0:0:0:0:
94,338,201752,86,0,B|87:327|87:327|77:297|64:269,1,62.9999980773926,0|0,3:0|0:0,0:0:0:0:
121,189,201937,2,2,B|175:67|228:153|302:3,1,251.999992309571,4|0,0:2|0:0,0:1:0:0:
169,92,202492,1,4,3:0:0:0:
451,4,202677,1,12,1:2:0:0:
388,64,202863,1,4,3:0:0:0:
413,156,203048,1,4,3:0:0:0:
189,139,203233,22,2,B|287:157|361:278|261:403|172:317|89:275|139:118,1,503.999984619141,4|0,1:0|0:0,0:1:0:0:
243,206,204159,1,4,3:0:0:0:
243,206,204252,1,4,3:0:0:0:
243,206,204344,2,0,P|226:254|194:299,1,90,12|0,1:2|0:0,0:0:0:0:
107,235,204715,1,4,3:0:0:0:
101,384,204900,2,0,B|89:357|89:357|22:317|-2:237,1,180,4|0,3:2|0:0,0:0:0:0:
352,140,205455,86,0,P|428:116|504:29,1,188.999994232178,4|0,1:0|0:0,0:0:0:0:
280,37,205826,2,0,P|210:71|215:211,1,188.999994232178,4|0,0:0|0:0,0:0:0:0:
352,140,206196,22,0,P|363:97|354:60,1,62.9999980773926,0|0,3:0|0:0,0:0:0:0:
259,220,206381,2,2,B|265:310|386:387|386:387|400:327|381:273,1,314.999990386963,4|0,0:0|0:0,0:1:0:0:
225,238,206937,85,4,3:0:0:0:
245,22,207122,1,12,1:2:0:0:
155,82,207307,1,4,3:0:0:0:
46,84,207492,1,4,3:0:0:0:
251,259,207677,22,2,B|181:106|51:139|2:213|45:261|28:288,1,270,4|0,1:0|0:0,0:1:0:0:
312,350,208048,86,2,B|443:338|494:217|356:125,1,270,4|0,1:0|0:0,0:1:0:0:
169,89,208418,22,2,B|95:103|63:192|140:272|239:268,1,270,4|0,1:0|0:0,0:1:0:0:
212,266,208789,85,2,0:0:0:0:
458,46,209900,22,2,B|412:61|368:156|368:156|361:236|457:366,1,337.500012874604,4|0,1:0|0:0,0:1:0:0:
434,333,210455,1,4,3:0:0:0:
470,221,210640,2,0,P|428:190|379:169,1,90,4|0,3:0|0:0,0:0:0:0:
73,255,211011,86,0,B|91:270|91:270|181:274|233:365,1,180,12|4,1:2|3:0,0:0:0:0:
100,323,211566,1,8,3:2:0:0:
45,162,211752,22,0,P|69:73|231:-4,1,242.999992584229,4|0,0:0|0:0,0:0:0:0:
295,77,212122,86,0,L|379:43,1,62.9999980773926,6|0,1:0|0:0,0:0:0:0:
149,43,212307,2,0,P|237:68|319:205,1,216,2|0,0:1|0:0,0:0:0:0:
343,17,212677,2,0,L|438:34,1,62.9999980773926,2|0,3:1|0:0,0:0:0:0:
465,121,212863,2,0,P|486:48|525:-7,1,125.999996154785,2|4,0:1|3:0,0:0:0:0:
143,222,213233,22,0,B|167:243|220:253|220:253|250:330|325:388,1,251.999992309571,12|0,1:2|0:0,0:0:0:0:
196,308,213789,1,12,1:2:0:0:
306,198,213974,2,0,P|294:154|268:118,1,90,4|0,3:0|0:0,0:0:0:0:
493,338,214344,86,2,B|453:352|453:352|456:230|505:128|505:128|483:63,1,314.999990386963,4|0,1:0|0:0,0:1:0:0:
491,89,214900,1,4,3:0:0:0:
438,225,215085,2,0,P|403:189|341:157,1,90,4|0,3:0|0:0,0:0:0:0:
59,376,215455,22,2,B|121:305|121:305|187:276|268:212,1,242.999992584229,12|0,1:2|0:0,0:1:0:0:
484,262,215826,86,2,B|486:296|480:327|480:327|412:377|335:389,1,202.500007724762,12|0,1:2|0:0,0:1:0:0:
147,232,216196,22,2,B|140:206|140:206|99:181|71:115,1,135,12|0,1:2|0:0,0:1:0:0:
183,368,216566,85,4,1:0:0:0:
29,205,216937,1,0,3:2:0:0:
170,231,217122,1,4,3:0:0:0:
178,101,217307,1,4,3:0:0:0:
289,172,217492,22,0,L|231:160,1,45,4|0,3:2|0:0,0:0:0:0:
36,94,217677,86,0,B|49:93|49:93|65:63|100:56|100:56|110:31,1,90,6|0,1:0|0:0,0:0:0:0:
148,80,217863,22,0,B|157:89|157:89|190:82|218:104|218:104|243:96,1,90,4|0,1:3|0:0,0:0:0:0:
249,152,218048,86,6,B|252:164|252:164|284:175|297:208|297:208|323:213,1,90,4|0,1:3|0:0,0:1:0:0:
364,82,218233,22,0,B|373:90|373:90|406:82|435:104|435:104|460:94,1,90,6|0,1:0|0:0,0:0:0:0:
449,155,218417,86,0,B|448:168|448:168|475:188|477:223|477:223|501:237,1,90,4|0,1:3|0:0,0:0:0:0:
463,279,218604,22,2,B|455:289|455:289|469:320|453:352|453:352|467:376,1,90,4|0,1:3|0:0,0:1:0:0:
27,276,218789,86,2,P|137:305|209:118,1,337.500012874604,4|0,1:0|0:0,0:1:0:0:
217,132,219344,1,4,3:0:0:0:
104,175,219529,2,0,P|65:150|1:129,1,90,4|0,3:0|0:0,0:0:0:0:
332,11,219900,22,0,P|304:61|310:114,1,90,12|0,1:2|0:0,0:0:0:0:
347,191,220270,1,4,3:0:0:0:
447,107,220455,2,0,B|416:77|381:69|381:69|333:17|261:-5,1,180,12|0,1:2|0:0,0:0:0:0:
133,345,221011,86,2,B|50:308|50:308|91:164|225:196,1,292.499986610413,4|0,1:0|0:0,0:1:0:0:
192,191,221566,1,4,3:0:0:0:
213,307,221752,2,0,P|154:297|102:268,1,90,4|0,3:0|0:0,0:0:0:0:
342,216,222122,22,0,B|395:278|393:361|393:361|405:382,1,180,12|4,1:2|3:0,0:0:0:0:
490,229,222677,1,12,1:2:0:0:
431,116,222863,2,0,P|482:143|523:154,1,90,4|4,3:0|3:0,0:0:0:0:
157,135,223233,86,2,B|106:127|74:90|78:89|83:85|37:42|-13:48,1,180,4|0,1:0|0:0,0:1:0:0:
94,35,223789,1,4,3:0:0:0:
132,152,223974,2,0,P|154:210|176:253,1,90,4|0,3:0|0:0,0:0:0:0:
479,61,224344,22,2,B|449:35|391:49|391:49|354:154|325:216,1,242.999992584229,12|0,1:2|0:0,0:1:0:0:
177,156,224715,86,2,B|187:185|181:221|181:221|226:261|261:341,1,202.500007724762,12|0,1:2|0:0,0:1:0:0:
46,316,225085,22,2,B|94:327|135:376|135:376|168:387,1,135,12|0,1:2|0:0,0:1:0:0:
159,384,225455,86,2,B|133:368|68:342|68:342|23:264|28:184,2,251.999992309571,4|0|0,1:0|0:0|0:0,0:1:0:0:
222,310,226381,1,4,3:0:0:0:
488,347,226566,22,0,B|484:324|484:324|469:319|469:319|442:285|388:296|388:296|354:291,1,144,6|0,1:0|0:0,0:0:0:0:
309,366,226937,1,4,3:0:0:0:
467,182,227122,86,0,B|468:173|475:160|475:160|467:155|467:155|450:114|403:92|403:92|384:60,1,144,6|0,1:0|0:0,0:0:0:0:
297,121,227491,1,4,3:0:0:0:
368,75,227677,5,4,3:0:0:0:
455,48,228048,1,4,3:0:0:0:
455,48,228418,1,4,3:0:0:0:
339,162,228789,1,4,3:0:0:0:
398,235,229159,1,4,3:0:0:0:
19,343,229344,6,0,B|17:364|17:364|84:376,2,90,4|0|0,1:2|1:0|3:0,0:0:0:0:
129,273,229900,101,4,3:0:0:0:
92,173,230270,1,4,3:0:0:0:
92,173,230640,1,4,3:0:0:0:
26,249,231011,1,4,3:0:0:0:
135,285,231381,1,4,3:0:0:0:
444,384,231566,6,0,B|459:378|459:378|490:334|490:334|516:326,2,90,4|0|0,1:2|1:0|3:0,0:0:0:0:
333,252,232122,101,4,3:0:0:0:
209,214,232492,1,4,3:0:0:0:
209,214,232863,1,4,3:0:0:0:
285,131,233233,1,4,3:0:0:0:
186,39,233603,1,4,3:0:0:0:
92,376,233789,6,0,B|63:322|63:322|19:333,2,90,4|0|0,1:2|1:2|3:2,0:0:0:0:
67,162,234344,101,4,3:0:0:0:
146,46,234715,1,4,3:0:0:0:
146,46,235085,1,4,3:0:0:0:
280,152,235455,1,4,3:0:0:0:
186,178,235826,1,4,3:0:0:0:
483,379,236011,6,0,B|476:363|476:363|477:352|477:352|449:272,2,90,4|0|0,1:2|1:2|3:2,0:0:0:0:
399,12,236566,101,4,3:0:0:0:
502,127,236937,1,4,3:0:0:0:
422,152,237122,1,0,3:0:0:0:
502,127,237307,2,0,P|451:116|395:99,1,90,4|0,3:0|3:0,0:0:0:0:
269,34,237677,6,4,B|245:46|228:75|228:75|158:71|120:132,1,180,4|0,1:2|1:0,0:0:0:0:
291,50,238233,2,0,B|261:51|232:60|232:60|200:39,2,90,4|0|0,1:2|1:0|3:0,3:0:0:0:
21,178,238789,102,0,P|31:232|58:276,1,90,4|0,3:0|3:0,3:0:0:0:
110,333,239159,6,0,P|100:279|73:235,1,90,4|0,3:0|3:0,3:0:0:0:
0,161,239529,102,0,P|19:201|26:245,1,90,4|0,3:0|3:0,3:0:0:0:
316,369,239900,6,0,B|339:349|339:349|417:340|464:270,1,180,4|0,1:2|1:0,0:0:0:0:
316,345,240455,2,0,P|363:358|403:381,2,90,4|0|0,1:2|1:0|3:0,0:0:0:0:
202,1,241011,69,6,1:1:0:0:
256,192,241381,1,2,1:1:0:0:
310,383,241752,1,2,1:1:0:0:
51,195,242122,38,0,B|105:221|105:221|178:226|216:234,1,135,6|0,1:0|0:0,0:0:0:0:
433,201,242492,86,0,B|379:175|379:175|306:170|268:162,1,135,6|0,1:0|0:0,0:0:0:0:
50,240,242863,102,0,P|133:217|209:166,1,135,6|0,1:0|0:0,0:0:0:0:
434,309,243233,38,2,B|509:356|509:356|465:316,1,148.49999546814,4|0,1:0|0:0,0:1:0:0:
42,66,245455,70,0,B|-3:-1|-3:-1|95:45|163:84|163:84|79:188|30:289,1,504,4|0,1:0|0:0,0:0:0:0:
92,244,246196,2,0,P|73:182|67:148,1,90,4|0,3:0|0:0,0:0:0:0:
367,309,246566,2,0,P|318:325|273:332,1,90,12|0,1:2|0:0,0:0:0:0:
367,273,246937,38,0,L|384:230,1,31.4999990386963,4|0,3:3|0:0,0:0:0:0:
302,122,247122,2,0,L|321:68,1,31.4999990386963,4|0,0:0|0:0,0:0:0:0:
393,302,247307,70,0,P|331:164|304:1,1,297.000009063721,4|0,1:2|0:0,0:0:0:0:
497,283,247677,38,2,P|439:381|327:346,1,202.500007724762,4|0,1:0|0:0,0:1:0:0:
294,299,248048,70,0,B|223:285|223:285|217:317,1,85.4999977169037,2|0,3:1|3:1,3:1:0:0:
208,275,248233,2,0,B|179:312|179:312|165:298|165:298|187:269,1,85.4999977169037,2|0,3:1|3:1,3:1:0:0:
127,236,248418,2,0,B|113:204|113:204|136:177|136:177|134:207,1,85.4999977169037,2|0,3:1|3:1,3:1:0:0:
220,297,248603,2,0,B|231:310|231:310|233:339|233:339|254:380,1,85.4999977169037,2|0,3:1|3:1,3:1:0:0:
102,116,248789,38,2,B|77:100|77:100|63:101|63:101|-23:20|-23:20|-16:3|-16:3|46:62,1,251.999992309571,12|4,1:2|3:0,0:1:0:0:
150,176,249066,69,4,3:0:0:0:
223,168,249159,38,0,B|237:163|237:163|277:194|327:197,1,90,12|0,1:2|0:0,0:0:0:0:
436,0,249344,70,0,B|427:12|427:12|376:10|334:38,1,90,0|0,1:2|0:0,0:0:0:0:
334,288,249529,38,0,B|387:314|430:360|430:360|400:278,1,202.500007724762,12|0,1:2|0:0,0:0:0:0:
262,192,249900,70,2,B|306:232|375:233|375:233|416:369|527:388,1,337.500012874604,4|0,1:0|0:0,0:1:0:0:
511,384,250455,1,4,3:0:0:0:
368,185,250640,2,0,P|441:150|464:131,1,90,4|0,3:0|0:0,0:0:0:0:
267,309,251011,2,0,P|300:337|339:359,1,90,4|0,1:2|0:0,0:0:0:0:
512,34,251381,38,2,B|436:121|436:121|340:121|205:176,1,297.000009063721,12|0,1:2|0:0,0:1:0:0:
30,228,251752,70,2,B|61:261|137:262|137:262|223:284|291:377,1,297.000009063721,12|0,1:2|0:0,0:1:0:0:
430,312,252122,37,4,1:0:0:0:
19,242,252492,1,0,3:0:0:0:
147,215,252677,1,4,3:0:0:0:
108,108,252863,1,4,3:0:0:0:
172,19,253048,1,0,3:0:0:0:
284,119,253233,70,0,B|273:105|273:105|241:107|224:92|224:92|214:61,1,80.9999975280763,4|0,1:0|0:0,0:0:0:0:
345,0,253418,38,0,B|356:13|356:13|347:44|357:64|357:64|385:81,1,80.9999975280763,4|0,1:3|0:0,0:0:0:0:
397,71,253603,70,0,B|401:88|401:88|380:112|382:135|382:135|401:161,1,80.9999975280763,4|0,1:3|0:0,0:0:0:0:
196,257,253789,38,0,B|195:239|195:239|169:221|165:198|165:198|176:168,1,80.9999975280763,4|0,1:0|0:0,0:0:0:0:
317,200,253974,70,0,B|317:217|317:217|291:236|287:258|287:258|299:289,1,80.9999975280763,4|0,1:3|0:0,0:0:0:0:
314,288,254159,38,0,B|306:304|306:304|275:310|263:329|263:329|261:362,1,80.9999975280763,4|0,1:3|0:0,0:0:0:0:
74,333,254344,70,2,B|65:332|65:332|36:347|36:347|23:316|23:316|13:307|13:307|-1:257|-1:257|-14:239|-14:239|37:220|37:220|50:225|50:225|121:178|121:178|117:172|117:172|141:173|142:172|142:172|166:179|166:179|231:140|231:140|238:186|238:186|256:214|256:214|253:222|253:222|277:294|277:294|322:273|322:273|328:277|328:277|405:251|405:251|408:263|408:263|520:217|520:217|488:111|488:111|478:121|478:121|409:128|409:128|387:153|387:153|334:172|334:172,1,1125,6|0,1:0|0:0,0:1:0:0:
250,0,255455,2,0,P|265:32|305:75,1,90,12|0,1:2|0:0,0:0:0:0:
127,92,255826,2,0,P|172:125|224:148,1,90,4|8,3:0|1:2,0:0:0:0:
492,382,256196,38,0,P|450:294|197:276,1,377.999988464356,4|0,1:2|0:1,0:1:0:0:
14,279,256566,70,0,B|-8:378|-8:378|68:276|166:197,1,350.999983932496,4|4,1:0|3:0,0:0:0:0:
56,67,257307,2,0,P|82:117|90:172,1,90,4|0,3:0|0:0,0:0:0:0:
222,275,257677,2,0,P|271:223|389:162,1,180,12|4,1:2|3:0,0:0:0:0:
506,277,258233,38,2,B|497:276|497:276|489:267|489:267|425:253,1,72,2|0,1:1|0:0,0:1:0:0:
82,146,258418,70,2,B|80:134|80:134|51:110|51:110|44:81|44:81|145:78|145:78|150:87|150:87|223:72|223:72|231:65|231:65|338:160|338:160|341:175|341:175|377:208|377:208|389:198|389:198|351:195|351:195|262:188|262:188|257:194|257:194|233:184|233:184|144:216|144:216|83:185|83:185|63:138|63:138|23:113|23:113|-5:137|-5:137|5:164,1,972.000003707886,6|0,1:0|0:0,0:1:0:0:
0,149,259529,1,0,0:0:0:0:
242,37,259900,38,0,P|280:80|302:134,1,90,12|0,1:2|0:0,0:0:0:0:
353,300,260270,1,4,3:0:0:0:
256,0,260455,70,2,B|122:18|103:12|103:12|103:11|103:11|73:14|66:8|66:8|14:16|3:12|3:12|3:11|3:11|-2:45|20:71|20:71|4:101|-4:110|-4:110|-9:105|-9:105|-7:109|-7:109|-4:122|4:133|4:133|11:133|11:133|16:188|6:198|6:198|11:197|11:197|14:228|5:233|5:233|16:290|24:297|24:297|14:328|6:334|6:334|11:366|4:376|4:376|51:393|78:358|78:358|117:374|121:385|121:385|125:378|125:378|138:381|151:375|151:375|151:372|151:372|205:367|214:372|214:372|214:373|214:373|245:370|250:373|250:373|305:368|315:376|315:376|314:373|314:373|345:370|356:365|356:365|403:368|416:379|416:379|421:371|421:371|444:371|450:373|450:373|506:368|514:374|514:374|517:337|492:310|492:310|508:276|515:270|515:270|516:271|516:271|514:257|506:246|506:246|501:246|501:246|496:192|496:181|496:181|501:183|501:183|498:152|501:147|501:147|496:92|500:83|500:83|501:83|501:83|498:52|501:47|501:47|496:-8|500:-17|500:-17|501:-17|501:-17|460:-11|432:19|432:19|394:10|384:4|384:4|384:2|384:2|385:2|385:2|371:4|359:8|359:8|359:11|359:11|307:16|295:12|295:12|295:11|295:11|262:22|259:11|259:11|211:21|199:61,1,1986.92407537827,6|0,1:0|0:2,0:1:0:0:
298,1,262122,38,0,B|303:14|303:14|266:40|257:80|257:80|266:99,1,112.5,4|0,1:0|0:0,0:0:0:0:
256,192,262307,70,0,B|262:206|262:206|253:246|216:272|216:272|221:285,1,112.5,4|0,1:3|0:0,0:0:0:0:
214,383,262492,37,4,1:3:0:0:
26,238,262677,70,0,B|36:228|36:228|58:226|48:205|103:195|127:206,1,112.5,4|0,1:0|0:0,0:0:0:0:
256,192,262863,38,0,B|268:198|268:198|290:194|286:217|342:210|361:193,1,112.5,4|0,1:3|0:0,0:0:0:0:
486,146,263048,69,4,1:3:0:0:
0,216,263233,6,0,P|95:247|221:203,1,216,4|0,1:0|0:0,0:0:0:0:
139,157,263603,2,0,P|99:106|58:73,1,90,2|0,0:0|0:0,0:0:0:0:
264,329,263974,2,0,P|276:265|272:207,1,90,2|4,0:0|3:0,0:0:0:0:
389,119,264344,22,0,B|413:103|413:103|432:27|513:2,1,161.999995056153,12|0,1:2|0:0,0:0:0:0:
497,7,264715,1,4,3:0:0:0:
297,108,264900,2,0,L|267:168,1,53.9999983520508,8|0,1:2|0:0,0:0:0:0:
419,384,265085,86,0,B|493:358|493:358|498:210|369:200,1,297.000009063721,4|0,0:0|0:0,0:0:0:0:
226,232,265455,22,0,B|114:279|114:279|72:328|3:379,1,251.999992309571,4|2,1:0|0:0,0:0:0:0:
18,367,266011,1,0,0:0:0:0:
286,303,266196,2,0,P|239:285|189:256,1,90,2|4,0:0|3:0,0:0:0:0:
136,0,266566,86,0,B|108:26|108:26|53:49|-2:86,1,161.999995056153,12|0,1:2|0:0,0:0:0:0:
191,170,266937,2,0,P|195:112|205:65,1,90,4|0,3:0|0:0,0:0:0:0:
224,0,267307,1,4,3:0:0:0:
245,377,267677,22,0,B|251:355|251:355|231:324|217:251|217:251|224:246|224:246|217:187|242:98,1,270.000010299683,4|2,1:0|0:0,0:0:0:0:
236,118,268233,1,0,0:0:0:0:
350,265,268418,2,0,P|379:214|416:179,1,90,2|0,0:0|0:0,0:0:0:0:
243,84,268789,2,0,P|185:96|145:98,1,90,8|0,1:2|0:0,0:0:0:0:
26,371,269159,86,2,B|43:350|72:298|72:298|242:241|280:203,1,310.500005922318,12|0,1:2|0:0,0:1:0:0:
238,99,269529,22,2,B|327:90|439:80|439:80|488:17|532:-18,1,310.500005922318,12|0,1:2|0:0,0:1:0:0:
512,0,269900,85,4,1:0:0:0:
220,126,270270,1,2,0:0:0:0:
294,199,270455,1,0,0:0:0:0:
217,272,270640,1,2,0:0:0:0:
125,237,270826,22,0,L|106:182,1,45,4|0,3:0|0:0,0:0:0:0:
401,277,271011,86,0,B|413:290|413:290|459:293|491:331,1,99.0000030212403,4|0,1:0|0:0,0:0:0:0:
329,384,271196,22,0,B|327:366|327:366|293:335|291:286,1,99.0000030212403,4|0,1:3|0:0,0:0:0:0:
261,336,271381,86,0,B|267:319|267:319|248:277|268:231,1,99.0000030212403,4|0,1:3|0:0,0:0:0:0:
287,110,271566,22,0,B|289:127|289:127|324:157|328:206,1,99.0000030212403,4|0,1:0|0:0,0:0:0:0:
165,154,271751,86,0,B|174:138|174:138|164:93|192:52,1,99.0000030212403,4|0,1:3|0:0,0:0:0:0:
139,75,271936,22,0,B|153:65|153:65|163:20|206:-5,1,99.0000030212403,4|0,1:3|0:0,0:0:0:0:
512,166,272122,85,6,1:0:0:0:
353,212,272307,1,2,3:1:0:0:
439,128,272492,1,2,3:1:0:0:
457,239,272677,1,2,3:1:0:0:
364,130,272863,22,2,P|356:74|329:-12,1,135,4|0,3:0|0:0,0:1:0:0:
53,164,273233,85,6,1:0:0:0:
200,139,273418,1,2,3:1:0:0:
113,205,273603,1,2,3:1:0:0:
110,104,273788,1,2,3:1:0:0:
208,237,273974,22,2,B|220:352|74:374|74:374|61:268,1,297.000009063721,4|0,1:2|0:0,0:1:0:0:
160,2,274344,85,6,1:1:0:0:
12,151,274529,1,2,3:1:0:0:
127,80,274715,1,2,3:1:0:0:
45,0,274900,1,2,3:1:0:0:
0,74,275085,22,2,P|47:95|129:150,1,135,4|0,3:0|0:0,0:1:0:0:
306,167,275455,85,6,1:1:0:0:
423,25,275640,1,2,3:1:0:0:
329,96,275826,1,2,3:1:0:0:
406,159,276011,1,2,3:1:0:0:
447,98,276196,22,2,P|397:76|321:29,1,135,4|0,3:0|0:0,0:1:0:0:
119,319,276566,85,6,1:1:0:0:
171,225,276752,1,2,3:1:0:0:
193,355,276937,1,2,3:1:0:0:
234,275,277122,1,2,3:1:0:0:
99,299,277307,22,2,P|180:318|266:343,1,135,4|0,3:0|0:0,0:1:0:0:
468,217,277677,85,6,1:1:0:0:
350,260,277863,1,2,3:1:0:0:
165,18,278048,22,0,B|203:74|203:74|208:149|247:209|247:209|325:234|349:252,1,297.000009063721,12|0,1:2|0:0,0:0:0:0:
137,264,278418,86,0,B|202:287|235:310|235:310|359:325|359:325|422:379,1,297.000009063721,12|0,1:2|0:0,0:0:0:0:
512,384,278789,22,0,B|470:370|446:341|444:329|437:323|416:281|353:268,2,180,4|0|0,1:0|0:0|0:0,0:0:0:0:
83,120,279900,86,0,B|93:95|92:57|92:57|148:30|177:-6,1,161.999995056153,4|0,1:0|0:0,0:0:0:0:
189,111,280270,1,4,3:0:0:0:
46,324,280455,22,0,B|31:301|0:279|0:279|11:218|0:173,1,161.999995056153,4|0,1:0|0:0,0:0:0:0:
101,232,280826,1,4,3:0:0:0:
512,384,281011,85,6,1:0:0:0:
256,192,281103,12,0,294529,0:0:0:0:
