osu file format v14

[General]
AudioFilename: audio.mp3
AudioLeadIn: 0
PreviewTime: 88883
Countdown: 0
SampleSet: None
StackLeniency: 0.7
Mode: 3
LetterboxInBreaks: 0
SpecialStyle: 0
WidescreenStoryboard: 0

[Editor]
Bookmarks: 22294,66687,88883,111080,133276,155473,177669,199866,222062,244259,266455,288652,311542,321947,333045
DistanceSpacing: 0.5
BeatDivisor: 4
GridSize: 8
TimelineZoom: 1.599998

[Metadata]
Title:Specialist
TitleUnicode:Specialist
Artist:Billain
ArtistUnicode:Billain
Creator:Raveille
Version:Maestro
Source:
Tags:abraxos hydria parachor guilhermeziat felipelink jinjin xeostyle soul evans jakads level 51 todestrieb weber
BeatmapID:1216877
BeatmapSetID:574577

[Difficulty]
HPDrainRate:8
CircleSize:4
OverallDifficulty:7.6
ApproachRate:5
SliderMultiplier:1.4
SliderTickRate:1

[Events]
//Background and Video events
0,0,"specialist.png",0,0
//Break Periods
//Storyboard Layer 0 (Background)
//Storyboard Layer 1 (Fail)
//Storyboard Layer 2 (Pass)
//Storyboard Layer 3 (Foreground)
//Storyboard Sound Samples

[TimingPoints]
0,4615.38461538462,4,3,0,13,1,0
1,999999999,4,3,0,13,1,0
92,999999999,4,3,0,13,1,0
264,0.08608704261,4,3,0,13,1,0
265,4862.236629,4,3,0,13,1,0
285,4862.236629,4,3,0,13,1,0
305,4862.236629,4,3,0,13,1,0
325,4862.236629,4,3,0,13,1,0
345,4862.236629,4,3,0,13,1,0
365,4862.236629,4,3,0,13,1,0
385,4862.236629,4,3,0,13,1,0
405,4862.236629,4,3,0,13,1,0
425,4862.236629,4,3,0,13,1,0
437,0.08608704261,4,3,0,13,1,0
438,2431.118314,4,3,0,13,1,0
458,2431.118314,4,3,0,13,1,0
478,2431.118314,4,3,0,13,1,0
498,2431.118314,4,3,0,13,1,0
518,2431.118314,4,3,0,13,1,0
538,2431.118314,4,3,0,13,1,0
558,2431.118314,4,3,0,13,1,0
578,2431.118314,4,3,0,13,1,0
598,2431.118314,4,3,0,13,1,0
611,0.08608704261,4,3,0,13,1,0
612,1215.559157,4,3,0,13,1,0
632,1215.559157,4,3,0,13,1,0
652,1215.559157,4,3,0,13,1,0
672,1215.559157,4,3,0,13,1,0
692,1215.559157,4,3,0,13,1,0
712,1215.559157,4,3,0,13,1,0
732,1215.559157,4,3,0,13,1,0
752,1215.559157,4,3,0,13,1,0
772,1215.559157,4,3,0,13,1,0
784,0.08608704261,4,3,0,13,1,0
785,607.7795786,4,3,0,13,1,0
805,607.7795786,4,3,0,13,1,0
825,607.7795786,4,3,0,13,1,0
845,607.7795786,4,3,0,13,1,0
865,607.7795786,4,3,0,13,1,0
885,607.7795786,4,3,0,13,1,0
905,607.7795786,4,3,0,13,1,0
925,607.7795786,4,3,0,13,1,0
945,607.7795786,4,3,0,13,1,0
958,0.08608704261,4,3,0,13,1,0
959,303.8897893,4,3,0,13,1,0
979,303.8897893,4,3,0,13,1,0
999,303.8897893,4,3,0,13,1,0
1019,303.8897893,4,3,0,13,1,0
1039,303.8897893,4,3,0,13,1,0
1059,303.8897893,4,3,0,13,1,0
1079,303.8897893,4,3,0,13,1,0
1099,303.8897893,4,3,0,13,1,0
1119,303.8897893,4,3,0,13,1,0
1131,0.08608704261,4,3,0,13,1,0
1132,151.9448947,4,3,0,13,1,0
1152,151.9448947,4,3,0,13,1,0
1172,151.9448947,4,3,0,13,1,0
1192,151.9448947,4,3,0,13,1,0
1212,151.9448947,4,3,0,13,1,0
1232,151.9448947,4,3,0,13,1,0
1252,151.9448947,4,3,0,13,1,0
1272,151.9448947,4,3,0,13,1,0
1292,151.9448947,4,3,0,13,1,0
1304,0.08608704261,4,3,0,13,1,0
1305,75.97244733,4,3,0,13,1,0
1325,75.97244733,4,3,0,13,1,0
1345,75.97244733,4,3,0,13,1,0
1365,75.97244733,4,3,0,13,1,0
1385,75.97244733,4,3,0,13,1,0
1405,75.97244733,4,3,0,13,1,0
1425,75.97244733,4,3,0,13,1,0
1445,75.97244733,4,3,0,13,1,0
1465,75.97244733,4,3,0,13,1,0
1478,0.08608704261,4,3,0,13,1,0
1479,999999999,4,3,0,13,1,0
1651,0.08608704261,4,3,0,13,1,0
1652,4862.236629,4,3,0,13,1,0
1672,4862.236629,4,3,0,13,1,0
1692,4862.236629,4,3,0,13,1,0
1712,4862.236629,4,3,0,13,1,0
1732,4862.236629,4,3,0,13,1,0
1752,4862.236629,4,3,0,13,1,0
1772,4862.236629,4,3,0,13,1,0
1792,4862.236629,4,3,0,13,1,0
1812,4862.236629,4,3,0,13,1,0
1824,0.08608704261,4,3,0,13,1,0
1825,2431.118314,4,3,0,13,1,0
1845,2431.118314,4,3,0,13,1,0
1865,2431.118314,4,3,0,13,1,0
1885,2431.118314,4,3,0,13,1,0
1905,2431.118314,4,3,0,13,1,0
1925,2431.118314,4,3,0,13,1,0
1945,2431.118314,4,3,0,13,1,0
1965,2431.118314,4,3,0,13,1,0
1985,2431.118314,4,3,0,13,1,0
1998,0.08608704261,4,3,0,13,1,0
1999,1215.559157,4,3,0,13,1,0
2019,1215.559157,4,3,0,13,1,0
2039,1215.559157,4,3,0,13,1,0
2059,1215.559157,4,3,0,13,1,0
2079,1215.559157,4,3,0,13,1,0
2099,1215.559157,4,3,0,13,1,0
2119,1215.559157,4,3,0,13,1,0
2139,1215.559157,4,3,0,13,1,0
2159,1215.559157,4,3,0,13,1,0
2171,0.08608704261,4,3,0,13,1,0
2172,607.7795786,4,3,0,13,1,0
2192,607.7795786,4,3,0,13,1,0
2212,607.7795786,4,3,0,13,1,0
2232,607.7795786,4,3,0,13,1,0
2252,607.7795786,4,3,0,13,1,0
2272,607.7795786,4,3,0,13,1,0
2292,607.7795786,4,3,0,13,1,0
2312,607.7795786,4,3,0,13,1,0
2332,607.7795786,4,3,0,13,1,0
2345,0.08608704261,4,3,0,13,1,0
2346,303.8897893,4,3,0,13,1,0
2366,303.8897893,4,3,0,13,1,0
2386,303.8897893,4,3,0,13,1,0
2406,303.8897893,4,3,0,13,1,0
2426,303.8897893,4,3,0,13,1,0
2446,303.8897893,4,3,0,13,1,0
2466,303.8897893,4,3,0,13,1,0
2486,303.8897893,4,3,0,13,1,0
2506,303.8897893,4,3,0,13,1,0
2518,0.08608704261,4,3,0,13,1,0
2519,151.9448947,4,3,0,13,1,0
2539,151.9448947,4,3,0,13,1,0
2559,151.9448947,4,3,0,13,1,0
2579,151.9448947,4,3,0,13,1,0
2599,151.9448947,4,3,0,13,1,0
2619,151.9448947,4,3,0,13,1,0
2639,151.9448947,4,3,0,13,1,0
2659,151.9448947,4,3,0,13,1,0
2679,151.9448947,4,3,0,13,1,0
2691,0.08608704261,4,3,0,13,1,0
2692,75.97244733,4,3,0,13,1,0
2712,75.97244733,4,3,0,13,1,0
2732,75.97244733,4,3,0,13,1,0
2752,75.97244733,4,3,0,13,1,0
2772,75.97244733,4,3,0,13,1,0
2792,75.97244733,4,3,0,13,1,0
2812,75.97244733,4,3,0,13,1,0
2832,75.97244733,4,3,0,13,1,0
2852,75.97244733,4,3,0,13,1,0
2865,0.08608704261,4,3,0,13,1,0
2866,999999999,4,3,0,13,1,0
2867,0.0860870426087817,4,3,0,13,1,0
2869,999999999,4,3,0,13,1,0
2876,437.7565711,4,3,0,13,1,0
2877,0.0860870426087817,4,3,0,13,1,0
2879,999999999,4,3,0,13,1,0
2886,14.08151771,4,3,0,13,1,0
2887,0.0860870426087817,4,3,0,13,1,0
2889,999999999,4,3,0,13,1,0
2896,36.28306188,4,3,0,13,1,0
2897,0.0860870426087817,4,3,0,13,1,0
2899,999999999,4,3,0,13,1,0
2906,9.52460809,4,3,0,13,1,0
2907,0.0860870426087817,4,3,0,13,1,0
2909,999999999,4,3,0,13,1,0
2916,11.01156201,4,3,0,13,1,0
2917,0.0860870426087817,4,3,0,13,1,0
2919,999999999,4,3,0,13,1,0
2926,9.212240381,4,3,0,13,1,0
2927,0.0860870426087817,4,3,0,13,1,0
2929,999999999,4,3,0,13,1,0
2936,6.119696602,4,3,0,13,1,0
2937,0.0860870426087817,4,3,0,13,1,0
2939,999999999,4,3,0,13,1,0
2946,8.121734215,4,3,0,13,1,0
2947,0.0860870426087817,4,3,0,13,1,0
2949,999999999,4,3,0,13,1,0
2956,4.891213034,4,3,0,13,1,0
2957,0.0860870426087817,4,3,0,13,1,0
2959,999999999,4,3,0,13,1,0
2966,5.684770507,4,3,0,13,1,0
2967,0.0860870426087817,4,3,0,13,1,0
2969,999999999,4,3,0,13,1,0
2976,4.780148669,4,3,0,13,1,0
2977,0.0860870426087817,4,3,0,13,1,0
2979,999999999,4,3,0,13,1,0
2986,4.037801306,4,3,0,13,1,0
2987,0.0860870426087817,4,3,0,13,1,0
2989,999999999,4,3,0,13,1,0
2996,4.658061064,4,3,0,13,1,0
2997,0.0860870426087817,4,3,0,13,1,0
2999,999999999,4,3,0,13,1,0
3006,3.38425706,4,3,0,13,1,0
3007,0.0860870426087817,4,3,0,13,1,0
3009,999999999,4,3,0,13,1,0
3016,3.908467736,4,3,0,13,1,0
3017,0.0860870426087817,4,3,0,13,1,0
3019,999999999,4,3,0,13,1,0
3026,3.293616125,4,3,0,13,1,0
3027,0.0860870426087817,4,3,0,13,1,0
3029,999999999,4,3,0,13,1,0
3036,3.084280518,4,3,0,13,1,0
3037,0.0860870426087817,4,3,0,13,1,0
3039,999999999,4,3,0,13,1,0
3046,3.310407009,4,3,0,13,1,0
3047,0.0860870426087817,4,3,0,13,1,0
3049,999999999,4,3,0,13,1,0
3056,2.646185415,4,3,0,13,1,0
3057,0.0860870426087817,4,3,0,13,1,0
3059,999999999,4,3,0,13,1,0
3066,3.019879242,4,3,0,13,1,0
3067,0.0860870426087817,4,3,0,13,1,0
3069,999999999,4,3,0,13,1,0
3076,2.556284117,4,3,0,13,1,0
3077,0.0860870426087817,4,3,0,13,1,0
3079,999999999,4,3,0,13,1,0
3086,2.540335465,4,3,0,13,1,0
3087,0.0860870426087817,4,3,0,13,1,0
3089,999999999,4,3,0,13,1,0
3096,2.597312141,4,3,0,13,1,0
3097,0.0860870426087817,4,3,0,13,1,0
3099,999999999,4,3,0,13,1,0
3106,2.214068695,4,3,0,13,1,0
3107,0.0860870426087817,4,3,0,13,1,0
3109,999999999,4,3,0,13,1,0
3116,2.486748198,4,3,0,13,1,0
3117,0.0860870426087817,4,3,0,13,1,0
3119,999999999,4,3,0,13,1,0
3126,2.121592232,4,3,0,13,1,0
3127,0.0860870426087817,4,3,0,13,1,0
3129,999999999,4,3,0,13,1,0
3136,2.190412922,4,3,0,13,1,0
3137,0.0860870426087817,4,3,0,13,1,0
3139,999999999,4,3,0,13,1,0
3146,2.159563424,4,3,0,13,1,0
3147,0.0860870426087817,4,3,0,13,1,0
3149,999999999,4,3,0,13,1,0
3156,1.934714191,4,3,0,13,1,0
3157,0.0860870426087817,4,3,0,13,1,0
3159,999999999,4,3,0,13,1,0
3166,2.131926202,4,3,0,13,1,0
3167,0.0860870426087817,4,3,0,13,1,0
3169,999999999,4,3,0,13,1,0
3176,1.839695754,4,3,0,13,1,0
3177,0.0860870426087817,4,3,0,13,1,0
3179,999999999,4,3,0,13,1,0
3186,1.947416842,4,3,0,13,1,0
3187,0.0860870426087817,4,3,0,13,1,0
3189,999999999,4,3,0,13,1,0
3196,1.866807092,4,3,0,13,1,0
3197,0.0860870426087817,4,3,0,13,1,0
3199,999999999,4,3,0,13,1,0
3206,1.74269283,4,3,0,13,1,0
3207,0.0860870426087817,4,3,0,13,1,0
3209,999999999,4,3,0,13,1,0
3216,1.87973198,4,3,0,13,1,0
3217,0.0860870426087817,4,3,0,13,1,0
3219,999999999,4,3,0,13,1,0
3226,1.646162723,4,3,0,13,1,0
3227,0.0860870426087817,4,3,0,13,1,0
3229,999999999,4,3,0,13,1,0
3236,1.769488444,4,3,0,13,1,0
3237,0.0860870426087817,4,3,0,13,1,0
3239,999999999,4,3,0,13,1,0
3246,1.660387274,4,3,0,13,1,0
3247,0.0860870426087817,4,3,0,13,1,0
3249,999999999,4,3,0,13,1,0
3256,1.605325504,4,3,0,13,1,0
3257,0.0860870426087817,4,3,0,13,1,0
3259,999999999,4,3,0,13,1,0
3266,1.692533414,4,3,0,13,1,0
3267,0.0860870426087817,4,3,0,13,1,0
3269,999999999,4,3,0,13,1,0
3276,1.508733781,4,3,0,13,1,0
3277,0.0860870426087817,4,3,0,13,1,0
3279,999999999,4,3,0,13,1,0
3286,1.634102548,4,3,0,13,1,0
3287,0.0860870426087817,4,3,0,13,1,0
3289,999999999,4,3,0,13,1,0
3296,1.51006365,4,3,0,13,1,0
3297,0.0860870426087817,4,3,0,13,1,0
3299,999999999,4,3,0,13,1,0
3306,1.50444476,4,3,0,13,1,0
3307,0.0860870426087817,4,3,0,13,1,0
3309,999999999,4,3,0,13,1,0
3316,1.549604965,4,3,0,13,1,0
3317,0.0860870426087817,4,3,0,13,1,0
3319,999999999,4,3,0,13,1,0
3326,1.40949284,4,3,0,13,1,0
3327,0.0860870426087817,4,3,0,13,1,0
3329,999999999,4,3,0,13,1,0
3336,1.528168892,4,3,0,13,1,0
3337,0.0860870426087817,4,3,0,13,1,0
3339,999999999,4,3,0,13,1,0
3346,1.398716359,4,3,0,13,1,0
3347,0.0860870426087817,4,3,0,13,1,0
3349,999999999,4,3,0,13,1,0
3356,1.429133506,4,3,0,13,1,0
3357,0.0860870426087817,4,3,0,13,1,0
3359,999999999,4,3,0,13,1,0
3366,1.438671668,4,3,0,13,1,0
3367,0.0860870426087817,4,3,0,13,1,0
3369,999999999,4,3,0,13,1,0
3376,1.337713255,4,3,0,13,1,0
3377,0.0860870426087817,4,3,0,13,1,0
3379,999999999,4,3,0,13,1,0
3386,1.443676784,4,3,0,13,1,0
3387,0.0860870426087817,4,3,0,13,1,0
3389,999999999,4,3,0,13,1,0
3396,1.315982579,4,3,0,13,1,0
3397,0.0860870426087817,4,3,0,13,1,0
3399,999999999,4,3,0,13,1,0
3406,1.372444018,4,3,0,13,1,0
3407,0.0860870426087817,4,3,0,13,1,0
3409,999999999,4,3,0,13,1,0
3416,1.352070245,4,3,0,13,1,0
3417,0.0860870426087817,4,3,0,13,1,0
3419,999999999,4,3,0,13,1,0
3426,1.286599821,4,3,0,13,1,0
3427,0.0860870426087817,4,3,0,13,1,0
3429,999999999,4,3,0,13,1,0
3436,1.375567521,4,3,0,13,1,0
3437,0.0860870426087817,4,3,0,13,1,0
3439,999999999,4,3,0,13,1,0
3446,1.255282927,4,3,0,13,1,0
3447,0.0860870426087817,4,3,0,13,1,0
3449,999999999,4,3,0,13,1,0
3456,1.329773673,4,3,0,13,1,0
3457,0.0860870426087817,4,3,0,13,1,0
3459,999999999,4,3,0,13,1,0
3466,1.284837396,4,3,0,13,1,0
3467,0.0860870426087817,4,3,0,13,1,0
3469,999999999,4,3,0,13,1,0
3476,1.251659542,4,3,0,13,1,0
3477,0.0860870426087817,4,3,0,13,1,0
3479,999999999,4,3,0,13,1,0
3486,1.320607043,4,3,0,13,1,0
3487,0.0860870426087817,4,3,0,13,1,0
3489,999999999,4,3,0,13,1,0
3496,1.212306289,4,3,0,13,1,0
3497,0.0860870426087817,4,3,0,13,1,0
3499,999999999,4,3,0,13,1,0
3506,1.298005689,4,3,0,13,1,0
3507,0.0860870426087817,4,3,0,13,1,0
3509,999999999,4,3,0,13,1,0
3516,1.233690623,4,3,0,13,1,0
3517,0.0860870426087817,4,3,0,13,1,0
3519,999999999,4,3,0,13,1,0
3526,1.22982793,4,3,0,13,1,0
3527,0.0860870426087817,4,3,0,13,1,0
3529,999999999,4,3,0,13,1,0
3536,1.276749547,4,3,0,13,1,0
3537,0.0860870426087817,4,3,0,13,1,0
3539,999999999,4,3,0,13,1,0
3546,1.184185689,4,3,0,13,1,0
3547,0.0860870426087817,4,3,0,13,1,0
3549,999999999,4,3,0,13,1,0
3556,1.275032792,4,3,0,13,1,0
3557,0.0860870426087817,4,3,0,13,1,0
3559,999999999,4,3,0,13,1,0
3566,1.196458314,4,3,0,13,1,0
3567,0.0860870426087817,4,3,0,13,1,0
3569,999999999,4,3,0,13,1,0
3576,1.218976972,4,3,0,13,1,0
3577,0.0860870426087817,4,3,0,13,1,0
3579,999999999,4,3,0,13,1,0
3586,1.242761976,4,3,0,13,1,0
3587,0.0860870426087817,4,3,0,13,1,0
3589,999999999,4,3,0,13,1,0
3596,1.169028534,4,3,0,13,1,0
3597,0.0860870426087817,4,3,0,13,1,0
3599,999999999,4,3,0,13,1,0
3606,1.25948519,4,3,0,13,1,0
3607,0.0860870426087817,4,3,0,13,1,0
3609,999999999,4,3,0,13,1,0
3616,1.171752882,4,3,0,13,1,0
3617,0.0860870426087817,4,3,0,13,1,0
3619,999999999,4,3,0,13,1,0
3626,1.217631428,4,3,0,13,1,0
3627,0.0860870426087817,4,3,0,13,1,0
3629,999999999,4,3,0,13,1,0
3636,1.217998739,4,3,0,13,1,0
3637,0.0860870426087817,4,3,0,13,1,0
3639,999999999,4,3,0,13,1,0
3646,1.165642103,4,3,0,13,1,0
3647,0.0860870426087817,4,3,0,13,1,0
3649,999999999,4,3,0,13,1,0
3656,1.250573734,4,3,0,13,1,0
3657,0.0860870426087817,4,3,0,13,1,0
3659,999999999,4,3,0,13,1,0
3666,1.158785151,4,3,0,13,1,0
3667,0.0860870426087817,4,3,0,13,1,0
3669,999999999,4,3,0,13,1,0
3676,1.224808287,4,3,0,13,1,0
3677,0.0860870426087817,4,3,0,13,1,0
3679,999999999,4,3,0,13,1,0
3686,1.202271219,4,3,0,13,1,0
3687,0.0860870426087817,4,3,0,13,1,0
3689,999999999,4,3,0,13,1,0
3696,1.173375172,4,3,0,13,1,0
3697,0.0860870426087817,4,3,0,13,1,0
3699,999999999,4,3,0,13,1,0
3706,1.248002227,4,3,0,13,1,0
3707,0.0860870426087817,4,3,0,13,1,0
3709,999999999,4,3,0,13,1,0
3716,1.157268395,4,3,0,13,1,0
3717,0.0860870426087817,4,3,0,13,1,0
3719,999999999,4,3,0,13,1,0
3726,1.239936221,4,3,0,13,1,0
3727,0.0860870426087817,4,3,0,13,1,0
3729,999999999,4,3,0,13,1,0
3736,1.195784282,4,3,0,13,1,0
3737,0.0860870426087817,4,3,0,13,1,0
3739,999999999,4,3,0,13,1,0
3746,1.192036131,4,3,0,13,1,0
3747,0.0860870426087817,4,3,0,13,1,0
3749,999999999,4,3,0,13,1,0
3756,1.251926106,4,3,0,13,1,0
3757,0.0860870426087817,4,3,0,13,1,0
3759,999999999,4,3,0,13,1,0
3766,1.167387043,4,3,0,13,1,0
3767,0.0860870426087817,4,3,0,13,1,0
3769,999999999,4,3,0,13,1,0
3776,1.262833596,4,3,0,13,1,0
3777,0.0860870426087817,4,3,0,13,1,0
3779,999999999,4,3,0,13,1,0
3786,1.199127665,4,3,0,13,1,0
3787,0.0860870426087817,4,3,0,13,1,0
3789,999999999,4,3,0,13,1,0
3796,1.221869646,4,3,0,13,1,0
3797,0.0860870426087817,4,3,0,13,1,0
3799,999999999,4,3,0,13,1,0
3806,1.262949129,4,3,0,13,1,0
3807,0.0860870426087817,4,3,0,13,1,0
3809,999999999,4,3,0,13,1,0
3816,1.189821615,4,3,0,13,1,0
3817,0.0860870426087817,4,3,0,13,1,0
3819,999999999,4,3,0,13,1,0
3826,1.293736435,4,3,0,13,1,0
3827,0.0860870426087817,4,3,0,13,1,0
3829,999999999,4,3,0,13,1,0
3836,1.213321108,4,3,0,13,1,0
3837,0.0860870426087817,4,3,0,13,1,0
3839,999999999,4,3,0,13,1,0
3846,1.263588336,4,3,0,13,1,0
3847,0.0860870426087817,4,3,0,13,1,0
3849,999999999,4,3,0,13,1,0
3856,1.282160793,4,3,0,13,1,0
3857,0.0860870426087817,4,3,0,13,1,0
3859,999999999,4,3,0,13,1,0
3866,1.225834795,4,3,0,13,1,0
3867,0.0860870426087817,4,3,0,13,1,0
3869,999999999,4,3,0,13,1,0
3876,1.333377407,4,3,0,13,1,0
3877,0.0860870426087817,4,3,0,13,1,0
3879,999999999,4,3,0,13,1,0
3886,1.23992323,4,3,0,13,1,0
3887,0.0860870426087817,4,3,0,13,1,0
3889,999999999,4,3,0,13,1,0
3896,1.318468714,4,3,0,13,1,0
3897,0.0860870426087817,4,3,0,13,1,0
3899,999999999,4,3,0,13,1,0
3906,1.311228392,4,3,0,13,1,0
3907,0.0860870426087817,4,3,0,13,1,0
3909,999999999,4,3,0,13,1,0
3916,1.27743881,4,3,0,13,1,0
3917,0.0860870426087817,4,3,0,13,1,0
3919,999999999,4,3,0,13,1,0
3926,1.38312777,4,3,0,13,1,0
3927,0.0860870426087817,4,3,0,13,1,0
3929,999999999,4,3,0,13,1,0
3936,1.281229617,4,3,0,13,1,0
3937,0.0860870426087817,4,3,0,13,1,0
3939,999999999,4,3,0,13,1,0
3946,1.38853667,4,3,0,13,1,0
3947,0.0860870426087817,4,3,0,13,1,0
3949,999999999,4,3,0,13,1,0
3956,1.352572762,4,3,0,13,1,0
3957,0.0860870426087817,4,3,0,13,1,0
3959,999999999,4,3,0,13,1,0
3966,1.347687722,4,3,0,13,1,0
3967,0.0860870426087817,4,3,0,13,1,0
3969,999999999,4,3,0,13,1,0
3976,1.445230729,4,3,0,13,1,0
3977,0.0860870426087817,4,3,0,13,1,0
3979,999999999,4,3,0,13,1,0
3986,1.340612294,4,3,0,13,1,0
3987,0.0860870426087817,4,3,0,13,1,0
3993,12.34,4,3,0,13,1,0
3995,12.34,4,3,0,13,1,0
3997,12.34,4,3,0,13,1,0
3999,12.34,4,3,0,13,1,0
4001,12.34,4,3,0,13,1,0
4003,12.34,4,3,0,13,1,0
4005,12.34,4,3,0,13,1,0
4007,12.34,4,3,0,13,1,0
4009,12.34,4,3,0,13,1,0
4011,12.34,4,3,0,13,1,0
4013,12.34,4,3,0,13,1,0
4015,12.34,4,3,0,13,1,0
4017,0.0860870426087817,4,3,0,13,1,0
4037,12.34,4,3,0,13,1,0
4039,12.34,4,3,0,13,1,0
4041,12.34,4,3,0,13,1,0
4043,12.34,4,3,0,13,1,0
4045,12.34,4,3,0,13,1,0
4047,12.34,4,3,0,13,1,0
4049,12.34,4,3,0,13,1,0
4051,12.34,4,3,0,13,1,0
4053,12.34,4,3,0,13,1,0
4055,12.34,4,3,0,13,1,0
4057,12.34,4,3,0,13,1,0
4059,0.0860870426087817,4,3,0,13,1,0
4079,12.34,4,3,0,13,1,0
4081,12.34,4,3,0,13,1,0
4083,12.34,4,3,0,13,1,0
4085,12.34,4,3,0,13,1,0
4087,12.34,4,3,0,13,1,0
4089,12.34,4,3,0,13,1,0
4091,12.34,4,3,0,13,1,0
4093,12.34,4,3,0,13,1,0
4095,12.34,4,3,0,13,1,0
4097,12.34,4,3,0,13,1,0
4099,12.34,4,3,0,13,1,0
4101,12.34,4,3,0,13,1,0
4122,999999999,4,3,0,13,1,0
4612,0.0860870426087817,4,3,0,13,1,0
4613,860.95566078347,4,3,0,13,1,0
4613,-1000,4,3,0,13,0,0
4623,860.95566078347,4,3,0,13,1,0
4623,-938.888888888889,4,3,0,13,0,0
4633,860.95566078347,4,3,0,13,1,0
4633,-793.427230046948,4,3,0,13,0,0
4643,860.95566078347,4,3,0,13,1,0
4643,-630.597014925373,4,3,0,13,0,0
4653,860.95566078347,4,3,0,13,1,0
4653,-489.855072463768,4,3,0,13,0,0
4663,860.95566078347,4,3,0,13,1,0
4663,-380.630630630631,4,3,0,13,0,0
4673,860.95566078347,4,3,0,13,1,0
4673,-299.115044247788,4,3,0,13,0,0
4683,860.95566078347,4,3,0,13,1,0
4683,-238.700564971751,4,3,0,13,0,0
4693,860.95566078347,4,3,0,13,1,0
4693,-193.585337915235,4,3,0,13,0,0
4703,860.95566078347,4,3,0,13,1,0
4703,-159.433962264151,4,3,0,13,0,0
4713,860.95566078347,4,3,0,13,1,0
4713,-133.17572892041,4,3,0,13,0,0
4723,860.95566078347,4,3,0,13,1,0
4723,-112.666666666667,4,3,0,13,0,0
4733,860.95566078347,4,3,0,13,1,0
4733,-96.406160867085,4,3,0,13,0,0
4743,860.95566078347,4,3,0,13,1,0
4743,-83.3333333333333,4,3,0,13,0,0
4753,860.95566078347,4,3,0,13,1,0
4753,-72.6881720430107,4,3,0,13,0,0
4763,860.95566078347,4,3,0,13,1,0
4763,-63.9183055975794,4,3,0,13,0,0
4773,860.95566078347,4,3,0,13,1,0
4773,-56.6164154103853,4,3,0,13,0,0
4783,860.95566078347,4,3,0,13,1,0
4783,-50.4778972520908,4,3,0,13,0,0
4793,860.95566078347,4,3,0,13,1,0
4793,-45.2718992767211,4,3,0,13,0,0
4803,860.95566078347,4,3,0,13,1,0
4803,-40.8212560386473,4,3,0,13,0,0
4813,860.95566078347,4,3,0,13,1,0
4813,-36.9884000875465,4,3,0,13,0,0
4823,860.95566078347,4,3,0,13,1,0
4823,-33.6653386454183,4,3,0,13,0,0
4833,860.95566078347,4,3,0,13,1,0
4833,-30.7664300018205,4,3,0,13,0,0
4843,860.95566078347,4,3,0,13,1,0
4843,-28.2231128924516,4,3,0,13,0,0
4853,860.95566078347,4,3,0,13,1,0
4853,-25.9800153727902,4,3,0,13,0,0
4863,860.95566078347,4,3,0,13,1,0
4863,-23.992049971607,4,3,0,13,0,0
4873,860.95566078347,4,3,0,13,1,0
4873,-22.2222222222222,4,3,0,13,0,0
4883,860.95566078347,4,3,0,13,1,0
4883,-20.6399609184172,4,3,0,13,0,0
4893,860.95566078347,4,3,0,13,1,0
4893,-19.2198339588309,4,3,0,13,0,0
4903,860.95566078347,4,3,0,13,1,0
4903,-17.9405520169851,4,3,0,13,0,0
4913,860.95566078347,4,3,0,13,1,0
4913,-16.7841890952428,4,3,0,13,0,0
4923,860.95566078347,4,3,0,13,1,0
4923,-15.7355679702048,4,3,0,13,0,0
4933,860.95566078347,4,3,0,13,1,0
4933,-14.7817720633255,4,3,0,13,0,0
4943,860.95566078347,4,3,0,13,1,0
4943,-13.9117550214027,4,3,0,13,0,0
4953,860.95566078347,4,3,0,13,1,0
4953,-13.116026387272,4,3,0,13,0,0
4963,860.95566078347,4,3,0,13,1,0
4963,-12.3863969510407,4,3,0,13,0,0
4973,860.95566078347,4,3,0,13,1,0
4973,-11.7157712305026,4,3,0,13,0,0
4983,860.95566078347,4,3,0,13,1,0
4983,-11.0979774100341,4,3,0,13,0,0
4993,860.95566078347,4,3,0,13,1,0
4993,-10.5276272347848,4,3,0,13,0,0
5002,0.0860870426087817,4,3,0,13,1,0
5003,860.95566078347,4,3,0,13,1,0
5003,-1000,4,3,0,13,0,0
5013,860.95566078347,4,3,0,13,1,0
5013,-946.859903381642,4,3,0,13,0,0
5023,860.95566078347,4,3,0,13,1,0
5023,-816.666666666667,4,3,0,13,0,0
5033,860.95566078347,4,3,0,13,1,0
5033,-664.406779661017,4,3,0,13,0,0
5043,860.95566078347,4,3,0,13,1,0
5043,-526.881720430108,4,3,0,13,0,0
5053,860.95566078347,4,3,0,13,1,0
5053,-416.135881104034,4,3,0,13,0,0
5063,860.95566078347,4,3,0,13,1,0
5063,-331.081081081081,4,3,0,13,0,0
5073,860.95566078347,4,3,0,13,1,0
5073,-266.666666666667,4,3,0,13,0,0
5083,860.95566078347,4,3,0,13,1,0
5083,-217.777777777778,4,3,0,13,0,0
5093,860.95566078347,4,3,0,13,1,0
5093,-180.3127874885,4,3,0,13,0,0
5103,860.95566078347,4,3,0,13,1,0
5103,-151.234567901235,4,3,0,13,0,0
5113,860.95566078347,4,3,0,13,1,0
5113,-128.356254092993,4,3,0,13,0,0
5123,860.95566078347,4,3,0,13,1,0
5123,-110.112359550562,4,3,0,13,0,0
5133,860.95566078347,4,3,0,13,1,0
5133,-95.3771289537713,4,3,0,13,0,0
5143,860.95566078347,4,3,0,13,1,0
5143,-83.3333333333333,4,3,0,13,0,0
5153,860.95566078347,4,3,0,13,1,0
5153,-73.3807562710595,4,3,0,13,0,0
5163,860.95566078347,4,3,0,13,1,0
5163,-65.0730411686587,4,3,0,13,0,0
5173,860.95566078347,4,3,0,13,1,0
5173,-58.0740740740741,4,3,0,13,0,0
5183,860.95566078347,4,3,0,13,1,0
5183,-52.1276595744681,4,3,0,13,0,0
5193,860.95566078347,4,3,0,13,1,0
5193,-47.0362371010319,4,3,0,13,0,0
5203,860.95566078347,4,3,0,13,1,0
5203,-42.6457789382071,4,3,0,13,0,0
5213,860.95566078347,4,3,0,13,1,0
5213,-38.8349514563107,4,3,0,13,0,0
5223,860.95566078347,4,3,0,13,1,0
5223,-35.5072463768116,4,3,0,13,0,0
5233,860.95566078347,4,3,0,13,1,0
5233,-32.5852036575229,4,3,0,13,0,0
5243,860.95566078347,4,3,0,13,1,0
5243,-30.006123698714,4,3,0,13,0,0
5253,860.95566078347,4,3,0,13,1,0
5253,-27.7188516475746,4,3,0,13,0,0
5263,860.95566078347,4,3,0,13,1,0
5263,-25.6813417190776,4,3,0,13,0,0
5273,860.95566078347,4,3,0,13,1,0
5273,-23.8587948874011,4,3,0,13,0,0
5283,860.95566078347,4,3,0,13,1,0
5283,-22.2222222222222,4,3,0,13,0,0
5293,860.95566078347,4,3,0,13,1,0
5293,-20.7473271938181,4,3,0,13,0,0
5303,860.95566078347,4,3,0,13,1,0
5303,-19.4136291600634,4,3,0,13,0,0
5313,860.95566078347,4,3,0,13,1,0
5313,-18.2037707810904,4,3,0,13,0,0
5323,860.95566078347,4,3,0,13,1,0
5323,-17.1029668411867,4,3,0,13,0,0
5333,860.95566078347,4,3,0,13,1,0
5333,-16.0985626283368,4,3,0,13,0,0
5343,860.95566078347,4,3,0,13,1,0
5343,-15.179677819083,4,3,0,13,0,0
5353,860.95566078347,4,3,0,13,1,0
5353,-14.336917562724,4,3,0,13,0,0
5363,860.95566078347,4,3,0,13,1,0
5363,-13.5621367284805,4,3,0,13,0,0
5373,860.95566078347,4,3,0,13,1,0
5373,-12.8482464765651,4,3,0,13,0,0
5383,860.95566078347,4,3,0,13,1,0
5383,-12.1890547263682,4,3,0,13,0,0
5393,860.95566078347,4,3,0,13,1,0
5393,-11.579133928044,4,3,0,13,0,0
5403,860.95566078347,4,3,0,13,1,0
5403,-11.0137109462801,4,3,0,13,0,0
5413,860.95566078347,4,3,0,13,1,0
5413,-10.488574945149,4,3,0,13,0,0
5422,0.0860870426087817,4,3,0,13,1,0
5423,8.60870426087817,1,3,0,13,1,0
5423,-1000,4,3,0,13,0,0
5567,999999999,4,3,0,13,1,0
5640,999999999,4,3,0,13,1,0
5812,0.08608704261,4,3,0,13,1,0
5813,4862.236629,4,3,0,13,1,0
5833,4862.236629,4,3,0,13,1,0
5853,4862.236629,4,3,0,13,1,0
5873,4862.236629,4,3,0,13,1,0
5893,4862.236629,4,3,0,13,1,0
5913,4862.236629,4,3,0,13,1,0
5933,4862.236629,4,3,0,13,1,0
5953,4862.236629,4,3,0,13,1,0
5973,4862.236629,4,3,0,13,1,0
5985,0.08608704261,4,3,0,13,1,0
5986,2431.118314,4,3,0,13,1,0
6006,2431.118314,4,3,0,13,1,0
6026,2431.118314,4,3,0,13,1,0
6046,2431.118314,4,3,0,13,1,0
6066,2431.118314,4,3,0,13,1,0
6086,2431.118314,4,3,0,13,1,0
6106,2431.118314,4,3,0,13,1,0
6126,2431.118314,4,3,0,13,1,0
6146,2431.118314,4,3,0,13,1,0
6159,0.08608704261,4,3,0,13,1,0
6160,1215.559157,4,3,0,13,1,0
6180,1215.559157,4,3,0,13,1,0
6200,1215.559157,4,3,0,13,1,0
6220,1215.559157,4,3,0,13,1,0
6240,1215.559157,4,3,0,13,1,0
6260,1215.559157,4,3,0,13,1,0
6280,1215.559157,4,3,0,13,1,0
6300,1215.559157,4,3,0,13,1,0
6320,1215.559157,4,3,0,13,1,0
6332,0.08608704261,4,3,0,13,1,0
6333,607.7795786,4,3,0,13,1,0
6353,607.7795786,4,3,0,13,1,0
6373,607.7795786,4,3,0,13,1,0
6393,607.7795786,4,3,0,13,1,0
6413,607.7795786,4,3,0,13,1,0
6433,607.7795786,4,3,0,13,1,0
6453,607.7795786,4,3,0,13,1,0
6473,607.7795786,4,3,0,13,1,0
6493,607.7795786,4,3,0,13,1,0
6506,0.08608704261,4,3,0,13,1,0
6507,303.8897893,4,3,0,13,1,0
6527,303.8897893,4,3,0,13,1,0
6547,303.8897893,4,3,0,13,1,0
6567,303.8897893,4,3,0,13,1,0
6587,303.8897893,4,3,0,13,1,0
6607,303.8897893,4,3,0,13,1,0
6627,303.8897893,4,3,0,13,1,0
6647,303.8897893,4,3,0,13,1,0
6667,303.8897893,4,3,0,13,1,0
6679,0.08608704261,4,3,0,13,1,0
6680,151.9448947,4,3,0,13,1,0
6700,151.9448947,4,3,0,13,1,0
6720,151.9448947,4,3,0,13,1,0
6740,151.9448947,4,3,0,13,1,0
6760,151.9448947,4,3,0,13,1,0
6780,151.9448947,4,3,0,13,1,0
6800,151.9448947,4,3,0,13,1,0
6820,151.9448947,4,3,0,13,1,0
6840,151.9448947,4,3,0,13,1,0
6852,0.08608704261,4,3,0,13,1,0
6853,75.97244733,4,3,0,13,1,0
6873,75.97244733,4,3,0,13,1,0
6893,75.97244733,4,3,0,13,1,0
6913,75.97244733,4,3,0,13,1,0
6933,75.97244733,4,3,0,13,1,0
6953,75.97244733,4,3,0,13,1,0
6973,75.97244733,4,3,0,13,1,0
6993,75.97244733,4,3,0,13,1,0
7013,75.97244733,4,3,0,13,1,0
7026,0.08608704261,4,3,0,13,1,0
7027,999999999,4,3,0,13,1,0
7199,0.08608704261,4,3,0,13,1,0
7200,4862.236629,4,3,0,13,1,0
7220,4862.236629,4,3,0,13,1,0
7240,4862.236629,4,3,0,13,1,0
7260,4862.236629,4,3,0,13,1,0
7280,4862.236629,4,3,0,13,1,0
7300,4862.236629,4,3,0,13,1,0
7320,4862.236629,4,3,0,13,1,0
7340,4862.236629,4,3,0,13,1,0
7360,4862.236629,4,3,0,13,1,0
7372,0.08608704261,4,3,0,13,1,0
7373,2431.118314,4,3,0,13,1,0
7393,2431.118314,4,3,0,13,1,0
7413,2431.118314,4,3,0,13,1,0
7433,2431.118314,4,3,0,13,1,0
7453,2431.118314,4,3,0,13,1,0
7473,2431.118314,4,3,0,13,1,0
7493,2431.118314,4,3,0,13,1,0
7513,2431.118314,4,3,0,13,1,0
7533,2431.118314,4,3,0,13,1,0
7546,0.08608704261,4,3,0,13,1,0
7547,1215.559157,4,3,0,13,1,0
7567,1215.559157,4,3,0,13,1,0
7587,1215.559157,4,3,0,13,1,0
7607,1215.559157,4,3,0,13,1,0
7627,1215.559157,4,3,0,13,1,0
7647,1215.559157,4,3,0,13,1,0
7667,1215.559157,4,3,0,13,1,0
7687,1215.559157,4,3,0,13,1,0
7707,1215.559157,4,3,0,13,1,0
7719,0.08608704261,4,3,0,13,1,0
7720,607.7795786,4,3,0,13,1,0
7740,607.7795786,4,3,0,13,1,0
7760,607.7795786,4,3,0,13,1,0
7780,607.7795786,4,3,0,13,1,0
7800,607.7795786,4,3,0,13,1,0
7820,607.7795786,4,3,0,13,1,0
7840,607.7795786,4,3,0,13,1,0
7860,607.7795786,4,3,0,13,1,0
7880,607.7795786,4,3,0,13,1,0
7893,0.08608704261,4,3,0,13,1,0
7894,303.8897893,4,3,0,13,1,0
7914,303.8897893,4,3,0,13,1,0
7934,303.8897893,4,3,0,13,1,0
7954,303.8897893,4,3,0,13,1,0
7974,303.8897893,4,3,0,13,1,0
7994,303.8897893,4,3,0,13,1,0
8014,303.8897893,4,3,0,13,1,0
8034,303.8897893,4,3,0,13,1,0
8054,303.8897893,4,3,0,13,1,0
8066,0.08608704261,4,3,0,13,1,0
8067,151.9448947,4,3,0,13,1,0
8087,151.9448947,4,3,0,13,1,0
8107,151.9448947,4,3,0,13,1,0
8127,151.9448947,4,3,0,13,1,0
8147,151.9448947,4,3,0,13,1,0
8167,151.9448947,4,3,0,13,1,0
8187,151.9448947,4,3,0,13,1,0
8207,151.9448947,4,3,0,13,1,0
8227,151.9448947,4,3,0,13,1,0
8239,0.08608704261,4,3,0,13,1,0
8240,75.97244733,4,3,0,13,1,0
8260,75.97244733,4,3,0,13,1,0
8280,75.97244733,4,3,0,13,1,0
8300,75.97244733,4,3,0,13,1,0
8320,75.97244733,4,3,0,13,1,0
8340,75.97244733,4,3,0,13,1,0
8360,75.97244733,4,3,0,13,1,0
8380,75.97244733,4,3,0,13,1,0
8400,75.97244733,4,3,0,13,1,0
8413,0.08608704261,4,3,0,13,1,0
8414,6000,4,3,0,13,1,0
8757.9,1.163670216,4,3,0,13,1,0
8758.9,0.0860870426087817,4,3,0,13,1,0
8760,6000,4,3,0,13,1,0
9103.8,1.573853055,4,3,0,13,1,0
9104.8,6.6,4,3,0,13,1,0
9105.9,0.0860870426087817,4,3,0,13,1,0
9107,6000,4,3,0,13,1,0
9454,5907.062221,4,3,0,13,1,0
9455,5816.959669,4,3,0,13,1,0
9456,5729.564553,4,3,0,13,1,0
9457,5644.756648,4,3,0,13,1,0
9458,5562.422744,4,3,0,13,1,0
9459,5482.45614,4,3,0,13,1,0
9460,5404.756185,4,3,0,13,1,0
9461,5329.227854,4,3,0,13,1,0
9462,5255.781359,4,3,0,13,1,0
9463,5184.331797,4,3,0,13,1,0
9464,5114.798818,4,3,0,13,1,0
9465,5047.106326,4,3,0,13,1,0
9466,4981.182201,4,3,0,13,1,0
9467,4916.958042,4,3,0,13,1,0
9468,4854.368932,4,3,0,13,1,0
9469,4793.353217,4,3,0,13,1,0
9470,4733.852304,4,3,0,13,1,0
9471,4675.810474,4,3,0,13,1,0
9472,4619.174707,4,3,0,13,1,0
9473,4563.894523,4,3,0,13,1,0
9474,4509.921828,4,3,0,13,1,0
9475,4457.210777,4,3,0,13,1,0
9476,4405.717642,4,3,0,13,1,0
9477,4355.400697,4,3,0,13,1,0
9478,4306.220096,4,3,0,13,1,0
9479,4258.137774,4,3,0,13,1,0
9480,4211.11735,4,3,0,13,1,0
9481,4165.124028,4,3,0,13,1,0
9482,4120.124519,4,3,0,13,1,0
9483,4076.086957,4,3,0,13,1,0
9484,4032.980821,4,3,0,13,1,0
9485,3990.776871,4,3,0,13,1,0
9486,3949.447077,4,3,0,13,1,0
9487,3908.964559,4,3,0,13,1,0
9488,3869.303525,4,3,0,13,1,0
9489,3830.439224,4,3,0,13,1,0
9490,3792.347885,4,3,0,13,1,0
9491,3755.006676,4,3,0,13,1,0
9492,3718.393654,4,3,0,13,1,0
9493,3682.487725,4,3,0,13,1,0
9494,3647.268601,4,3,0,13,1,0
9495,3612.716763,4,3,0,13,1,0
9496,3578.813425,4,3,0,13,1,0
9497,3545.540498,4,3,0,13,1,0
9498,3512.880562,4,3,0,13,1,0
9499,3480.816832,4,3,0,13,1,0
9500,3449.333129,4,3,0,13,1,0
9501,3418.413856,4,3,0,13,1,0
9502,3388.043969,4,3,0,13,1,0
9503,3358.208955,4,3,0,13,1,0
9504,3328.894807,4,3,0,13,1,0
9505,3300.088002,4,3,0,13,1,0
9506,3271.775483,4,3,0,13,1,0
9507,3243.944637,4,3,0,13,1,0
9508,3216.583274,4,3,0,13,1,0
9509,3189.679614,4,3,0,13,1,0
9510,3163.222269,4,3,0,13,1,0
9511,3137.200223,4,3,0,13,1,0
9512,3111.602821,4,3,0,13,1,0
9513,3086.419753,4,3,0,13,1,0
9514,3061.64104,4,3,0,13,1,0
9515,3037.257019,4,3,0,13,1,0
9516,3013.258337,4,3,0,13,1,0
9517,2989.635929,4,3,0,13,1,0
9518,2966.381015,4,3,0,13,1,0
9519,2943.485086,4,3,0,13,1,0
9520,2920.939894,4,3,0,13,1,0
9521,2898.737439,4,3,0,13,1,0
9522,2876.869965,4,3,0,13,1,0
9523,2855.329949,4,3,0,13,1,0
9524,2834.110089,4,3,0,13,1,0
9525,2813.203301,4,3,0,13,1,0
9526,2792.602706,4,3,0,13,1,0
9527,2772.301626,4,3,0,13,1,0
9528,2752.293578,4,3,0,13,1,0
9529,2732.572261,4,3,0,13,1,0
9530,2713.131557,4,3,0,13,1,0
9531,2693.965517,4,3,0,13,1,0
9532,2675.068363,4,3,0,13,1,0
9533,2656.434475,4,3,0,13,1,0
9534,2638.058389,4,3,0,13,1,0
9535,2619.934793,4,3,0,13,1,0
9536,2602.058517,4,3,0,13,1,0
9537,2584.424535,4,3,0,13,1,0
9538,2567.027952,4,3,0,13,1,0
9539,2549.864007,4,3,0,13,1,0
9540,2532.928065,4,3,0,13,1,0
9541,2516.215612,4,3,0,13,1,0
9542,2499.722253,4,3,0,13,1,0
9543,2483.443709,4,3,0,13,1,0
9544,2467.375809,4,3,0,13,1,0
9545,2451.514491,4,3,0,13,1,0
9546,2435.855797,4,3,0,13,1,0
9547,2420.395869,4,3,0,13,1,0
9548,2405.130946,4,3,0,13,1,0
9549,2390.057361,4,3,0,13,1,0
9550,2375.17154,4,3,0,13,1,0
9551,2360.469996,4,3,0,13,1,0
9552,2345.949327,4,3,0,13,1,0
9553,2331.606218,4,3,0,13,1,0
9554,2317.437429,4,3,0,13,1,0
9555,2303.439803,4,3,0,13,1,0
9556,2289.610257,4,3,0,13,1,0
9557,2275.945782,4,3,0,13,1,0
9558,2262.443439,4,3,0,13,1,0
9559,2249.10036,4,3,0,13,1,0
9560,2235.913743,4,3,0,13,1,0
9561,2222.880854,4,3,0,13,1,0
9562,2209.999018,4,3,0,13,1,0
9563,2197.265625,4,3,0,13,1,0
9564,2184.678124,4,3,0,13,1,0
9565,2172.234022,4,3,0,13,1,0
9566,2159.930882,4,3,0,13,1,0
9567,2147.766323,4,3,0,13,1,0
9568,2135.738016,4,3,0,13,1,0
9569,2123.843685,4,3,0,13,1,0
9570,2112.081104,4,3,0,13,1,0
9571,2100.448096,4,3,0,13,1,0
9572,2088.942531,4,3,0,13,1,0
9573,2077.562327,4,3,0,13,1,0
9574,2066.305446,4,3,0,13,1,0
9575,2055.169894,4,3,0,13,1,0
9576,2044.15372,4,3,0,13,1,0
9577,2033.255015,4,3,0,13,1,0
9578,2022.47191,4,3,0,13,1,0
9579,2011.802575,4,3,0,13,1,0
9580,2001.245219,4,3,0,13,1,0
9581,1990.798089,4,3,0,13,1,0
9582,1980.459467,4,3,0,13,1,0
9583,1970.227671,4,3,0,13,1,0
9584,1960.101054,4,3,0,13,1,0
9585,1950.078003,4,3,0,13,1,0
9586,1940.156937,4,3,0,13,1,0
9587,1930.336307,4,3,0,13,1,0
9588,1920.614597,4,3,0,13,1,0
9589,1910.990318,4,3,0,13,1,0
9590,1901.462013,4,3,0,13,1,0
9591,1892.028254,4,3,0,13,1,0
9592,1882.687641,4,3,0,13,1,0
9593,1873.438801,4,3,0,13,1,0
9594,1864.280388,4,3,0,13,1,0
9595,1855.211082,4,3,0,13,1,0
9596,1846.229589,4,3,0,13,1,0
9597,1837.33464,4,3,0,13,1,0
9598,1828.52499,4,3,0,13,1,0
9599,1819.799418,4,3,0,13,1,0
9600,1811.156725,4,3,0,13,1,0
9601,1802.595738,4,3,0,13,1,0
9602,1794.115302,4,3,0,13,1,0
9603,1785.714286,4,3,0,13,1,0
9604,1777.391579,4,3,0,13,1,0
9605,1769.146092,4,3,0,13,1,0
9606,1760.976755,4,3,0,13,1,0
9607,1752.882518,4,3,0,13,1,0
9608,1744.86235,4,3,0,13,1,0
9609,1736.915239,4,3,0,13,1,0
9610,1729.040191,4,3,0,13,1,0
9611,1721.23623,4,3,0,13,1,0
9612,1713.502399,4,3,0,13,1,0
9613,1705.837756,4,3,0,13,1,0
9614,1698.241377,4,3,0,13,1,0
9615,1690.712353,4,3,0,13,1,0
9616,1683.249794,4,3,0,13,1,0
9617,1675.852823,4,3,0,13,1,0
9618,1668.520578,4,3,0,13,1,0
9619,1661.252215,4,3,0,13,1,0
9620,1654.046901,4,3,0,13,1,0
9621,1646.903821,4,3,0,13,1,0
9622,1639.82217,4,3,0,13,1,0
9623,1632.801161,4,3,0,13,1,0
9624,1625.840017,4,3,0,13,1,0
9625,1618.937977,4,3,0,13,1,0
9626,1612.09429,4,3,0,13,1,0
9627,1605.308219,4,3,0,13,1,0
9628,1598.579041,4,3,0,13,1,0
9629,1591.906042,4,3,0,13,1,0
9630,1585.288523,4,3,0,13,1,0
9631,1578.725793,4,3,0,13,1,0
9632,1572.217176,4,3,0,13,1,0
9633,1565.762004,4,3,0,13,1,0
9634,1559.359623,4,3,0,13,1,0
9635,1553.009387,4,3,0,13,1,0
9636,1546.710662,4,3,0,13,1,0
9637,1540.462823,4,3,0,13,1,0
9638,1534.265257,4,3,0,13,1,0
9639,1528.117359,4,3,0,13,1,0
9640,1522.018535,4,3,0,13,1,0
9641,1515.968198,4,3,0,13,1,0
9642,1509.965774,4,3,0,13,1,0
9643,1504.010695,4,3,0,13,1,0
9644,1498.102404,4,3,0,13,1,0
9645,1492.24035,4,3,0,13,1,0
9646,1486.423994,4,3,0,13,1,0
9647,1480.652803,4,3,0,13,1,0
9648,1474.926254,4,3,0,13,1,0
9649,1469.243829,4,3,0,13,1,0
9650,1463.605022,4,3,0,13,1,0
9651,1458.009331,4,3,0,13,1,0
9652,1452.456265,4,3,0,13,1,0
9653,1446.945338,4,3,0,13,1,0
9654,1441.476071,4,3,0,13,1,0
9655,1436.047996,4,3,0,13,1,0
9656,1430.660647,4,3,0,13,1,0
9657,1425.313569,4,3,0,13,1,0
9658,1420.006311,4,3,0,13,1,0
9659,1414.738431,4,3,0,13,1,0
9660,1409.509491,4,3,0,13,1,0
9661,1404.319061,4,3,0,13,1,0
9662,1399.166718,4,3,0,13,1,0
9663,1394.052045,4,3,0,13,1,0
9664,1388.974628,4,3,0,13,1,0
9665,1383.934063,4,3,0,13,1,0
9666,1378.92995,4,3,0,13,1,0
9667,1373.961895,4,3,0,13,1,0
9668,1369.02951,4,3,0,13,1,0
9669,1364.132412,4,3,0,13,1,0
9670,1359.270223,4,3,0,13,1,0
9671,1354.442572,4,3,0,13,1,0
9672,1349.649091,4,3,0,13,1,0
9673,1344.88942,4,3,0,13,1,0
9674,1340.163202,4,3,0,13,1,0
9675,1335.470085,4,3,0,13,1,0
9676,1330.809724,4,3,0,13,1,0
9677,1326.181775,4,3,0,13,1,0
9678,1321.585903,4,3,0,13,1,0
9679,1317.021775,4,3,0,13,1,0
9680,1312.489063,4,3,0,13,1,0
9681,1307.987443,4,3,0,13,1,0
9682,1303.516598,4,3,0,13,1,0
9683,1299.076212,4,3,0,13,1,0
9684,1294.665976,4,3,0,13,1,0
9685,1290.285583,4,3,0,13,1,0
9686,1285.934732,4,3,0,13,1,0
9687,1281.613124,4,3,0,13,1,0
9688,1277.320466,4,3,0,13,1,0
9689,1273.056467,4,3,0,13,1,0
9690,1268.820842,4,3,0,13,1,0
9691,1264.613309,4,3,0,13,1,0
9692,1260.433589,4,3,0,13,1,0
9693,1256.281407,4,3,0,13,1,0
9694,1252.156492,4,3,0,13,1,0
9695,1248.058576,4,3,0,13,1,0
9696,1243.987394,4,3,0,13,1,0
9697,1239.942687,4,3,0,13,1,0
9698,1235.924197,4,3,0,13,1,0
9699,1231.931669,4,3,0,13,1,0
9700,1227.964853,4,3,0,13,1,0
9701,1224.023501,4,3,0,13,1,0
9702,1220.107369,4,3,0,13,1,0
9703,1216.216216,4,3,0,13,1,0
9704,1212.349803,4,3,0,13,1,0
9705,1208.507896,4,3,0,13,1,0
9706,1204.690261,4,3,0,13,1,0
9707,1200.89667,4,3,0,13,1,0
9708,1197.126895,4,3,0,13,1,0
9709,1193.380715,4,3,0,13,1,0
9710,1189.657907,4,3,0,13,1,0
9711,1185.958254,4,3,0,13,1,0
9712,1182.281541,4,3,0,13,1,0
9713,1178.627554,4,3,0,13,1,0
9714,1174.996083,4,3,0,13,1,0
9715,1171.386922,4,3,0,13,1,0
9716,1167.799865,4,3,0,13,1,0
9717,1164.23471,4,3,0,13,1,0
9718,1160.691256,4,3,0,13,1,0
9719,1157.169307,4,3,0,13,1,0
9720,1153.668666,4,3,0,13,1,0
9721,1150.189142,4,3,0,13,1,0
9722,1146.730544,4,3,0,13,1,0
9723,1143.292683,4,3,0,13,1,0
9724,1139.875374,4,3,0,13,1,0
9725,1136.478432,4,3,0,13,1,0
9726,1133.101677,4,3,0,13,1,0
9727,1129.744929,4,3,0,13,1,0
9728,1126.40801,4,3,0,13,1,0
9729,1123.090746,4,3,0,13,1,0
9730,1119.792963,4,3,0,13,1,0
9731,1116.51449,4,3,0,13,1,0
9732,1113.255158,4,3,0,13,1,0
9733,1110.0148,4,3,0,13,1,0
9734,1106.793251,4,3,0,13,1,0
9735,1103.590347,4,3,0,13,1,0
9736,1100.405928,4,3,0,13,1,0
9737,1097.239832,4,3,0,13,1,0
9738,1094.091904,4,3,0,13,1,0
9739,1090.961986,4,3,0,13,1,0
9740,1087.849925,4,3,0,13,1,0
9741,1084.755568,4,3,0,13,1,0
9742,1081.678765,4,3,0,13,1,0
9743,1078.619367,4,3,0,13,1,0
9744,1075.577226,4,3,0,13,1,0
9745,1072.552198,4,3,0,13,1,0
9746,1069.544137,4,3,0,13,1,0
9747,1066.552901,4,3,0,13,1,0
9748,1063.57835,4,3,0,13,1,0
9749,1060.620345,4,3,0,13,1,0
9750,1057.678748,4,3,0,13,1,0
9751,1054.753422,4,3,0,13,1,0
9752,1051.844234,4,3,0,13,1,0
9753,1048.951049,4,3,0,13,1,0
9754,1046.073737,4,3,0,13,1,0
9755,1043.212166,4,3,0,13,1,0
9756,1040.366209,4,3,0,13,1,0
9757,1037.535737,4,3,0,13,1,0
9758,1034.720625,4,3,0,13,1,0
9759,1031.920748,4,3,0,13,1,0
9760,1029.135983,4,3,0,13,1,0
9761,1026.366207,4,3,0,13,1,0
9762,1023.611301,4,3,0,13,1,0
9763,1020.871143,4,3,0,13,1,0
9764,1018.145617,4,3,0,13,1,0
9765,1015.434606,4,3,0,13,1,0
9766,1012.737993,4,3,0,13,1,0
9767,1010.055665,4,3,0,13,1,0
9768,1007.387508,4,3,0,13,1,0
9769,1004.733411,4,3,0,13,1,0
9770,1002.093261,4,3,0,13,1,0
9771,999.466951,4,3,0,13,1,0
9772,996.8543707,4,3,0,13,1,0
9773,994.2554132,4,3,0,13,1,0
9774,991.6699722,4,3,0,13,1,0
9775,989.0979427,4,3,0,13,1,0
9776,986.5392204,4,3,0,13,1,0
9777,983.9937024,4,3,0,13,1,0
9778,981.4612868,4,3,0,13,1,0
9779,978.9418726,4,3,0,13,1,0
9780,976.43536,4,3,0,13,1,0
9781,973.9416501,4,3,0,13,1,0
9782,971.460645,4,3,0,13,1,0
9783,968.9922481,4,3,0,13,1,0
9784,966.5363632,4,3,0,13,1,0
9785,964.0928957,4,3,0,13,1,0
9786,961.6617515,4,3,0,13,1,0
9787,959.2428377,4,3,0,13,1,0
9788,956.8360621,4,3,0,13,1,0
9789,954.4413337,4,3,0,13,1,0
9790,952.0585622,4,3,0,13,1,0
9791,949.6876583,4,3,0,13,1,0
9792,947.3285335,4,3,0,13,1,0
9793,944.9811004,4,3,0,13,1,0
9794,942.6452721,4,3,0,13,1,0
9795,940.3209629,4,3,0,13,1,0
9796,938.0080877,4,3,0,13,1,0
9797,935.7065624,4,3,0,13,1,0
9798,933.4163037,4,3,0,13,1,0
9799,931.1372289,4,3,0,13,1,0
9800,928.8692565,4,3,0,13,1,0
9801,926.6123054,4,3,0,13,1,0
9802,924.3662956,4,3,0,13,1,0
9803,922.1311475,4,3,0,13,1,0
9804,919.9067828,4,3,0,13,1,0
9805,917.6931234,4,3,0,13,1,0
9806,915.4900924,4,3,0,13,1,0
9807,913.2976132,4,3,0,13,1,0
9808,911.1156104,4,3,0,13,1,0
9809,908.944009,4,3,0,13,1,0
9810,906.7827349,4,3,0,13,1,0
9811,904.6317144,4,3,0,13,1,0
9812,902.4908748,4,3,0,13,1,0
9813,900.3601441,4,3,0,13,1,0
9814,898.2394507,4,3,0,13,1,0
9815,896.1287239,4,3,0,13,1,0
9816,894.0278937,4,3,0,13,1,0
9817,891.9368905,4,3,0,13,1,0
9818,889.8556456,4,3,0,13,1,0
9819,887.7840909,4,3,0,13,1,0
9820,885.7221588,4,3,0,13,1,0
9821,883.6697824,4,3,0,13,1,0
9822,881.6268955,4,3,0,13,1,0
9823,879.5934324,4,3,0,13,1,0
9824,877.569328,4,3,0,13,1,0
9825.7,5.989501602,4,3,0,13,1,0
9826.7,6.6,4,3,0,13,1,0
9827.8,6.6,4,3,0,13,1,0
9828.9,0.0860870426087817,4,3,0,13,1,0
9830,19.5503421309873,1,3,0,13,1,0
9870,56.1272217025257,1,3,0,13,1,0
9910,28.9995166747221,1,3,0,13,1,0
9950,56.1272217025257,1,3,0,13,1,0
9990,999999999,4,3,0,13,1,0
10093,12.34,4,3,0,13,1,0
10095,12.34,4,3,0,13,1,0
10097,12.34,4,3,0,13,1,0
10099,12.34,4,3,0,13,1,0
10101,12.34,4,3,0,13,1,0
10103,12.34,4,3,0,13,1,0
10105,12.34,4,3,0,13,1,0
10107,12.34,4,3,0,13,1,0
10109,12.34,4,3,0,13,1,0
10111,12.34,4,3,0,13,1,0
10113,999999999,4,3,0,13,1,0
10133,24.68,4,3,0,13,1,0
10135,12.34,4,3,0,13,1,0
10137,12.34,4,3,0,13,1,0
10139,12.34,4,3,0,13,1,0
10141,12.34,4,3,0,13,1,0
10143,12.34,4,3,0,13,1,0
10145,12.34,4,3,0,13,1,0
10147,12.34,4,3,0,13,1,0
10149,12.34,4,3,0,13,1,0
10151,12.34,4,3,0,13,1,0
10153,0.08608704261,4,3,0,13,1,0
10154,999999999,4,3,0,13,1,0
10279,0.08608704261,4,3,0,13,1,0
10280,24.68,4,3,0,13,1,0
10282,12.34,4,3,0,13,1,0
10284,12.34,4,3,0,13,1,0
10286,12.34,4,3,0,13,1,0
10288,12.34,4,3,0,13,1,0
10290,12.34,4,3,0,13,1,0
10292,12.34,4,3,0,13,1,0
10294,12.34,4,3,0,13,1,0
10296,12.34,4,3,0,13,1,0
10298,12.34,4,3,0,13,1,0
10300,999999999,4,3,0,13,1,0
10380,12.34,4,3,0,13,1,0
10382,12.34,4,3,0,13,1,0
10384,12.34,4,3,0,13,1,0
10386,12.34,4,3,0,13,1,0
10388,12.34,4,3,0,13,1,0
10390,12.34,4,3,0,13,1,0
10392,12.34,4,3,0,13,1,0
10394,12.34,4,3,0,13,1,0
10396,12.34,4,3,0,13,1,0
10398,12.34,4,3,0,13,1,0
10400,999999999,4,3,0,13,1,0
10470,860.95566078347,4,3,0,13,1,0
10470,-1000,4,3,0,13,0,0
10480,860.95566078347,4,3,0,13,1,0
10480,-887.882219705549,4,3,0,13,0,0
10490,860.95566078347,4,3,0,13,1,0
10490,-664.406779661017,4,3,0,13,0,0
10500,860.95566078347,4,3,0,13,1,0
10500,-468.059701492537,4,3,0,13,0,0
10510,860.95566078347,4,3,0,13,1,0
10510,-331.081081081081,4,3,0,13,0,0
10520,860.95566078347,4,3,0,13,1,0
10520,-240.564590365143,4,3,0,13,0,0
10530,860.95566078347,4,3,0,13,1,0
10530,-180.3127874885,4,3,0,13,0,0
10540,860.95566078347,4,3,0,13,1,0
10540,-139.130434782609,4,3,0,13,0,0
10550,860.95566078347,4,3,0,13,1,0
10550,-110.112359550562,4,3,0,13,0,0
10560,860.95566078347,4,3,0,13,1,0
10560,-89.0605475406111,4,3,0,13,0,0
10570,860.95566078347,4,3,0,13,1,0
10570,-73.3807562710595,4,3,0,13,0,0
10580,860.95566078347,4,3,0,13,1,0
10580,-61.4275640523388,4,3,0,13,0,0
10590,860.95566078347,4,3,0,13,1,0
10590,-52.1276595744681,4,3,0,13,0,0
10600,860.95566078347,4,3,0,13,1,0
10600,-44.7616328860976,4,3,0,13,0,0
10610,860.95566078347,4,3,0,13,1,0
10610,-38.8349514563107,4,3,0,13,0,0
10620,860.95566078347,4,3,0,13,1,0
10620,-33.9997397979097,4,3,0,13,0,0
10630,860.95566078347,4,3,0,13,1,0
10630,-30.006123698714,4,3,0,13,0,0
10640,860.95566078347,4,3,0,13,1,0
10640,-26.6712025854737,4,3,0,13,0,0
10650,860.95566078347,4,3,0,13,1,0
10650,-23.8587948874011,4,3,0,13,0,0
10660,860.95566078347,4,3,0,13,1,0
10660,-21.4659255811406,4,3,0,13,0,0
10670,860.95566078347,4,3,0,13,1,0
10670,-19.4136291600634,4,3,0,13,0,0
10680,860.95566078347,4,3,0,13,1,0
10680,-17.6405733186329,4,3,0,13,0,0
10690,860.95566078347,4,3,0,13,1,0
10690,-16.0985626283368,4,3,0,13,0,0
10700,860.95566078347,4,3,0,13,1,0
10700,-14.7493180321701,4,3,0,13,0,0
10710,860.95566078347,4,3,0,13,1,0
10710,-13.5621367284805,4,3,0,13,0,0
10720,860.95566078347,4,3,0,13,1,0
10720,-12.5121690419573,4,3,0,13,0,0
10730,860.95566078347,4,3,0,13,1,0
10730,-11.579133928044,4,3,0,13,0,0
10740,860.95566078347,4,3,0,13,1,0
10740,-10.7463504900281,4,3,0,13,0,0
10750,860.95566078347,4,3,0,13,1,0
10750,-10,4,3,0,13,0,0
10760,0.08608704261,1,3,0,13,1,0
10761,19.5503421309873,1,3,0,13,1,0
10803,28.9995166747221,1,3,0,13,1,0
10846,56.1272217025257,1,3,0,13,1,0
10894,999999999,4,3,0,13,1,0
10980,0.08608704261,1,3,0,13,1,0
10981,860.95566078347,4,3,0,13,1,0
10981,-10,4,3,0,13,0,0
10983.07,-10.2009692961025,4,3,0,13,0,0
10985.14,-10.4080366695948,4,3,0,13,0,0
10987.21,-10.6214504440297,4,3,0,13,0,0
10989.28,-10.8414716647297,4,3,0,13,0,0
10991.35,-11.0683748858574,4,3,0,13,0,0
10993.42,-11.3024490146525,4,3,0,13,0,0
10995.49,-11.5439982176067,4,3,0,13,0,0
10997.56,-11.7933428938033,4,3,0,13,0,0
10999.63,-12.0508207211452,4,3,0,13,0,0
11001.7,-12.3167877817465,4,3,0,13,0,0
11003.77,-12.591619773376,4,3,0,13,0,0
11005.84,-12.8757133145176,4,3,0,13,0,0
11007.91,-13.1694873513659,4,3,0,13,0,0
11009.98,-13.4733846759112,4,3,0,13,0,0
11012.05,-13.7878735651994,4,3,0,13,0,0
11014.12,-14.1134495528859,4,3,0,13,0,0
11016.19,-14.4506373453601,4,3,0,13,0,0
11018.26,-14.7999928960034,4,3,0,13,0,0
11020.33,-15.1621056525846,4,3,0,13,0,0
11022.4,-15.5376009944065,4,3,0,13,0,0
11024.47,-15.9271428776206,4,3,0,13,0,0
11026.54,-16.3314367091502,4,3,0,13,0,0
11028.61,-16.7512324719291,4,3,0,13,0,0
11030.68,-17.1873281267187,4,3,0,13,0,0
11032.75,-17.6405733186329,4,3,0,13,0,0
11034.82,-18.111873419739,4,3,0,13,0,0
11036.89,-18.6021939427536,4,3,0,13,0,0
11038.96,-19.1125653649736,4,3,0,13,0,0
11041.03,-19.6440884062555,4,3,0,13,0,0
11043.1,-20.1979398101394,4,3,0,13,0,0
11045.17,-20.775378683215,4,3,0,13,0,0
11047.24,-21.377753454645,4,3,0,13,0,0
11049.31,-22.0065095255176,4,3,0,13,0,0
11051.38,-22.6631976865408,4,3,0,13,0,0
11053.45,-23.3494833926799,4,3,0,13,0,0
11055.52,-24.0671569948785,4,3,0,13,0,0
11057.59,-24.8181450422033,4,3,0,13,0,0
11059.66,-25.6045227829044,4,3,0,13,0,0
11061.73,-26.4285280102754,4,3,0,13,0,0
11063.8,-27.292576419214,4,3,0,13,0,0
11065.87,-28.1992786624518,4,3,0,13,0,0
11067.94,-29.1514593220537,4,3,0,13,0,0
11070.01,-30.1521780425809,4,3,0,13,0,0
11072.08,-31.2047531079934,4,3,0,13,0,0
11074.15,-32.3127877857662,4,3,0,13,0,0
11076.22,-33.4801998098325,4,3,0,13,0,0
11078.29,-34.7112544300238,4,3,0,13,0,0
11080.36,-36.0106015210878,4,3,0,13,0,0
11082.43,-37.3833173208124,4,3,0,13,0,0
11084.5,-38.8349514563107,4,3,0,13,0,0
11086.57,-40.3715800225273,4,3,0,13,0,0
11088.64,-41.9998656004301,4,3,0,13,0,0
11090.71,-43.7271252476048,4,3,0,13,0,0
11092.78,-45.5614076652512,4,3,0,13,0,0
11094.85,-47.511580947856,4,3,0,13,0,0
11096.92,-49.5874325610917,4,3,0,13,0,0
11098.99,-51.7997834769051,4,3,0,13,0,0
11101.06,-54.1606187309084,4,3,0,13,0,0
11103.13,-56.6832370663024,4,3,0,13,0,0
11105.2,-59.3824228028503,4,3,0,13,0,0
11107.27,-62.2746436333518,4,3,0,13,0,0
11109.34,-65.3782787206778,4,3,0,13,0,0
11111.41,-68.7138822656341,4,3,0,13,0,0
11113.48,-72.3044886626562,4,3,0,13,0,0
11115.55,-76.1759664825747,4,3,0,13,0,0
11117.62,-80.3574298479637,4,3,0,13,0,0
11119.69,-84.8817173269049,4,3,0,13,0,0
11121.76,-89.7859502944979,4,3,0,13,0,0
11123.83,-95.1121848219975,4,3,0,13,0,0
11125.9,-100.908173562059,4,3,0,13,0,0
11127.97,-107.228256790229,4,3,0,13,0,0
11130.04,-114.134404674945,4,3,0,13,0,0
11132.11,-121.697435835027,4,3,0,13,0,0
11134.18,-129.99844001872,4,3,0,13,0,0
11136.25,-139.130434782609,4,3,0,13,0,0
11138.32,-149.20028646455,4,3,0,13,0,0
11140.39,-160.330923025124,4,3,0,13,0,0
11142.46,-172.663858001243,4,3,0,13,0,0
11144.53,-186.362026873404,4,3,0,13,0,0
11146.6,-201.612903225806,4,3,0,13,0,0
11148.67,-218.631802181945,4,3,0,13,0,0
11150.74,-237.665177298222,4,3,0,13,0,0
11152.81,-258.993551060579,4,3,0,13,0,0
11154.88,-282.933454051607,4,3,0,13,0,0
11156.95,-309.837335398916,4,3,0,13,0,0
11159.02,-340.089783702897,4,3,0,13,0,0
11161.09,-374.097489805843,4,3,0,13,0,0
11163.16,-412.269129287599,4,3,0,13,0,0
11165.23,-454.979753400974,4,3,0,13,0,0
11167.3,-502.51256281407,4,3,0,13,0,0
11169.37,-554.969754148399,4,3,0,13,0,0
11171.44,-612.144955925563,4,3,0,13,0,0
11173.51,-673.355329607434,4,3,0,13,0,0
11175.58,-737.245650250664,4,3,0,13,0,0
11177.65,-801.603206412826,4,3,0,13,0,0
11179.72,-863.259668508287,4,3,0,13,0,0
11181.79,-918.189330639978,4,3,0,13,0,0
11183.86,-961.908426317814,4,3,0,13,0,0
11185.93,-990.197049212793,4,3,0,13,0,0
11188,999999999,4,3,0,13,1,0
11360,0.08608704261,4,3,0,13,1,0
11361,4862.236629,4,3,0,13,1,0
11381,4862.236629,4,3,0,13,1,0
11401,4862.236629,4,3,0,13,1,0
11421,4862.236629,4,3,0,13,1,0
11441,4862.236629,4,3,0,13,1,0
11461,4862.236629,4,3,0,13,1,0
11481,4862.236629,4,3,0,13,1,0
11501,4862.236629,4,3,0,13,1,0
11521,4862.236629,4,3,0,13,1,0
11533,0.08608704261,4,3,0,13,1,0
11534,2431.118314,4,3,0,13,1,0
11554,2431.118314,4,3,0,13,1,0
11574,2431.118314,4,3,0,13,1,0
11594,2431.118314,4,3,0,13,1,0
11614,2431.118314,4,3,0,13,1,0
11634,2431.118314,4,3,0,13,1,0
11654,2431.118314,4,3,0,13,1,0
11674,2431.118314,4,3,0,13,1,0
11694,2431.118314,4,3,0,13,1,0
11707,0.08608704261,4,3,0,13,1,0
11708,1215.559157,4,3,0,13,1,0
11728,1215.559157,4,3,0,13,1,0
11748,1215.559157,4,3,0,13,1,0
11768,1215.559157,4,3,0,13,1,0
11788,1215.559157,4,3,0,13,1,0
11808,1215.559157,4,3,0,13,1,0
11828,1215.559157,4,3,0,13,1,0
11848,1215.559157,4,3,0,13,1,0
11868,1215.559157,4,3,0,13,1,0
11880,0.08608704261,4,3,0,13,1,0
11881,607.7795786,4,3,0,13,1,0
11901,607.7795786,4,3,0,13,1,0
11921,607.7795786,4,3,0,13,1,0
11941,607.7795786,4,3,0,13,1,0
11961,607.7795786,4,3,0,13,1,0
11981,607.7795786,4,3,0,13,1,0
12001,607.7795786,4,3,0,13,1,0
12021,607.7795786,4,3,0,13,1,0
12041,607.7795786,4,3,0,13,1,0
12054,0.08608704261,4,3,0,13,1,0
12055,303.8897893,4,3,0,13,1,0
12075,303.8897893,4,3,0,13,1,0
12095,303.8897893,4,3,0,13,1,0
12115,303.8897893,4,3,0,13,1,0
12135,303.8897893,4,3,0,13,1,0
12155,303.8897893,4,3,0,13,1,0
12175,303.8897893,4,3,0,13,1,0
12195,303.8897893,4,3,0,13,1,0
12215,303.8897893,4,3,0,13,1,0
12227,0.08608704261,4,3,0,13,1,0
12228,151.9448947,4,3,0,13,1,0
12248,151.9448947,4,3,0,13,1,0
12268,151.9448947,4,3,0,13,1,0
12288,151.9448947,4,3,0,13,1,0
12308,151.9448947,4,3,0,13,1,0
12328,151.9448947,4,3,0,13,1,0
12348,151.9448947,4,3,0,13,1,0
12368,151.9448947,4,3,0,13,1,0
12388,151.9448947,4,3,0,13,1,0
12400,0.08608704261,4,3,0,13,1,0
12401,75.97244733,4,3,0,13,1,0
12421,75.97244733,4,3,0,13,1,0
12441,75.97244733,4,3,0,13,1,0
12461,75.97244733,4,3,0,13,1,0
12481,75.97244733,4,3,0,13,1,0
12501,75.97244733,4,3,0,13,1,0
12521,75.97244733,4,3,0,13,1,0
12541,75.97244733,4,3,0,13,1,0
12561,75.97244733,4,3,0,13,1,0
12574,0.08608704261,4,3,0,13,1,0
12575,999999999,4,3,0,13,1,0
12747,0.08608704261,4,3,0,13,1,0
12748,4862.236629,4,3,0,13,1,0
12768,4862.236629,4,3,0,13,1,0
12788,4862.236629,4,3,0,13,1,0
12808,4862.236629,4,3,0,13,1,0
12828,4862.236629,4,3,0,13,1,0
12848,4862.236629,4,3,0,13,1,0
12868,4862.236629,4,3,0,13,1,0
12888,4862.236629,4,3,0,13,1,0
12908,4862.236629,4,3,0,13,1,0
12920,0.08608704261,4,3,0,13,1,0
12921,2431.118314,4,3,0,13,1,0
12941,2431.118314,4,3,0,13,1,0
12961,2431.118314,4,3,0,13,1,0
12981,2431.118314,4,3,0,13,1,0
13001,2431.118314,4,3,0,13,1,0
13021,2431.118314,4,3,0,13,1,0
13041,2431.118314,4,3,0,13,1,0
13061,2431.118314,4,3,0,13,1,0
13081,2431.118314,4,3,0,13,1,0
13094,0.08608704261,4,3,0,13,1,0
13095,1215.559157,4,3,0,13,1,0
13115,1215.559157,4,3,0,13,1,0
13135,1215.559157,4,3,0,13,1,0
13155,1215.559157,4,3,0,13,1,0
13175,1215.559157,4,3,0,13,1,0
13195,1215.559157,4,3,0,13,1,0
13215,1215.559157,4,3,0,13,1,0
13235,1215.559157,4,3,0,13,1,0
13255,1215.559157,4,3,0,13,1,0
13267,0.08608704261,4,3,0,13,1,0
13268,607.7795786,4,3,0,13,1,0
13288,607.7795786,4,3,0,13,1,0
13308,607.7795786,4,3,0,13,1,0
13328,607.7795786,4,3,0,13,1,0
13348,607.7795786,4,3,0,13,1,0
13368,607.7795786,4,3,0,13,1,0
13388,607.7795786,4,3,0,13,1,0
13408,607.7795786,4,3,0,13,1,0
13428,607.7795786,4,3,0,13,1,0
13441,0.08608704261,4,3,0,13,1,0
13442,303.8897893,4,3,0,13,1,0
13462,303.8897893,4,3,0,13,1,0
13482,303.8897893,4,3,0,13,1,0
13502,303.8897893,4,3,0,13,1,0
13522,303.8897893,4,3,0,13,1,0
13542,303.8897893,4,3,0,13,1,0
13562,303.8897893,4,3,0,13,1,0
13582,303.8897893,4,3,0,13,1,0
13602,303.8897893,4,3,0,13,1,0
13614,0.08608704261,4,3,0,13,1,0
13615,151.9448947,4,3,0,13,1,0
13635,151.9448947,4,3,0,13,1,0
13655,151.9448947,4,3,0,13,1,0
13675,151.9448947,4,3,0,13,1,0
13695,151.9448947,4,3,0,13,1,0
13715,151.9448947,4,3,0,13,1,0
13735,151.9448947,4,3,0,13,1,0
13755,151.9448947,4,3,0,13,1,0
13775,151.9448947,4,3,0,13,1,0
13787,0.08608704261,4,3,0,13,1,0
13788,75.97244733,4,3,0,13,1,0
13808,75.97244733,4,3,0,13,1,0
13828,75.97244733,4,3,0,13,1,0
13848,75.97244733,4,3,0,13,1,0
13868,75.97244733,4,3,0,13,1,0
13888,75.97244733,4,3,0,13,1,0
13908,75.97244733,4,3,0,13,1,0
13928,75.97244733,4,3,0,13,1,0
13948,75.97244733,4,3,0,13,1,0
13961,0.08608704261,4,3,0,13,1,0
13962,999999999,4,3,0,13,1,0
13970.5,6.288594055,4,3,0,13,1,0
13971.5,6,4,3,0,13,1,0
13972.6,6,4,3,0,13,1,0
13973.7,6,4,3,0,13,1,0
13974.8,6,4,3,0,13,1,0
13975.9,0.0860870426087817,4,3,0,13,1,0
13977,999999999,4,3,0,13,1,0
13985.5,6.256608708,4,3,0,13,1,0
13986.5,6,4,3,0,13,1,0
13987.6,6,4,3,0,13,1,0
13988.7,6,4,3,0,13,1,0
13989.8,6,4,3,0,13,1,0
13990.9,0.0860870426087817,4,3,0,13,1,0
13992,999999999,4,3,0,13,1,0
14000.5,5.94325661,4,3,0,13,1,0
14001.5,6,4,3,0,13,1,0
14002.6,6,4,3,0,13,1,0
14003.7,6,4,3,0,13,1,0
14004.8,6,4,3,0,13,1,0
14005.9,0.0860870426087817,4,3,0,13,1,0
14007,999999999,4,3,0,13,1,0
14015.5,5.513472417,4,3,0,13,1,0
14016.5,6,4,3,0,13,1,0
14017.6,6,4,3,0,13,1,0
14018.7,6,4,3,0,13,1,0
14019.8,6,4,3,0,13,1,0
14020.9,0.0860870426087817,4,3,0,13,1,0
14022,999999999,4,3,0,13,1,0
14030.5,5.129324773,4,3,0,13,1,0
14031.5,6,4,3,0,13,1,0
14032.6,6,4,3,0,13,1,0
14033.7,6,4,3,0,13,1,0
14034.8,6,4,3,0,13,1,0
14035.9,0.0860870426087817,4,3,0,13,1,0
14037,999999999,4,3,0,13,1,0
14045.5,4.88091203,4,3,0,13,1,0
14046.5,6,4,3,0,13,1,0
14047.6,6,4,3,0,13,1,0
14048.7,6,4,3,0,13,1,0
14049.8,6,4,3,0,13,1,0
14050.9,0.0860870426087817,4,3,0,13,1,0
14052,999999999,4,3,0,13,1,0
14060.5,4.800080904,4,3,0,13,1,0
14061.5,6,4,3,0,13,1,0
14062.6,6,4,3,0,13,1,0
14063.7,6,4,3,0,13,1,0
14064.8,6,4,3,0,13,1,0
14065.9,0.0860870426087817,4,3,0,13,1,0
14067,999999999,4,3,0,13,1,0
14075.5,4.889228226,4,3,0,13,1,0
14076.5,6,4,3,0,13,1,0
14077.6,6,4,3,0,13,1,0
14078.7,6,4,3,0,13,1,0
14079.8,6,4,3,0,13,1,0
14080.9,0.0860870426087817,4,3,0,13,1,0
14082,999999999,4,3,0,13,1,0
14090.5,5.133374874,4,3,0,13,1,0
14091.5,6,4,3,0,13,1,0
14092.6,6,4,3,0,13,1,0
14093.7,6,4,3,0,13,1,0
14094.8,6,4,3,0,13,1,0
14095.9,0.0860870426087817,4,3,0,13,1,0
14097,999999999,4,3,0,13,1,0
14105.5,5.493605622,4,3,0,13,1,0
14106.5,6,4,3,0,13,1,0
14107.6,6,4,3,0,13,1,0
14108.7,6,4,3,0,13,1,0
14109.8,6,4,3,0,13,1,0
14110.9,0.0860870426087817,4,3,0,13,1,0
14112,999999999,4,3,0,13,1,0
14120.5,5.891059106,4,3,0,13,1,0
14121.5,6,4,3,0,13,1,0
14122.6,6,4,3,0,13,1,0
14123.7,6,4,3,0,13,1,0
14124.8,6,4,3,0,13,1,0
14125.9,0.0860870426087817,4,3,0,13,1,0
14127,999999999,4,3,0,13,1,0
14135.5,6.204840834,4,3,0,13,1,0
14136.5,6,4,3,0,13,1,0
14137.6,6,4,3,0,13,1,0
14138.7,6,4,3,0,13,1,0
14139.8,6,4,3,0,13,1,0
14140.9,0.0860870426087817,4,3,0,13,1,0
14142,999999999,4,3,0,13,1,0
14150.5,6.315374595,4,3,0,13,1,0
14151.5,6,4,3,0,13,1,0
14152.6,6,4,3,0,13,1,0
14153.7,6,4,3,0,13,1,0
14154.8,6,4,3,0,13,1,0
14155.9,0.0860870426087817,4,3,0,13,1,0
14157,999999999,4,3,0,13,1,0
14165.5,6.181000135,4,3,0,13,1,0
14166.5,6,4,3,0,13,1,0
14167.6,6,4,3,0,13,1,0
14168.7,6,4,3,0,13,1,0
14169.8,6,4,3,0,13,1,0
14170.9,0.0860870426087817,4,3,0,13,1,0
14172,999999999,4,3,0,13,1,0
14180.5,5.8675473,4,3,0,13,1,0
14181.5,6,4,3,0,13,1,0
14182.6,6,4,3,0,13,1,0
14183.7,6,4,3,0,13,1,0
14184.8,6,4,3,0,13,1,0
14185.9,0.0860870426087817,4,3,0,13,1,0
14187,999999999,4,3,0,13,1,0
14195.5,5.493554796,4,3,0,13,1,0
14196.5,6,4,3,0,13,1,0
14197.6,6,4,3,0,13,1,0
14198.7,6,4,3,0,13,1,0
14199.8,6,4,3,0,13,1,0
14200.9,0.0860870426087817,4,3,0,13,1,0
14202,999999999,4,3,0,13,1,0
14210.5,5.160003141,4,3,0,13,1,0
14211.5,6,4,3,0,13,1,0
14212.6,6,4,3,0,13,1,0
14213.7,6,4,3,0,13,1,0
14214.8,6,4,3,0,13,1,0
14215.9,0.0860870426087817,4,3,0,13,1,0
14217,999999999,4,3,0,13,1,0
14225.5,4.924513521,4,3,0,13,1,0
14226.5,6,4,3,0,13,1,0
14227.6,6,4,3,0,13,1,0
14228.7,6,4,3,0,13,1,0
14229.8,6,4,3,0,13,1,0
14230.9,0.0860870426087817,4,3,0,13,1,0
14232,999999999,4,3,0,13,1,0
14240.5,4.810341665,4,3,0,13,1,0
14241.5,6,4,3,0,13,1,0
14242.6,6,4,3,0,13,1,0
14243.7,6,4,3,0,13,1,0
14244.8,6,4,3,0,13,1,0
14245.9,0.0860870426087817,4,3,0,13,1,0
14247,999999999,4,3,0,13,1,0
14255.5,4.821871211,4,3,0,13,1,0
14256.5,6,4,3,0,13,1,0
14257.6,6,4,3,0,13,1,0
14258.7,6,4,3,0,13,1,0
14259.8,6,4,3,0,13,1,0
14260.9,0.0860870426087817,4,3,0,13,1,0
14262,999999999,4,3,0,13,1,0
14270.5,4.953501684,4,3,0,13,1,0
14271.5,6,4,3,0,13,1,0
14272.6,6,4,3,0,13,1,0
14273.7,6,4,3,0,13,1,0
14274.8,6,4,3,0,13,1,0
14275.9,0.0860870426087817,4,3,0,13,1,0
14277,999999999,4,3,0,13,1,0
14285.5,5.190377137,4,3,0,13,1,0
14286.5,6,4,3,0,13,1,0
14287.6,6,4,3,0,13,1,0
14288.7,6,4,3,0,13,1,0
14289.8,6,4,3,0,13,1,0
14290.9,0.0860870426087817,4,3,0,13,1,0
14292,999999999,4,3,0,13,1,0
14300.5,5.503038684,4,3,0,13,1,0
14301.5,6,4,3,0,13,1,0
14302.6,6,4,3,0,13,1,0
14303.7,6,4,3,0,13,1,0
14304.8,6,4,3,0,13,1,0
14305.9,0.0860870426087817,4,3,0,13,1,0
14307,999999999,4,3,0,13,1,0
14315.5,5.84043973,4,3,0,13,1,0
14316.5,6,4,3,0,13,1,0
14317.6,6,4,3,0,13,1,0
14318.7,6,4,3,0,13,1,0
14319.8,6,4,3,0,13,1,0
14320.9,0.0860870426087817,4,3,0,13,1,0
14322,999999999,4,3,0,13,1,0
14330.5,6.130113575,4,3,0,13,1,0
14331.5,6,4,3,0,13,1,0
14332.6,6,4,3,0,13,1,0
14333.7,6,4,3,0,13,1,0
14334.8,6,4,3,0,13,1,0
14335.9,0.0860870426087817,4,3,0,13,1,0
14337,999999999,4,3,0,13,1,0
14345.5,6.295880703,4,3,0,13,1,0
14346.5,6,4,3,0,13,1,0
14347.6,6,4,3,0,13,1,0
14348.7,6,4,3,0,13,1,0
14349.8,6,4,3,0,13,1,0
14350.9,0.0860870426087817,4,3,0,13,1,0
14352,999999999,4,3,0,13,1,0
14360.5,6.291205581,4,3,0,13,1,0
14361.5,6,4,3,0,13,1,0
14362.6,6,4,3,0,13,1,0
14363.7,6,4,3,0,13,1,0
14364.8,6,4,3,0,13,1,0
14365.9,0.0860870426087817,4,3,0,13,1,0
14367,999999999,4,3,0,13,1,0
14375.5,6.124124066,4,3,0,13,1,0
14376.5,6,4,3,0,13,1,0
14377.6,6,4,3,0,13,1,0
14378.7,6,4,3,0,13,1,0
14379.8,6,4,3,0,13,1,0
14380.9,0.0860870426087817,4,3,0,13,1,0
14382,999999999,4,3,0,13,1,0
14390.5,5.84987204,4,3,0,13,1,0
14391.5,6,4,3,0,13,1,0
14392.6,6,4,3,0,13,1,0
14393.7,6,4,3,0,13,1,0
14394.8,6,4,3,0,13,1,0
14395.9,0.0860870426087817,4,3,0,13,1,0
14397,999999999,4,3,0,13,1,0
14405.5,5.539324636,4,3,0,13,1,0
14406.5,6,4,3,0,13,1,0
14407.6,6,4,3,0,13,1,0
14408.7,6,4,3,0,13,1,0
14409.8,6,4,3,0,13,1,0
14410.9,0.0860870426087817,4,3,0,13,1,0
14412,999999999,4,3,0,13,1,0
14420.5,5.251264643,4,3,0,13,1,0
14421.5,6,4,3,0,13,1,0
14422.6,6,4,3,0,13,1,0
14423.7,6,4,3,0,13,1,0
14424.8,6,4,3,0,13,1,0
14425.9,0.0860870426087817,4,3,0,13,1,0
14427,999999999,4,3,0,13,1,0
14435.5,5.022571103,4,3,0,13,1,0
14436.5,6,4,3,0,13,1,0
14437.6,6,4,3,0,13,1,0
14438.7,6,4,3,0,13,1,0
14439.8,6,4,3,0,13,1,0
14440.9,0.0860870426087817,4,3,0,13,1,0
14442,999999999,4,3,0,13,1,0
14450.5,4.871369989,4,3,0,13,1,0
14451.5,6,4,3,0,13,1,0
14452.6,6,4,3,0,13,1,0
14453.7,6,4,3,0,13,1,0
14454.8,6,4,3,0,13,1,0
14455.9,0.0860870426087817,4,3,0,13,1,0
14457,999999999,4,3,0,13,1,0
14465.5,4.803867977,4,3,0,13,1,0
14466.5,6,4,3,0,13,1,0
14467.6,6,4,3,0,13,1,0
14468.7,6,4,3,0,13,1,0
14469.8,6,4,3,0,13,1,0
14470.9,0.0860870426087817,4,3,0,13,1,0
14472,999999999,4,3,0,13,1,0
14480.5,4.819729897,4,3,0,13,1,0
14481.5,6,4,3,0,13,1,0
14482.6,6,4,3,0,13,1,0
14483.7,6,4,3,0,13,1,0
14484.8,6,4,3,0,13,1,0
14485.9,0.0860870426087817,4,3,0,13,1,0
14487,999999999,4,3,0,13,1,0
14495.5,4.914715678,4,3,0,13,1,0
14496.5,6,4,3,0,13,1,0
14497.6,6,4,3,0,13,1,0
14498.7,6,4,3,0,13,1,0
14499.8,6,4,3,0,13,1,0
14500.9,0.0860870426087817,4,3,0,13,1,0
14502,999999999,4,3,0,13,1,0
14510.5,5.080880553,4,3,0,13,1,0
14511.5,6,4,3,0,13,1,0
14512.6,6,4,3,0,13,1,0
14513.7,6,4,3,0,13,1,0
14514.8,6,4,3,0,13,1,0
14515.9,0.0860870426087817,4,3,0,13,1,0
14517,999999999,4,3,0,13,1,0
14525.5,5.305028221,4,3,0,13,1,0
14526.5,6,4,3,0,13,1,0
14527.6,6,4,3,0,13,1,0
14528.7,6,4,3,0,13,1,0
14529.8,6,4,3,0,13,1,0
14530.9,0.0860870426087817,4,3,0,13,1,0
14532,999999999,4,3,0,13,1,0
14540.5,5.566376996,4,3,0,13,1,0
14541.5,6,4,3,0,13,1,0
14542.6,6,4,3,0,13,1,0
14543.7,6,4,3,0,13,1,0
14544.8,6,4,3,0,13,1,0
14545.9,0.0860870426087817,4,3,0,13,1,0
14547,999999999,4,3,0,13,1,0
14555.5,5.83501897,4,3,0,13,1,0
14556.5,6,4,3,0,13,1,0
14557.6,6,4,3,0,13,1,0
14558.7,6,4,3,0,13,1,0
14559.8,6,4,3,0,13,1,0
14560.9,0.0860870426087817,4,3,0,13,1,0
14562,999999999,4,3,0,13,1,0
14570.5,6.073443149,4,3,0,13,1,0
14571.5,6,4,3,0,13,1,0
14572.6,6,4,3,0,13,1,0
14573.7,6,4,3,0,13,1,0
14574.8,6,4,3,0,13,1,0
14575.9,0.0860870426087817,4,3,0,13,1,0
14577,999999999,4,3,0,13,1,0
14585.5,6.242998386,4,3,0,13,1,0
14586.5,6,4,3,0,13,1,0
14587.6,6,4,3,0,13,1,0
14588.7,6,4,3,0,13,1,0
14589.8,6,4,3,0,13,1,0
14590.9,0.0860870426087817,4,3,0,13,1,0
14592,999999999,4,3,0,13,1,0
14600.5,6.314451503,4,3,0,13,1,0
14601.5,6,4,3,0,13,1,0
14602.6,6,4,3,0,13,1,0
14603.7,6,4,3,0,13,1,0
14604.8,6,4,3,0,13,1,0
14605.9,0.0860870426087817,4,3,0,13,1,0
14607,999999999,4,3,0,13,1,0
14615.5,6.277761216,4,3,0,13,1,0
14616.5,6,4,3,0,13,1,0
14617.6,6,4,3,0,13,1,0
14618.7,6,4,3,0,13,1,0
14619.8,6,4,3,0,13,1,0
14620.9,0.0860870426087817,4,3,0,13,1,0
14622,999999999,4,3,0,13,1,0
14630.5,6.144972691,4,3,0,13,1,0
14631.5,6,4,3,0,13,1,0
14632.6,6,4,3,0,13,1,0
14633.7,6,4,3,0,13,1,0
14634.8,6,4,3,0,13,1,0
14635.9,0.0860870426087817,4,3,0,13,1,0
14637,999999999,4,3,0,13,1,0
14645.5,5.944391684,4,3,0,13,1,0
14646.5,6,4,3,0,13,1,0
14647.6,6,4,3,0,13,1,0
14648.7,6,4,3,0,13,1,0
14649.8,6,4,3,0,13,1,0
14650.9,0.0860870426087817,4,3,0,13,1,0
14652,999999999,4,3,0,13,1,0
14660.5,5.71017955,4,3,0,13,1,0
14661.5,6,4,3,0,13,1,0
14662.6,6,4,3,0,13,1,0
14663.7,6,4,3,0,13,1,0
14664.8,6,4,3,0,13,1,0
14665.9,0.0860870426087817,4,3,0,13,1,0
14667,999999999,4,3,0,13,1,0
14675.5,5.473309047,4,3,0,13,1,0
14676.5,6,4,3,0,13,1,0
14677.6,6,4,3,0,13,1,0
14678.7,6,4,3,0,13,1,0
14679.8,6,4,3,0,13,1,0
14680.9,0.0860870426087817,4,3,0,13,1,0
14682,999999999,4,3,0,13,1,0
14690.5,5.256966696,4,3,0,13,1,0
14691.5,6,4,3,0,13,1,0
14692.6,6,4,3,0,13,1,0
14693.7,6,4,3,0,13,1,0
14694.8,6,4,3,0,13,1,0
14695.9,0.0860870426087817,4,3,0,13,1,0
14697,999999999,4,3,0,13,1,0
14705.5,5.075989445,4,3,0,13,1,0
14706.5,6,4,3,0,13,1,0
14707.6,6,4,3,0,13,1,0
14708.7,6,4,3,0,13,1,0
14709.8,6,4,3,0,13,1,0
14710.9,0.0860870426087817,4,3,0,13,1,0
14712,999999999,4,3,0,13,1,0
14720.5,4.938446583,4,3,0,13,1,0
14721.5,6,4,3,0,13,1,0
14722.6,6,4,3,0,13,1,0
14723.7,6,4,3,0,13,1,0
14724.8,6,4,3,0,13,1,0
14725.9,0.0860870426087817,4,3,0,13,1,0
14727,999999999,4,3,0,13,1,0
14735.5,4.847738744,4,3,0,13,1,0
14736.5,6,4,3,0,13,1,0
14737.6,6,4,3,0,13,1,0
14738.7,6,4,3,0,13,1,0
14739.8,6,4,3,0,13,1,0
14740.9,0.0860870426087817,4,3,0,13,1,0
14742,999999999,4,3,0,13,1,0
14750.5,4.804363523,4,3,0,13,1,0
14751.5,6,4,3,0,13,1,0
14752.6,6,4,3,0,13,1,0
14753.7,6,4,3,0,13,1,0
14754.8,6,4,3,0,13,1,0
14755.9,0.0860870426087817,4,3,0,13,1,0
14757,999999999,4,3,0,13,1,0
14765.5,4.807089631,4,3,0,13,1,0
14766.5,6,4,3,0,13,1,0
14767.6,6,4,3,0,13,1,0
14768.7,6,4,3,0,13,1,0
14769.8,6,4,3,0,13,1,0
14770.9,0.0860870426087817,4,3,0,13,1,0
14772,999999999,4,3,0,13,1,0
14780.5,4.853569634,4,3,0,13,1,0
14781.5,6,4,3,0,13,1,0
14782.6,6,4,3,0,13,1,0
14783.7,6,4,3,0,13,1,0
14784.8,6,4,3,0,13,1,0
14785.9,0.0860870426087817,4,3,0,13,1,0
14787,999999999,4,3,0,13,1,0
14795.5,4.940511749,4,3,0,13,1,0
14796.5,6,4,3,0,13,1,0
14797.6,6,4,3,0,13,1,0
14798.7,6,4,3,0,13,1,0
14799.8,6,4,3,0,13,1,0
14800.9,0.0860870426087817,4,3,0,13,1,0
14802,999999999,4,3,0,13,1,0
14810.5,5.06353971,4,3,0,13,1,0
14811.5,6,4,3,0,13,1,0
14812.6,6,4,3,0,13,1,0
14813.7,6,4,3,0,13,1,0
14814.8,6,4,3,0,13,1,0
14815.9,0.0860870426087817,4,3,0,13,1,0
14817,999999999,4,3,0,13,1,0
14825.5,5.216865318,4,3,0,13,1,0
14826.5,6,4,3,0,13,1,0
14827.6,6,4,3,0,13,1,0
14828.7,6,4,3,0,13,1,0
14829.8,6,4,3,0,13,1,0
14830.9,0.0860870426087817,4,3,0,13,1,0
14832,999999999,4,3,0,13,1,0
14840.5,5.39291045,4,3,0,13,1,0
14841.5,6,4,3,0,13,1,0
14842.6,6,4,3,0,13,1,0
14843.7,6,4,3,0,13,1,0
14844.8,6,4,3,0,13,1,0
14845.9,0.0860870426087817,4,3,0,13,1,0
14847,999999999,4,3,0,13,1,0
14855.5,5.582046657,4,3,0,13,1,0
14856.5,6,4,3,0,13,1,0
14857.6,6,4,3,0,13,1,0
14858.7,6,4,3,0,13,1,0
14859.8,6,4,3,0,13,1,0
14860.9,0.0860870426087817,4,3,0,13,1,0
14862,999999999,4,3,0,13,1,0
14870.5,5.772650859,4,3,0,13,1,0
14871.5,6,4,3,0,13,1,0
14872.6,6,4,3,0,13,1,0
14873.7,6,4,3,0,13,1,0
14874.8,6,4,3,0,13,1,0
14875.9,0.0860870426087817,4,3,0,13,1,0
14877,999999999,4,3,0,13,1,0
14885.5,5.951665093,4,3,0,13,1,0
14886.5,6,4,3,0,13,1,0
14887.6,6,4,3,0,13,1,0
14888.7,6,4,3,0,13,1,0
14889.8,6,4,3,0,13,1,0
14890.9,0.0860870426087817,4,3,0,13,1,0
14892,999999999,4,3,0,13,1,0
14900.5,6.105750634,4,3,0,13,1,0
14901.5,6,4,3,0,13,1,0
14902.6,6,4,3,0,13,1,0
14903.7,6,4,3,0,13,1,0
14904.8,6,4,3,0,13,1,0
14905.9,0.0860870426087817,4,3,0,13,1,0
14907,999999999,4,3,0,13,1,0
14915.5,6.222926554,4,3,0,13,1,0
14916.5,6,4,3,0,13,1,0
14917.6,6,4,3,0,13,1,0
14918.7,6,4,3,0,13,1,0
14919.8,6,4,3,0,13,1,0
14920.9,0.0860870426087817,4,3,0,13,1,0
14922,999999999,4,3,0,13,1,0
14930.5,6.29433712,4,3,0,13,1,0
14931.5,6,4,3,0,13,1,0
14932.6,6,4,3,0,13,1,0
14933.7,6,4,3,0,13,1,0
14934.8,6,4,3,0,13,1,0
14935.9,0.0860870426087817,4,3,0,13,1,0
14937,999999999,4,3,0,13,1,0
14945.5,6.31563387,4,3,0,13,1,0
14946.5,6,4,3,0,13,1,0
14947.6,6,4,3,0,13,1,0
14948.7,6,4,3,0,13,1,0
14949.8,6,4,3,0,13,1,0
14950.9,0.0860870426087817,4,3,0,13,1,0
14952,999999999,4,3,0,13,1,0
14960.5,6.287517116,4,3,0,13,1,0
14961.5,6,4,3,0,13,1,0
14962.6,6,4,3,0,13,1,0
14963.7,6,4,3,0,13,1,0
14964.8,6,4,3,0,13,1,0
14965.9,0.0860870426087817,4,3,0,13,1,0
14967,999999999,4,3,0,13,1,0
14975.5,6.215268789,4,3,0,13,1,0
14976.5,6,4,3,0,13,1,0
14977.6,6,4,3,0,13,1,0
14978.7,6,4,3,0,13,1,0
14979.8,6,4,3,0,13,1,0
14980.9,0.0860870426087817,4,3,0,13,1,0
14982,999999999,4,3,0,13,1,0
14990.5,6.107476746,4,3,0,13,1,0
14991.5,6,4,3,0,13,1,0
14992.6,6,4,3,0,13,1,0
14993.7,6,4,3,0,13,1,0
14994.8,6,4,3,0,13,1,0
14995.9,0.0860870426087817,4,3,0,13,1,0
14997,999999999,4,3,0,13,1,0
15005.5,5.974396862,4,3,0,13,1,0
15006.5,6,4,3,0,13,1,0
15007.6,6,4,3,0,13,1,0
15008.7,6,4,3,0,13,1,0
15009.8,6,4,3,0,13,1,0
15010.9,0.0860870426087817,4,3,0,13,1,0
15012,999999999,4,3,0,13,1,0
15020.5,5.826418055,4,3,0,13,1,0
15021.5,6,4,3,0,13,1,0
15022.6,6,4,3,0,13,1,0
15023.7,6,4,3,0,13,1,0
15024.8,6,4,3,0,13,1,0
15025.9,0.0860870426087817,4,3,0,13,1,0
15027,999999999,4,3,0,13,1,0
15035.5,5.672934504,4,3,0,13,1,0
15036.5,6,4,3,0,13,1,0
15037.6,6,4,3,0,13,1,0
15038.7,6,4,3,0,13,1,0
15039.8,6,4,3,0,13,1,0
15040.9,0.0860870426087817,4,3,0,13,1,0
15042,999999999,4,3,0,13,1,0
15050.5,5.52171706,4,3,0,13,1,0
15051.5,6,4,3,0,13,1,0
15052.6,6,4,3,0,13,1,0
15053.7,6,4,3,0,13,1,0
15054.8,6,4,3,0,13,1,0
15055.9,0.0860870426087817,4,3,0,13,1,0
15057,999999999,4,3,0,13,1,0
15065.5,5.378716826,4,3,0,13,1,0
15066.5,6,4,3,0,13,1,0
15067.6,6,4,3,0,13,1,0
15068.7,6,4,3,0,13,1,0
15069.8,6,4,3,0,13,1,0
15070.9,0.0860870426087817,4,3,0,13,1,0
15072,999999999,4,3,0,13,1,0
15080.5,5.248163184,4,3,0,13,1,0
15081.5,6,4,3,0,13,1,0
15082.6,6,4,3,0,13,1,0
15083.7,6,4,3,0,13,1,0
15084.8,6,4,3,0,13,1,0
15085.9,0.0860870426087817,4,3,0,13,1,0
15087,999999999,4,3,0,13,1,0
15095.5,5.13281772,4,3,0,13,1,0
15096.5,6,4,3,0,13,1,0
15097.6,6,4,3,0,13,1,0
15098.7,6,4,3,0,13,1,0
15099.8,6,4,3,0,13,1,0
15100.9,0.0860870426087817,4,3,0,13,1,0
15102,999999999,4,3,0,13,1,0
15110.5,5.034279317,4,3,0,13,1,0
15111.5,6,4,3,0,13,1,0
15112.6,6,4,3,0,13,1,0
15113.7,6,4,3,0,13,1,0
15114.8,6,4,3,0,13,1,0
15115.9,0.0860870426087817,4,3,0,13,1,0
15117,999999999,4,3,0,13,1,0
15125.5,4.953276237,4,3,0,13,1,0
15126.5,6,4,3,0,13,1,0
15127.6,6,4,3,0,13,1,0
15128.7,6,4,3,0,13,1,0
15129.8,6,4,3,0,13,1,0
15130.9,0.0860870426087817,4,3,0,13,1,0
15132,999999999,4,3,0,13,1,0
15140.5,4.889913989,4,3,0,13,1,0
15141.5,6,4,3,0,13,1,0
15142.6,6,4,3,0,13,1,0
15143.7,6,4,3,0,13,1,0
15144.8,6,4,3,0,13,1,0
15145.9,0.0860870426087817,4,3,0,13,1,0
15147,999999999,4,3,0,13,1,0
15155.5,4.843869549,4,3,0,13,1,0
15156.5,6,4,3,0,13,1,0
15157.6,6,4,3,0,13,1,0
15158.7,6,4,3,0,13,1,0
15159.8,6,4,3,0,13,1,0
15160.9,0.0860870426087817,4,3,0,13,1,0
15162,999999999,4,3,0,13,1,0
15170.5,4.814534438,4,3,0,13,1,0
15171.5,6,4,3,0,13,1,0
15172.6,6,4,3,0,13,1,0
15173.7,6,4,3,0,13,1,0
15174.8,6,4,3,0,13,1,0
15175.9,0.0860870426087817,4,3,0,13,1,0
15177,999999999,4,3,0,13,1,0
15185.5,4.801114477,4,3,0,13,1,0
15186.5,6,4,3,0,13,1,0
15187.6,6,4,3,0,13,1,0
15188.7,6,4,3,0,13,1,0
15189.8,6,4,3,0,13,1,0
15190.9,0.0860870426087817,4,3,0,13,1,0
15192,999999999,4,3,0,13,1,0
15200.5,4.80269545,4,3,0,13,1,0
15201.5,6,4,3,0,13,1,0
15202.6,6,4,3,0,13,1,0
15203.7,6,4,3,0,13,1,0
15204.8,6,4,3,0,13,1,0
15205.9,0.0860870426087817,4,3,0,13,1,0
15207,999999999,4,3,0,13,1,0
15215.5,4.818283337,4,3,0,13,1,0
15216.5,6,4,3,0,13,1,0
15217.6,6,4,3,0,13,1,0
15218.7,6,4,3,0,13,1,0
15219.8,6,4,3,0,13,1,0
15220.9,0.0860870426087817,4,3,0,13,1,0
15222,999999999,4,3,0,13,1,0
15230.5,4.846826505,4,3,0,13,1,0
15231.5,6,4,3,0,13,1,0
15232.6,6,4,3,0,13,1,0
15233.7,6,4,3,0,13,1,0
15234.8,6,4,3,0,13,1,0
15235.9,0.0860870426087817,4,3,0,13,1,0
15237,999999999,4,3,0,13,1,0
15245.5,4.887225844,4,3,0,13,1,0
15246.5,6,4,3,0,13,1,0
15247.6,6,4,3,0,13,1,0
15248.7,6,4,3,0,13,1,0
15249.8,6,4,3,0,13,1,0
15250.9,0.0860870426087817,4,3,0,13,1,0
15252,999999999,4,3,0,13,1,0
15260.5,4.938337541,4,3,0,13,1,0
15261.5,6,4,3,0,13,1,0
15262.6,6,4,3,0,13,1,0
15263.7,6,4,3,0,13,1,0
15264.8,6,4,3,0,13,1,0
15265.9,0.0860870426087817,4,3,0,13,1,0
15267,999999999,4,3,0,13,1,0
15275.5,4.998972181,4,3,0,13,1,0
15276.5,6,4,3,0,13,1,0
15277.6,6,4,3,0,13,1,0
15278.7,6,4,3,0,13,1,0
15279.8,6,4,3,0,13,1,0
15280.9,0.0860870426087817,4,3,0,13,1,0
15282,999999999,4,3,0,13,1,0
15290.5,5.06789304,4,3,0,13,1,0
15291.5,6,4,3,0,13,1,0
15292.6,6,4,3,0,13,1,0
15293.7,6,4,3,0,13,1,0
15294.8,6,4,3,0,13,1,0
15295.9,0.0860870426087817,4,3,0,13,1,0
15297,999999999,4,3,0,13,1,0
15305.5,5.143815775,4,3,0,13,1,0
15306.5,6,4,3,0,13,1,0
15307.6,6,4,3,0,13,1,0
15308.7,6,4,3,0,13,1,0
15309.8,6,4,3,0,13,1,0
15310.9,0.0860870426087817,4,3,0,13,1,0
15312,999999999,4,3,0,13,1,0
15320.5,5.225411184,4,3,0,13,1,0
15321.5,6,4,3,0,13,1,0
15322.6,6,4,3,0,13,1,0
15323.7,6,4,3,0,13,1,0
15324.8,6,4,3,0,13,1,0
15325.9,0.0860870426087817,4,3,0,13,1,0
15327,999999999,4,3,0,13,1,0
15335.5,5.311312172,4,3,0,13,1,0
15336.5,6,4,3,0,13,1,0
15337.6,6,4,3,0,13,1,0
15338.7,6,4,3,0,13,1,0
15339.8,6,4,3,0,13,1,0
15340.9,0.0860870426087817,4,3,0,13,1,0
15342,999999999,4,3,0,13,1,0
15350.5,5.400125581,4,3,0,13,1,0
15351.5,6,4,3,0,13,1,0
15352.6,6,4,3,0,13,1,0
15353.7,6,4,3,0,13,1,0
15354.8,6,4,3,0,13,1,0
15355.9,0.0860870426087817,4,3,0,13,1,0
15357,999999999,4,3,0,13,1,0
15365.5,5.490449008,4,3,0,13,1,0
15366.5,6,4,3,0,13,1,0
15367.6,6,4,3,0,13,1,0
15368.7,6,4,3,0,13,1,0
15369.8,6,4,3,0,13,1,0
15370.9,0.0860870426087817,4,3,0,13,1,0
15372,999999999,4,3,0,13,1,0
15380.5,5.580892217,4,3,0,13,1,0
15381.5,6,4,3,0,13,1,0
15382.6,6,4,3,0,13,1,0
15383.7,6,4,3,0,13,1,0
15384.8,6,4,3,0,13,1,0
15385.9,0.0860870426087817,4,3,0,13,1,0
15387,999999999,4,3,0,13,1,0
15395.5,5.67010222,4,3,0,13,1,0
15396.5,6,4,3,0,13,1,0
15397.6,6,4,3,0,13,1,0
15398.7,6,4,3,0,13,1,0
15399.8,6,4,3,0,13,1,0
15400.9,0.0860870426087817,4,3,0,13,1,0
15402,999999999,4,3,0,13,1,0
15410.5,5.756790687,4,3,0,13,1,0
15411.5,6,4,3,0,13,1,0
15412.6,6,4,3,0,13,1,0
15413.7,6,4,3,0,13,1,0
15414.8,6,4,3,0,13,1,0
15415.9,0.0860870426087817,4,3,0,13,1,0
15417,999999999,4,3,0,13,1,0
15425.5,5.839761964,4,3,0,13,1,0
15426.5,6,4,3,0,13,1,0
15427.6,6,4,3,0,13,1,0
15428.7,6,4,3,0,13,1,0
15429.8,6,4,3,0,13,1,0
15430.9,0.0860870426087817,4,3,0,13,1,0
15432,999999999,4,3,0,13,1,0
15440.5,5.917939828,4,3,0,13,1,0
15441.5,6,4,3,0,13,1,0
15442.6,6,4,3,0,13,1,0
15443.7,6,4,3,0,13,1,0
15444.8,6,4,3,0,13,1,0
15445.9,0.0860870426087817,4,3,0,13,1,0
15447,999999999,4,3,0,13,1,0
15455.5,5.990391103,4,3,0,13,1,0
15456.5,6,4,3,0,13,1,0
15457.6,6,4,3,0,13,1,0
15458.7,6,4,3,0,13,1,0
15459.8,6,4,3,0,13,1,0
15460.9,0.0860870426087817,4,3,0,13,1,0
15462,999999999,4,3,0,13,1,0
15470.5,6.056344465,4,3,0,13,1,0
15471.5,6,4,3,0,13,1,0
15472.6,6,4,3,0,13,1,0
15473.7,6,4,3,0,13,1,0
15474.8,6,4,3,0,13,1,0
15475.9,0.0860870426087817,4,3,0,13,1,0
15477,999999999,4,3,0,13,1,0
15485.5,6.115203167,4,3,0,13,1,0
15486.5,6,4,3,0,13,1,0
15487.6,6,4,3,0,13,1,0
15488.7,6,4,3,0,13,1,0
15489.8,6,4,3,0,13,1,0
15490.9,0.0860870426087817,4,3,0,13,1,0
15492,999999999,4,3,0,13,1,0
15500.5,6.166550897,4,3,0,13,1,0
15501.5,6,4,3,0,13,1,0
15502.6,6,4,3,0,13,1,0
15503.7,6,4,3,0,13,1,0
15504.8,6,4,3,0,13,1,0
15505.9,0.0860870426087817,4,3,0,13,1,0
15507,999999999,4,3,0,13,1,0
15515.5,6.210150599,4,3,0,13,1,0
15516.5,6,4,3,0,13,1,0
15517.6,6,4,3,0,13,1,0
15518.7,6,4,3,0,13,1,0
15519.8,6,4,3,0,13,1,0
15520.9,0.0860870426087817,4,3,0,13,1,0
15522,999999999,4,3,0,13,1,0
15530.5,6.245936622,4,3,0,13,1,0
15531.5,6,4,3,0,13,1,0
15532.6,6,4,3,0,13,1,0
15533.7,6,4,3,0,13,1,0
15534.8,6,4,3,0,13,1,0
15535.9,0.0860870426087817,4,3,0,13,1,0
15537,999999999,4,3,0,13,1,0
15545.5,6.274001054,4,3,0,13,1,0
15546.5,6,4,3,0,13,1,0
15547.6,6,4,3,0,13,1,0
15548.7,6,4,3,0,13,1,0
15549.8,6,4,3,0,13,1,0
15550.9,0.0860870426087817,4,3,0,13,1,0
15552,999999999,4,3,0,13,1,0
15560.5,6.294575473,4,3,0,13,1,0
15561.5,6,4,3,0,13,1,0
15562.6,6,4,3,0,13,1,0
15563.7,6,4,3,0,13,1,0
15564.8,6,4,3,0,13,1,0
15565.9,0.0860870426087817,4,3,0,13,1,0
15567,999999999,4,3,0,13,1,0
15575.5,6.30800953,4,3,0,13,1,0
15576.5,6,4,3,0,13,1,0
15577.6,6,4,3,0,13,1,0
15578.7,6,4,3,0,13,1,0
15579.8,6,4,3,0,13,1,0
15580.9,0.0860870426087817,4,3,0,13,1,0
15582,999999999,4,3,0,13,1,0
15590.5,6.314747821,4,3,0,13,1,0
15591.5,6,4,3,0,13,1,0
15592.6,6,4,3,0,13,1,0
15593.7,6,4,3,0,13,1,0
15594.8,6,4,3,0,13,1,0
15595.9,0.0860870426087817,4,3,0,13,1,0
15597,999999999,4,3,0,13,1,0
15605.5,6.315306441,4,3,0,13,1,0
15606.5,6,4,3,0,13,1,0
15607.6,6,4,3,0,13,1,0
15608.7,6,4,3,0,13,1,0
15609.8,6,4,3,0,13,1,0
15610.9,0.0860870426087817,4,3,0,13,1,0
15612,999999999,4,3,0,13,1,0
15620.5,6.310250384,4,3,0,13,1,0
15621.5,6,4,3,0,13,1,0
15622.6,6,4,3,0,13,1,0
15623.7,6,4,3,0,13,1,0
15624.8,6,4,3,0,13,1,0
15625.9,0.0860870426087817,4,3,0,13,1,0
15627,999999999,4,3,0,13,1,0
15635.5,6.300172733,4,3,0,13,1,0
15636.5,6,4,3,0,13,1,0
15637.6,6,4,3,0,13,1,0
15638.7,6,4,3,0,13,1,0
15639.8,6,4,3,0,13,1,0
15640.9,0.0860870426087817,4,3,0,13,1,0
15642,999999999,4,3,0,13,1,0
15650.5,6.285676256,4,3,0,13,1,0
15651.5,6,4,3,0,13,1,0
15652.6,6,4,3,0,13,1,0
15653.7,6,4,3,0,13,1,0
15654.8,6,4,3,0,13,1,0
15655.9,0.0860870426087817,4,3,0,13,1,0
15657,999999999,4,3,0,13,1,0
15665.5,6.26735782,4,3,0,13,1,0
15666.5,6,4,3,0,13,1,0
15667.6,6,4,3,0,13,1,0
15668.7,6,4,3,0,13,1,0
15669.8,6,4,3,0,13,1,0
15670.9,0.0860870426087817,4,3,0,13,1,0
15672,999999999,4,3,0,13,1,0
15680.5,6.245795724,4,3,0,13,1,0
15681.5,6,4,3,0,13,1,0
15682.6,6,4,3,0,13,1,0
15683.7,6,4,3,0,13,1,0
15684.8,6,4,3,0,13,1,0
15685.9,0.0860870426087817,4,3,0,13,1,0
15687,999999999,4,3,0,13,1,0
15695.5,6.221539926,4,3,0,13,1,0
15696.5,6,4,3,0,13,1,0
15697.6,6,4,3,0,13,1,0
15698.7,6,4,3,0,13,1,0
15699.8,6,4,3,0,13,1,0
15700.9,0.0860870426087817,4,3,0,13,1,0
15702,999999999,4,3,0,13,1,0
15710.5,6.195104935,4,3,0,13,1,0
15711.5,6,4,3,0,13,1,0
15712.6,6,4,3,0,13,1,0
15713.7,6,4,3,0,13,1,0
15714.8,6,4,3,0,13,1,0
15715.9,0.0860870426087817,4,3,0,13,1,0
15717,999999999,4,3,0,13,1,0
15725.5,6.166965109,4,3,0,13,1,0
15726.5,6,4,3,0,13,1,0
15727.6,6,4,3,0,13,1,0
15728.7,6,4,3,0,13,1,0
15729.8,6,4,3,0,13,1,0
15730.9,0.0860870426087817,4,3,0,13,1,0
15732,999999999,4,3,0,13,1,0
15740.5,6.13755199,4,3,0,13,1,0
15741.5,6,4,3,0,13,1,0
15742.6,6,4,3,0,13,1,0
15743.7,6,4,3,0,13,1,0
15744.8,6,4,3,0,13,1,0
15745.9,0.0860870426087817,4,3,0,13,1,0
15747,999999999,4,3,0,13,1,0
15755.5,6.107253334,4,3,0,13,1,0
15756.5,6,4,3,0,13,1,0
15757.6,6,4,3,0,13,1,0
15758.7,6,4,3,0,13,1,0
15759.8,6,4,3,0,13,1,0
15760.9,0.0860870426087817,4,3,0,13,1,0
15762,999999999,4,3,0,13,1,0
15770.5,6.076413489,4,3,0,13,1,0
15771.5,6,4,3,0,13,1,0
15772.6,6,4,3,0,13,1,0
15773.7,6,4,3,0,13,1,0
15774.8,6,4,3,0,13,1,0
15775.9,0.0860870426087817,4,3,0,13,1,0
15777,999999999,4,3,0,13,1,0
15785.5,6.045334792,4,3,0,13,1,0
15786.5,6,4,3,0,13,1,0
15787.6,6,4,3,0,13,1,0
15788.7,6,4,3,0,13,1,0
15789.8,6,4,3,0,13,1,0
15790.9,0.0860870426087817,4,3,0,13,1,0
15792,999999999,4,3,0,13,1,0
15800.5,6.014279709,4,3,0,13,1,0
15801.5,6,4,3,0,13,1,0
15802.6,6,4,3,0,13,1,0
15803.7,6,4,3,0,13,1,0
15804.8,6,4,3,0,13,1,0
15805.9,0.0860870426087817,4,3,0,13,1,0
15807,999999999,4,3,0,13,1,0
15815.5,5.983473478,4,3,0,13,1,0
15816.5,6,4,3,0,13,1,0
15817.6,6,4,3,0,13,1,0
15818.7,6,4,3,0,13,1,0
15819.8,6,4,3,0,13,1,0
15820.9,0.0860870426087817,4,3,0,13,1,0
15822,999999999,4,3,0,13,1,0
15830.5,5.95310705,4,3,0,13,1,0
15831.5,6,4,3,0,13,1,0
15832.6,6,4,3,0,13,1,0
15833.7,6,4,3,0,13,1,0
15834.8,6,4,3,0,13,1,0
15835.9,0.0860870426087817,4,3,0,13,1,0
15837,999999999,4,3,0,13,1,0
15845.5,5.923340177,4,3,0,13,1,0
15846.5,6,4,3,0,13,1,0
15847.6,6,4,3,0,13,1,0
15848.7,6,4,3,0,13,1,0
15849.8,6,4,3,0,13,1,0
15850.9,0.0860870426087817,4,3,0,13,1,0
15852,999999999,4,3,0,13,1,0
15860.5,5.894304516,4,3,0,13,1,0
15861.5,6,4,3,0,13,1,0
15862.6,6,4,3,0,13,1,0
15863.7,6,4,3,0,13,1,0
15864.8,6,4,3,0,13,1,0
15865.9,0.0860870426087817,4,3,0,13,1,0
15867,999999999,4,3,0,13,1,0
15875.5,5.866106673,4,3,0,13,1,0
15876.5,6,4,3,0,13,1,0
15877.6,6,4,3,0,13,1,0
15878.7,6,4,3,0,13,1,0
15879.8,6,4,3,0,13,1,0
15880.9,0.0860870426087817,4,3,0,13,1,0
15882,999999999,4,3,0,13,1,0
15890.5,5.838831098,4,3,0,13,1,0
15891.5,6,4,3,0,13,1,0
15892.6,6,4,3,0,13,1,0
15893.7,6,4,3,0,13,1,0
15894.8,6,4,3,0,13,1,0
15895.9,0.0860870426087817,4,3,0,13,1,0
15897,999999999,4,3,0,13,1,0
15905.5,5.812542816,4,3,0,13,1,0
15906.5,6,4,3,0,13,1,0
15907.6,6,4,3,0,13,1,0
15908.7,6,4,3,0,13,1,0
15909.8,6,4,3,0,13,1,0
15910.9,0.0860870426087817,4,3,0,13,1,0
15912,999999999,4,3,0,13,1,0
15920.5,5.787289943,4,3,0,13,1,0
15921.5,6,4,3,0,13,1,0
15922.6,6,4,3,0,13,1,0
15923.7,6,4,3,0,13,1,0
15924.8,6,4,3,0,13,1,0
15925.9,0.0860870426087817,4,3,0,13,1,0
15927,999999999,4,3,0,13,1,0
15935.5,5.763105988,4,3,0,13,1,0
15936.5,6,4,3,0,13,1,0
15937.6,6,4,3,0,13,1,0
15938.7,6,4,3,0,13,1,0
15939.8,6,4,3,0,13,1,0
15940.9,0.0860870426087817,4,3,0,13,1,0
15942,999999999,4,3,0,13,1,0
15950.5,5.740011939,4,3,0,13,1,0
15951.5,6,4,3,0,13,1,0
15952.6,6,4,3,0,13,1,0
15953.7,6,4,3,0,13,1,0
15954.8,6,4,3,0,13,1,0
15955.9,0.0860870426087817,4,3,0,13,1,0
15957,999999999,4,3,0,13,1,0
15965.5,5.718018124,4,3,0,13,1,0
15966.5,6,4,3,0,13,1,0
15967.6,6,4,3,0,13,1,0
15968.7,6,4,3,0,13,1,0
15969.8,6,4,3,0,13,1,0
15970.9,0.0860870426087817,4,3,0,13,1,0
15972,999999999,4,3,0,13,1,0
15980.5,5.697125866,4,3,0,13,1,0
15981.5,6,4,3,0,13,1,0
15982.6,6,4,3,0,13,1,0
15983.7,6,4,3,0,13,1,0
15984.8,6,4,3,0,13,1,0
15985.9,0.0860870426087817,4,3,0,13,1,0
15987,999999999,4,3,0,13,1,0
15995.5,5.677328949,4,3,0,13,1,0
15996.5,6,4,3,0,13,1,0
15997.6,6,4,3,0,13,1,0
15998.7,6,4,3,0,13,1,0
15999.8,6,4,3,0,13,1,0
16000.9,0.0860870426087817,4,3,0,13,1,0
16002,999999999,4,3,0,13,1,0
16010.5,5.658614892,4,3,0,13,1,0
16011.5,6,4,3,0,13,1,0
16012.6,6,4,3,0,13,1,0
16013.7,6,4,3,0,13,1,0
16014.8,6,4,3,0,13,1,0
16015.9,0.0860870426087817,4,3,0,13,1,0
16017,999999999,4,3,0,13,1,0
16025.5,5.640966066,4,3,0,13,1,0
16026.5,6,4,3,0,13,1,0
16027.6,6,4,3,0,13,1,0
16028.7,6,4,3,0,13,1,0
16029.8,6,4,3,0,13,1,0
16030.9,0.0860870426087817,4,3,0,13,1,0
16032,999999999,4,3,0,13,1,0
16040.5,5.624360653,4,3,0,13,1,0
16041.5,6,4,3,0,13,1,0
16042.6,6,4,3,0,13,1,0
16043.7,6,4,3,0,13,1,0
16044.8,6,4,3,0,13,1,0
16045.9,0.0860870426087817,4,3,0,13,1,0
16047,999999999,4,3,0,13,1,0
16055.5,5.608773471,4,3,0,13,1,0
16056.5,6,4,3,0,13,1,0
16057.6,6,4,3,0,13,1,0
16058.7,6,4,3,0,13,1,0
16059.8,6,4,3,0,13,1,0
16060.9,0.0860870426087817,4,3,0,13,1,0
16062,999999999,4,3,0,13,1,0
16070.5,5.594176684,4,3,0,13,1,0
16071.5,6,4,3,0,13,1,0
16072.6,6,4,3,0,13,1,0
16073.7,6,4,3,0,13,1,0
16074.8,6,4,3,0,13,1,0
16075.9,0.0860870426087817,4,3,0,13,1,0
16077,999999999,4,3,0,13,1,0
16085.5,5.580540393,4,3,0,13,1,0
16086.5,6,4,3,0,13,1,0
16087.6,6,4,3,0,13,1,0
16088.7,6,4,3,0,13,1,0
16089.8,6,4,3,0,13,1,0
16090.9,0.0860870426087817,4,3,0,13,1,0
16092,999999999,4,3,0,13,1,0
16100.5,5.56783314,4,3,0,13,1,0
16101.5,6,4,3,0,13,1,0
16102.6,6,4,3,0,13,1,0
16103.7,6,4,3,0,13,1,0
16104.8,6,4,3,0,13,1,0
16105.9,0.0860870426087817,4,3,0,13,1,0
16107,999999999,4,3,0,13,1,0
16115.5,5.556022327,4,3,0,13,1,0
16116.5,6,4,3,0,13,1,0
16117.6,6,4,3,0,13,1,0
16118.7,6,4,3,0,13,1,0
16119.8,6,4,3,0,13,1,0
16120.9,0.0860870426087817,4,3,0,13,1,0
16122,999999999,4,3,0,13,1,0
16130.5,5.545074562,4,3,0,13,1,0
16131.5,6,4,3,0,13,1,0
16132.6,6,4,3,0,13,1,0
16133.7,6,4,3,0,13,1,0
16134.8,6,4,3,0,13,1,0
16135.9,0.0860870426087817,4,3,0,13,1,0
16137,999999999,4,3,0,13,1,0
16145.5,5.534955941,4,3,0,13,1,0
16146.5,6,4,3,0,13,1,0
16147.6,6,4,3,0,13,1,0
16148.7,6,4,3,0,13,1,0
16149.8,6,4,3,0,13,1,0
16150.9,0.0860870426087817,4,3,0,13,1,0
16152,999999999,4,3,0,13,1,0
16160.5,5.525632276,4,3,0,13,1,0
16161.5,6,4,3,0,13,1,0
16162.6,6,4,3,0,13,1,0
16163.7,6,4,3,0,13,1,0
16164.8,6,4,3,0,13,1,0
16165.9,0.0860870426087817,4,3,0,13,1,0
16167,999999999,4,3,0,13,1,0
16175.5,5.517069277,4,3,0,13,1,0
16176.5,6,4,3,0,13,1,0
16177.6,6,4,3,0,13,1,0
16178.7,6,4,3,0,13,1,0
16179.8,6,4,3,0,13,1,0
16180.9,0.0860870426087817,4,3,0,13,1,0
16182,999999999,4,3,0,13,1,0
16190.5,5.509232692,4,3,0,13,1,0
16191.5,6,4,3,0,13,1,0
16192.6,6,4,3,0,13,1,0
16193.7,6,4,3,0,13,1,0
16194.8,6,4,3,0,13,1,0
16195.9,0.0860870426087817,4,3,0,13,1,0
16197,999999999,4,3,0,13,1,0
16205.5,5.502088414,4,3,0,13,1,0
16206.5,6,4,3,0,13,1,0
16207.6,6,4,3,0,13,1,0
16208.7,6,4,3,0,13,1,0
16209.8,6,4,3,0,13,1,0
16210.9,0.0860870426087817,4,3,0,13,1,0
16212,999999999,4,3,0,13,1,0
16220.5,5.495602561,4,3,0,13,1,0
16221.5,6,4,3,0,13,1,0
16222.6,6,4,3,0,13,1,0
16223.7,6,4,3,0,13,1,0
16224.8,6,4,3,0,13,1,0
16225.9,0.0860870426087817,4,3,0,13,1,0
16227,999999999,4,3,0,13,1,0
16235.5,5.489741528,4,3,0,13,1,0
16236.5,6,4,3,0,13,1,0
16237.6,6,4,3,0,13,1,0
16238.7,6,4,3,0,13,1,0
16239.8,6,4,3,0,13,1,0
16240.9,0.0860870426087817,4,3,0,13,1,0
16242,999999999,4,3,0,13,1,0
16250.5,5.484472024,4,3,0,13,1,0
16251.5,6,4,3,0,13,1,0
16252.6,6,4,3,0,13,1,0
16253.7,6,4,3,0,13,1,0
16254.8,6,4,3,0,13,1,0
16255.9,0.0860870426087817,4,3,0,13,1,0
16257,999999999,4,3,0,13,1,0
16265.5,5.479761086,4,3,0,13,1,0
16266.5,6,4,3,0,13,1,0
16267.6,6,4,3,0,13,1,0
16268.7,6,4,3,0,13,1,0
16269.8,6,4,3,0,13,1,0
16270.9,0.0860870426087817,4,3,0,13,1,0
16272,999999999,4,3,0,13,1,0
16280.5,5.475576088,4,3,0,13,1,0
16281.5,6,4,3,0,13,1,0
16282.6,6,4,3,0,13,1,0
16283.7,6,4,3,0,13,1,0
16284.8,6,4,3,0,13,1,0
16285.9,0.0860870426087817,4,3,0,13,1,0
16287,999999999,4,3,0,13,1,0
16295.5,5.471884734,4,3,0,13,1,0
16296.5,6,4,3,0,13,1,0
16297.6,6,4,3,0,13,1,0
16298.7,6,4,3,0,13,1,0
16299.8,6,4,3,0,13,1,0
16300.9,0.0860870426087817,4,3,0,13,1,0
16302,999999999,4,3,0,13,1,0
16310.5,5.468655041,4,3,0,13,1,0
16311.5,6,4,3,0,13,1,0
16312.6,6,4,3,0,13,1,0
16313.7,6,4,3,0,13,1,0
16314.8,6,4,3,0,13,1,0
16315.9,0.0860870426087817,4,3,0,13,1,0
16317,999999999,4,3,0,13,1,0
16325.5,5.465855327,4,3,0,13,1,0
16326.5,6,4,3,0,13,1,0
16327.6,6,4,3,0,13,1,0
16328.7,6,4,3,0,13,1,0
16329.8,6,4,3,0,13,1,0
16330.9,0.0860870426087817,4,3,0,13,1,0
16332,999999999,4,3,0,13,1,0
16340.5,5.463454177,4,3,0,13,1,0
16341.5,6,4,3,0,13,1,0
16342.6,6,4,3,0,13,1,0
16343.7,6,4,3,0,13,1,0
16344.8,6,4,3,0,13,1,0
16345.9,0.0860870426087817,4,3,0,13,1,0
16347,999999999,4,3,0,13,1,0
16355.5,5.461420423,4,3,0,13,1,0
16356.5,6,4,3,0,13,1,0
16357.6,6,4,3,0,13,1,0
16358.7,6,4,3,0,13,1,0
16359.8,6,4,3,0,13,1,0
16360.9,0.0860870426087817,4,3,0,13,1,0
16362,999999999,4,3,0,13,1,0
16370.5,5.459723115,4,3,0,13,1,0
16371.5,6,4,3,0,13,1,0
16372.6,6,4,3,0,13,1,0
16373.7,6,4,3,0,13,1,0
16374.8,6,4,3,0,13,1,0
16375.9,0.0860870426087817,4,3,0,13,1,0
16377,999999999,4,3,0,13,1,0
16385.5,5.458331489,4,3,0,13,1,0
16386.5,6,4,3,0,13,1,0
16387.6,6,4,3,0,13,1,0
16388.7,6,4,3,0,13,1,0
16389.8,6,4,3,0,13,1,0
16390.9,0.0860870426087817,4,3,0,13,1,0
16392,999999999,4,3,0,13,1,0
16400.5,5.45721494,4,3,0,13,1,0
16401.5,6,4,3,0,13,1,0
16402.6,6,4,3,0,13,1,0
16403.7,6,4,3,0,13,1,0
16404.8,6,4,3,0,13,1,0
16405.9,0.0860870426087817,4,3,0,13,1,0
16407,999999999,4,3,0,13,1,0
16415.5,5.456342995,4,3,0,13,1,0
16416.5,6,4,3,0,13,1,0
16417.6,6,4,3,0,13,1,0
16418.7,6,4,3,0,13,1,0
16419.8,6,4,3,0,13,1,0
16420.9,0.0860870426087817,4,3,0,13,1,0
16422,999999999,4,3,0,13,1,0
16430.5,5.455685287,4,3,0,13,1,0
16431.5,6,4,3,0,13,1,0
16432.6,6,4,3,0,13,1,0
16433.7,6,4,3,0,13,1,0
16434.8,6,4,3,0,13,1,0
16435.9,0.0860870426087817,4,3,0,13,1,0
16437,999999999,4,3,0,13,1,0
16445.5,5.455211532,4,3,0,13,1,0
16446.5,6,4,3,0,13,1,0
16447.6,6,4,3,0,13,1,0
16448.7,6,4,3,0,13,1,0
16449.8,6,4,3,0,13,1,0
16450.9,0.0860870426087817,4,3,0,13,1,0
16452,999999999,4,3,0,13,1,0
16460.5,5.454891505,4,3,0,13,1,0
16461.5,6,4,3,0,13,1,0
16462.6,6,4,3,0,13,1,0
16463.7,6,4,3,0,13,1,0
16464.8,6,4,3,0,13,1,0
16465.9,0.0860870426087817,4,3,0,13,1,0
16467,999999999,4,3,0,13,1,0
16475.5,5.454695029,4,3,0,13,1,0
16476.5,6,4,3,0,13,1,0
16477.6,6,4,3,0,13,1,0
16478.7,6,4,3,0,13,1,0
16479.8,6,4,3,0,13,1,0
16480.9,0.0860870426087817,4,3,0,13,1,0
16482,999999999,4,3,0,13,1,0
16490.5,5.454591951,4,3,0,13,1,0
16491.5,6,4,3,0,13,1,0
16492.6,6,4,3,0,13,1,0
16493.7,6,4,3,0,13,1,0
16494.8,6,4,3,0,13,1,0
16495.9,0.0860870426087817,4,3,0,13,1,0
16497,999999999,4,3,0,13,1,0
16505.5,5.454552137,4,3,0,13,1,0
16506.5,6,4,3,0,13,1,0
16507.6,6,4,3,0,13,1,0
16508.7,6,4,3,0,13,1,0
16509.8,6,4,3,0,13,1,0
16510.9,0.0860870426087817,4,3,0,13,1,0
16512,999999999,4,3,0,13,1,0
16522,999999999,4,3,0,13,1,0
16662,72,4,3,0,13,1,0
16663.1,72,4,3,0,13,1,0
16664.2,72,4,3,0,13,1,0
16665.3,72,4,3,0,13,1,0
16666.4,72,4,3,0,13,1,0
16667.5,72,4,3,0,13,1,0
16668.6,72,4,3,0,13,1,0
16669.7,72,4,3,0,13,1,0
16670.8,72,4,3,0,13,1,0
16671.9,72,4,3,0,13,1,0
16673,72,4,3,0,13,1,0
16674.1,72,4,3,0,13,1,0
16675.2,72,4,3,0,13,1,0
16676.3,72,4,3,0,13,1,0
16677.4,72,4,3,0,13,1,0
16678.5,72,4,3,0,13,1,0
16679.6,72,4,3,0,13,1,0
16680.7,72,4,3,0,13,1,0
16681.8,72,4,3,0,13,1,0
16682.9,72,4,3,0,13,1,0
16684,72,4,3,0,13,1,0
16685.1,72,4,3,0,13,1,0
16686.2,72,4,3,0,13,1,0
16687.3,72,4,3,0,13,1,0
16688.4,72,4,3,0,13,1,0
16689.5,72,4,3,0,13,1,0
16690.6,72,4,3,0,13,1,0
16691.7,72,4,3,0,13,1,0
16692.8,72,4,3,0,13,1,0
16693.9,72,4,3,0,13,1,0
16695,72,4,3,0,13,1,0
16696.1,72,4,3,0,13,1,0
16697.2,72,4,3,0,13,1,0
16698.3,72,4,3,0,13,1,0
16699.4,72,4,3,0,13,1,0
16700.5,72,4,3,0,13,1,0
16701.6,72,4,3,0,13,1,0
16702.7,72,4,3,0,13,1,0
16703.8,72,4,3,0,13,1,0
16704.9,72,4,3,0,13,1,0
16706,72,4,3,0,13,1,0
16707.1,72,4,3,0,13,1,0
16708.2,72,4,3,0,13,1,0
16709.3,72,4,3,0,13,1,0
16710.4,72,4,3,0,13,1,0
16711.5,72,4,3,0,13,1,0
16712.6,72,4,3,0,13,1,0
16713.7,72,4,3,0,13,1,0
16714.8,72,4,3,0,13,1,0
16715.9,72,4,3,0,13,1,0
16717,72,4,3,0,13,1,0
16718.1,72,4,3,0,13,1,0
16719.2,72,4,3,0,13,1,0
16720.3,72,4,3,0,13,1,0
16721.4,72,4,3,0,13,1,0
16722.5,72,4,3,0,13,1,0
16723.6,72,4,3,0,13,1,0
16724.7,72,4,3,0,13,1,0
16725.8,72,4,3,0,13,1,0
16726.9,72,4,3,0,13,1,0
16728,72,4,3,0,13,1,0
16729.1,72,4,3,0,13,1,0
16730.2,72,4,3,0,13,1,0
16731.3,72,4,3,0,13,1,0
16732.4,72,4,3,0,13,1,0
16733.5,72,4,3,0,13,1,0
16734.6,72,4,3,0,13,1,0
16735.7,72,4,3,0,13,1,0
16736,999999999,4,3,0,13,1,0
16908,0.08608704261,4,3,0,13,1,0
16909,4862.236629,4,3,0,13,1,0
16929,4862.236629,4,3,0,13,1,0
16949,4862.236629,4,3,0,13,1,0
16969,4862.236629,4,3,0,13,1,0
16989,4862.236629,4,3,0,13,1,0
17009,4862.236629,4,3,0,13,1,0
17029,4862.236629,4,3,0,13,1,0
17049,4862.236629,4,3,0,13,1,0
17069,4862.236629,4,3,0,13,1,0
17081,0.08608704261,4,3,0,13,1,0
17082,2431.118314,4,3,0,13,1,0
17102,2431.118314,4,3,0,13,1,0
17122,2431.118314,4,3,0,13,1,0
17142,2431.118314,4,3,0,13,1,0
17162,2431.118314,4,3,0,13,1,0
17182,2431.118314,4,3,0,13,1,0
17202,2431.118314,4,3,0,13,1,0
17222,2431.118314,4,3,0,13,1,0
17242,2431.118314,4,3,0,13,1,0
17255,0.08608704261,4,3,0,13,1,0
17256,1215.559157,4,3,0,13,1,0
17276,1215.559157,4,3,0,13,1,0
17296,1215.559157,4,3,0,13,1,0
17316,1215.559157,4,3,0,13,1,0
17336,1215.559157,4,3,0,13,1,0
17356,1215.559157,4,3,0,13,1,0
17376,1215.559157,4,3,0,13,1,0
17396,1215.559157,4,3,0,13,1,0
17416,1215.559157,4,3,0,13,1,0
17428,0.08608704261,4,3,0,13,1,0
17429,607.7795786,4,3,0,13,1,0
17449,607.7795786,4,3,0,13,1,0
17469,607.7795786,4,3,0,13,1,0
17489,607.7795786,4,3,0,13,1,0
17509,607.7795786,4,3,0,13,1,0
17529,607.7795786,4,3,0,13,1,0
17549,607.7795786,4,3,0,13,1,0
17569,607.7795786,4,3,0,13,1,0
17589,607.7795786,4,3,0,13,1,0
17602,0.08608704261,4,3,0,13,1,0
17603,303.8897893,4,3,0,13,1,0
17623,303.8897893,4,3,0,13,1,0
17643,303.8897893,4,3,0,13,1,0
17663,303.8897893,4,3,0,13,1,0
17683,303.8897893,4,3,0,13,1,0
17703,303.8897893,4,3,0,13,1,0
17723,303.8897893,4,3,0,13,1,0
17743,303.8897893,4,3,0,13,1,0
17763,303.8897893,4,3,0,13,1,0
17775,0.08608704261,4,3,0,13,1,0
17776,151.9448947,4,3,0,13,1,0
17796,151.9448947,4,3,0,13,1,0
17816,151.9448947,4,3,0,13,1,0
17836,151.9448947,4,3,0,13,1,0
17856,151.9448947,4,3,0,13,1,0
17876,151.9448947,4,3,0,13,1,0
17896,151.9448947,4,3,0,13,1,0
17916,151.9448947,4,3,0,13,1,0
17936,151.9448947,4,3,0,13,1,0
17948,0.08608704261,4,3,0,13,1,0
17949,75.97244733,4,3,0,13,1,0
17969,75.97244733,4,3,0,13,1,0
17989,75.97244733,4,3,0,13,1,0
18009,75.97244733,4,3,0,13,1,0
18029,75.97244733,4,3,0,13,1,0
18049,75.97244733,4,3,0,13,1,0
18069,75.97244733,4,3,0,13,1,0
18089,75.97244733,4,3,0,13,1,0
18109,75.97244733,4,3,0,13,1,0
18122,0.08608704261,4,3,0,13,1,0
18123,999999999,4,3,0,13,1,0
18295,0.08608704261,4,3,0,13,1,0
18296,4862.236629,4,3,0,13,1,0
18316,4862.236629,4,3,0,13,1,0
18336,4862.236629,4,3,0,13,1,0
18356,4862.236629,4,3,0,13,1,0
18376,4862.236629,4,3,0,13,1,0
18396,4862.236629,4,3,0,13,1,0
18416,4862.236629,4,3,0,13,1,0
18436,4862.236629,4,3,0,13,1,0
18456,4862.236629,4,3,0,13,1,0
18468,0.08608704261,4,3,0,13,1,0
18469,2431.118314,4,3,0,13,1,0
18489,2431.118314,4,3,0,13,1,0
18509,2431.118314,4,3,0,13,1,0
18529,2431.118314,4,3,0,13,1,0
18549,2431.118314,4,3,0,13,1,0
18569,2431.118314,4,3,0,13,1,0
18589,2431.118314,4,3,0,13,1,0
18609,2431.118314,4,3,0,13,1,0
18629,2431.118314,4,3,0,13,1,0
18642,0.08608704261,4,3,0,13,1,0
18643,1215.559157,4,3,0,13,1,0
18663,1215.559157,4,3,0,13,1,0
18683,1215.559157,4,3,0,13,1,0
18703,1215.559157,4,3,0,13,1,0
18723,1215.559157,4,3,0,13,1,0
18743,1215.559157,4,3,0,13,1,0
18763,1215.559157,4,3,0,13,1,0
18783,1215.559157,4,3,0,13,1,0
18803,1215.559157,4,3,0,13,1,0
18815,0.08608704261,4,3,0,13,1,0
18816,607.7795786,4,3,0,13,1,0
18836,607.7795786,4,3,0,13,1,0
18856,607.7795786,4,3,0,13,1,0
18876,607.7795786,4,3,0,13,1,0
18896,607.7795786,4,3,0,13,1,0
18916,607.7795786,4,3,0,13,1,0
18936,607.7795786,4,3,0,13,1,0
18956,607.7795786,4,3,0,13,1,0
18976,607.7795786,4,3,0,13,1,0
18989,0.08608704261,4,3,0,13,1,0
18990,303.8897893,4,3,0,13,1,0
19010,303.8897893,4,3,0,13,1,0
19030,303.8897893,4,3,0,13,1,0
19050,303.8897893,4,3,0,13,1,0
19070,303.8897893,4,3,0,13,1,0
19090,303.8897893,4,3,0,13,1,0
19110,303.8897893,4,3,0,13,1,0
19130,303.8897893,4,3,0,13,1,0
19150,303.8897893,4,3,0,13,1,0
19162,0.08608704261,4,3,0,13,1,0
19163,151.9448947,4,3,0,13,1,0
19183,151.9448947,4,3,0,13,1,0
19203,151.9448947,4,3,0,13,1,0
19223,151.9448947,4,3,0,13,1,0
19243,151.9448947,4,3,0,13,1,0
19263,151.9448947,4,3,0,13,1,0
19283,151.9448947,4,3,0,13,1,0
19303,151.9448947,4,3,0,13,1,0
19323,151.9448947,4,3,0,13,1,0
19335,0.08608704261,4,3,0,13,1,0
19336,75.97244733,4,3,0,13,1,0
19356,75.97244733,4,3,0,13,1,0
19376,75.97244733,4,3,0,13,1,0
19396,75.97244733,4,3,0,13,1,0
19416,75.97244733,4,3,0,13,1,0
19436,75.97244733,4,3,0,13,1,0
19456,75.97244733,4,3,0,13,1,0
19476,75.97244733,4,3,0,13,1,0
19496,75.97244733,4,3,0,13,1,0
19509,0.08608704261,4,3,0,13,1,0
19510,999999999,4,3,0,13,1,0
19682,0.08608704261,4,3,0,13,1,0
19683,4862.236629,4,3,0,13,1,0
19703,4862.236629,4,3,0,13,1,0
19723,4862.236629,4,3,0,13,1,0
19743,4862.236629,4,3,0,13,1,0
19763,4862.236629,4,3,0,13,1,0
19783,4862.236629,4,3,0,13,1,0
19803,4862.236629,4,3,0,13,1,0
19823,4862.236629,4,3,0,13,1,0
19843,4862.236629,4,3,0,13,1,0
19855,0.08608704261,4,3,0,13,1,0
19856,2431.118314,4,3,0,13,1,0
19876,2431.118314,4,3,0,13,1,0
19896,2431.118314,4,3,0,13,1,0
19916,2431.118314,4,3,0,13,1,0
19936,2431.118314,4,3,0,13,1,0
19956,2431.118314,4,3,0,13,1,0
19976,2431.118314,4,3,0,13,1,0
19996,2431.118314,4,3,0,13,1,0
20016,2431.118314,4,3,0,13,1,0
20029,0.08608704261,4,3,0,13,1,0
20030,1215.559157,4,3,0,13,1,0
20050,1215.559157,4,3,0,13,1,0
20070,1215.559157,4,3,0,13,1,0
20090,1215.559157,4,3,0,13,1,0
20110,1215.559157,4,3,0,13,1,0
20130,1215.559157,4,3,0,13,1,0
20150,1215.559157,4,3,0,13,1,0
20170,1215.559157,4,3,0,13,1,0
20190,1215.559157,4,3,0,13,1,0
20202,0.08608704261,4,3,0,13,1,0
20203,607.7795786,4,3,0,13,1,0
20223,607.7795786,4,3,0,13,1,0
20243,607.7795786,4,3,0,13,1,0
20263,607.7795786,4,3,0,13,1,0
20283,607.7795786,4,3,0,13,1,0
20303,607.7795786,4,3,0,13,1,0
20323,607.7795786,4,3,0,13,1,0
20343,607.7795786,4,3,0,13,1,0
20363,607.7795786,4,3,0,13,1,0
20376,0.08608704261,4,3,0,13,1,0
20377,303.8897893,4,3,0,13,1,0
20397,303.8897893,4,3,0,13,1,0
20417,303.8897893,4,3,0,13,1,0
20437,303.8897893,4,3,0,13,1,0
20457,303.8897893,4,3,0,13,1,0
20477,303.8897893,4,3,0,13,1,0
20497,303.8897893,4,3,0,13,1,0
20517,303.8897893,4,3,0,13,1,0
20537,303.8897893,4,3,0,13,1,0
20549,0.08608704261,4,3,0,13,1,0
20550,151.9448947,4,3,0,13,1,0
20570,151.9448947,4,3,0,13,1,0
20590,151.9448947,4,3,0,13,1,0
20610,151.9448947,4,3,0,13,1,0
20630,151.9448947,4,3,0,13,1,0
20650,151.9448947,4,3,0,13,1,0
20670,151.9448947,4,3,0,13,1,0
20690,151.9448947,4,3,0,13,1,0
20710,151.9448947,4,3,0,13,1,0
20722,0.08608704261,4,3,0,13,1,0
20723,75.97244733,4,3,0,13,1,0
20743,75.97244733,4,3,0,13,1,0
20763,75.97244733,4,3,0,13,1,0
20783,75.97244733,4,3,0,13,1,0
20803,75.97244733,4,3,0,13,1,0
20823,75.97244733,4,3,0,13,1,0
20843,75.97244733,4,3,0,13,1,0
20863,75.97244733,4,3,0,13,1,0
20883,75.97244733,4,3,0,13,1,0
20895,0.08608704261,4,3,0,13,1,0
20896,12,4,3,0,13,1,0
20897,999999999,4,3,0,13,1,0
20906,12.08645533,4,3,0,13,1,0
20907,999999999,4,3,0,13,1,0
20916,12.17416546,4,3,0,13,1,0
20917,999999999,4,3,0,13,1,0
20926,12.26315789,4,3,0,13,1,0
20927,999999999,4,3,0,13,1,0
20936,12.35346097,4,3,0,13,1,0
20937,999999999,4,3,0,13,1,0
20946,12.44510386,4,3,0,13,1,0
20947,999999999,4,3,0,13,1,0
20956,12.53811659,4,3,0,13,1,0
20957,999999999,4,3,0,13,1,0
20966,12.63253012,4,3,0,13,1,0
20967,999999999,4,3,0,13,1,0
20976,12.72837633,4,3,0,13,1,0
20977,999999999,4,3,0,13,1,0
20986,12.82568807,4,3,0,13,1,0
20987,999999999,4,3,0,13,1,0
20996,12.92449923,4,3,0,13,1,0
20997,999999999,4,3,0,13,1,0
21006,13.02484472,4,3,0,13,1,0
21007,999999999,4,3,0,13,1,0
21016,13.12676056,4,3,0,13,1,0
21017,999999999,4,3,0,13,1,0
21026,13.23028391,4,3,0,13,1,0
21027,999999999,4,3,0,13,1,0
21036,13.3354531,4,3,0,13,1,0
21037,999999999,4,3,0,13,1,0
21046,13.44230769,4,3,0,13,1,0
21047,999999999,4,3,0,13,1,0
21056,13.55088853,4,3,0,13,1,0
21057,999999999,4,3,0,13,1,0
21066,13.66123779,4,3,0,13,1,0
21067,999999999,4,3,0,13,1,0
21076,13.77339901,4,3,0,13,1,0
21077,999999999,4,3,0,13,1,0
21086,13.88741722,4,3,0,13,1,0
21087,999999999,4,3,0,13,1,0
21096,14.0033389,4,3,0,13,1,0
21097,999999999,4,3,0,13,1,0
21106,14.12121212,4,3,0,13,1,0
21107,999999999,4,3,0,13,1,0
21116,14.24108659,4,3,0,13,1,0
21117,999999999,4,3,0,13,1,0
21126,14.3630137,4,3,0,13,1,0
21127,999999999,4,3,0,13,1,0
21136,14.48704663,4,3,0,13,1,0
21137,999999999,4,3,0,13,1,0
21146,14.61324042,4,3,0,13,1,0
21147,999999999,4,3,0,13,1,0
21156,14.74165202,4,3,0,13,1,0
21157,999999999,4,3,0,13,1,0
21166,14.87234043,4,3,0,13,1,0
21167,999999999,4,3,0,13,1,0
21176,15.00536673,4,3,0,13,1,0
21177,999999999,4,3,0,13,1,0
21186,15.14079422,4,3,0,13,1,0
21187,999999999,4,3,0,13,1,0
21196,15.27868852,4,3,0,13,1,0
21197,999999999,4,3,0,13,1,0
21206,15.41911765,4,3,0,13,1,0
21207,999999999,4,3,0,13,1,0
21216,15.56215213,4,3,0,13,1,0
21217,999999999,4,3,0,13,1,0
21226,15.70786517,4,3,0,13,1,0
21227,999999999,4,3,0,13,1,0
21236,15.8563327,4,3,0,13,1,0
21237,999999999,4,3,0,13,1,0
21246,16.00763359,4,3,0,13,1,0
21247,999999999,4,3,0,13,1,0
21256,16.16184971,4,3,0,13,1,0
21257,999999999,4,3,0,13,1,0
21266,16.31906615,4,3,0,13,1,0
21267,999999999,4,3,0,13,1,0
21276,16.47937132,4,3,0,13,1,0
21277,999999999,4,3,0,13,1,0
21286,16.64285714,4,3,0,13,1,0
21287,999999999,4,3,0,13,1,0
21296,16.80961924,4,3,0,13,1,0
21297,999999999,4,3,0,13,1,0
21306,16.97975709,4,3,0,13,1,0
21307,999999999,4,3,0,13,1,0
21316,17.15337423,4,3,0,13,1,0
21317,999999999,4,3,0,13,1,0
21326,17.33057851,4,3,0,13,1,0
21327,999999999,4,3,0,13,1,0
21336,17.51148225,4,3,0,13,1,0
21337,999999999,4,3,0,13,1,0
21346,17.69620253,4,3,0,13,1,0
21347,999999999,4,3,0,13,1,0
21356,17.88486141,4,3,0,13,1,0
21357,999999999,4,3,0,13,1,0
21366,18.07758621,4,3,0,13,1,0
21367,999999999,4,3,0,13,1,0
21376,18.2745098,4,3,0,13,1,0
21377,999999999,4,3,0,13,1,0
21386,18.47577093,4,3,0,13,1,0
21387,999999999,4,3,0,13,1,0
21396,18.68151448,4,3,0,13,1,0
21397,999999999,4,3,0,13,1,0
21406,18.89189189,4,3,0,13,1,0
21407,999999999,4,3,0,13,1,0
21416,19.1070615,4,3,0,13,1,0
21417,999999999,4,3,0,13,1,0
21426,19.32718894,4,3,0,13,1,0
21427,999999999,4,3,0,13,1,0
21436,19.55244755,4,3,0,13,1,0
21437,999999999,4,3,0,13,1,0
21446,19.78301887,4,3,0,13,1,0
21447,999999999,4,3,0,13,1,0
21456,20.01909308,4,3,0,13,1,0
21457,999999999,4,3,0,13,1,0
21466,20.26086957,4,3,0,13,1,0
21467,999999999,4,3,0,13,1,0
21476,20.50855746,4,3,0,13,1,0
21477,999999999,4,3,0,13,1,0
21486,20.76237624,4,3,0,13,1,0
21487,999999999,4,3,0,13,1,0
21496,21.02255639,4,3,0,13,1,0
21497,999999999,4,3,0,13,1,0
21506,21.2893401,4,3,0,13,1,0
21507,999999999,4,3,0,13,1,0
21516,21.56298201,4,3,0,13,1,0
21517,999999999,4,3,0,13,1,0
21526,21.84375,4,3,0,13,1,0
21527,999999999,4,3,0,13,1,0
21536,22.13192612,4,3,0,13,1,0
21537,999999999,4,3,0,13,1,0
21546,22.42780749,4,3,0,13,1,0
21547,999999999,4,3,0,13,1,0
21556,22.73170732,4,3,0,13,1,0
21557,999999999,4,3,0,13,1,0
21566,23.04395604,4,3,0,13,1,0
21567,999999999,4,3,0,13,1,0
21576,23.36490251,4,3,0,13,1,0
21577,999999999,4,3,0,13,1,0
21586,23.69491525,4,3,0,13,1,0
21587,999999999,4,3,0,13,1,0
21596,24.03438395,4,3,0,13,1,0
21597,999999999,4,3,0,13,1,0
21606,24.38372093,4,3,0,13,1,0
21607,999999999,4,3,0,13,1,0
21616,24.74336283,4,3,0,13,1,0
21617,999999999,4,3,0,13,1,0
21626,25.11377246,4,3,0,13,1,0
21627,999999999,4,3,0,13,1,0
21636,25.49544073,4,3,0,13,1,0
21637,999999999,4,3,0,13,1,0
21646,25.88888889,4,3,0,13,1,0
21647,999999999,4,3,0,13,1,0
21656,26.29467085,4,3,0,13,1,0
21657,999999999,4,3,0,13,1,0
21666,26.7133758,4,3,0,13,1,0
21667,999999999,4,3,0,13,1,0
21676,27.14563107,4,3,0,13,1,0
21677,999999999,4,3,0,13,1,0
21686,27.59210526,4,3,0,13,1,0
21687,999999999,4,3,0,13,1,0
21696,28.05351171,4,3,0,13,1,0
21697,999999999,4,3,0,13,1,0
21706,28.53061224,4,3,0,13,1,0
21707,999999999,4,3,0,13,1,0
21716,29.02422145,4,3,0,13,1,0
21717,999999999,4,3,0,13,1,0
21726,29.53521127,4,3,0,13,1,0
21727,999999999,4,3,0,13,1,0
21736,30.06451613,4,3,0,13,1,0
21737,999999999,4,3,0,13,1,0
21746,30.61313869,4,3,0,13,1,0
21747,999999999,4,3,0,13,1,0
21756,31.18215613,4,3,0,13,1,0
21757,999999999,4,3,0,13,1,0
21766,31.77272727,4,3,0,13,1,0
21767,999999999,4,3,0,13,1,0
21776,32.38610039,4,3,0,13,1,0
21777,999999999,4,3,0,13,1,0
21786,33.02362205,4,3,0,13,1,0
21787,999999999,4,3,0,13,1,0
21796,33.68674699,4,3,0,13,1,0
21797,999999999,4,3,0,13,1,0
21806,34.37704918,4,3,0,13,1,0
21807,999999999,4,3,0,13,1,0
21816,35.09623431,4,3,0,13,1,0
21817,999999999,4,3,0,13,1,0
21826,35.84615385,4,3,0,13,1,0
21827,999999999,4,3,0,13,1,0
21836,36.62882096,4,3,0,13,1,0
21837,999999999,4,3,0,13,1,0
21846,37.44642857,4,3,0,13,1,0
21847,999999999,4,3,0,13,1,0
21856,38.30136986,4,3,0,13,1,0
21857,999999999,4,3,0,13,1,0
21866,39.19626168,4,3,0,13,1,0
21867,999999999,4,3,0,13,1,0
21876,40.13397129,4,3,0,13,1,0
21877,999999999,4,3,0,13,1,0
21886,41.11764706,4,3,0,13,1,0
21887,999999999,4,3,0,13,1,0
21896,42.15075377,4,3,0,13,1,0
21897,999999999,4,3,0,13,1,0
21906,43.2371134,4,3,0,13,1,0
21907,999999999,4,3,0,13,1,0
21916,44.38095238,4,3,0,13,1,0
21917,999999999,4,3,0,13,1,0
21926,45.58695652,4,3,0,13,1,0
21927,999999999,4,3,0,13,1,0
21936,46.8603352,4,3,0,13,1,0
21937,999999999,4,3,0,13,1,0
21946,48.20689655,4,3,0,13,1,0
21947,999999999,4,3,0,13,1,0
21956,49.63313609,4,3,0,13,1,0
21957,999999999,4,3,0,13,1,0
21966,51.14634146,4,3,0,13,1,0
21967,999999999,4,3,0,13,1,0
21976,52.75471698,4,3,0,13,1,0
21977,999999999,4,3,0,13,1,0
21986,54.46753247,4,3,0,13,1,0
21987,999999999,4,3,0,13,1,0
21996,56.29530201,4,3,0,13,1,0
21997,999999999,4,3,0,13,1,0
22006,58.25,4,3,0,13,1,0
22007,999999999,4,3,0,13,1,0
22016,60.34532374,4,3,0,13,1,0
22017,999999999,4,3,0,13,1,0
22026,62.59701493,4,3,0,13,1,0
22027,999999999,4,3,0,13,1,0
22036,65.02325581,4,3,0,13,1,0
22037,999999999,4,3,0,13,1,0
22046,67.64516129,4,3,0,13,1,0
22047,999999999,4,3,0,13,1,0
22056,70.48739496,4,3,0,13,1,0
22057,999999999,4,3,0,13,1,0
22066,73.57894737,4,3,0,13,1,0
22067,999999999,4,3,0,13,1,0
22076,76.95412844,4,3,0,13,1,0
22077,999999999,4,3,0,13,1,0
22086,80.65384615,4,3,0,13,1,0
22087,999999999,4,3,0,13,1,0
22096,84.72727273,4,3,0,13,1,0
22097,999999999,4,3,0,13,1,0
22106,89.23404255,4,3,0,13,1,0
22107,999999999,4,3,0,13,1,0
22116,94.24719101,4,3,0,13,1,0
22117,999999999,4,3,0,13,1,0
22126,99.85714286,4,3,0,13,1,0
22127,999999999,4,3,0,13,1,0
22136,106.1772152,4,3,0,13,1,0
22137,999999999,4,3,0,13,1,0
22146,113.3513514,4,3,0,13,1,0
22147,999999999,4,3,0,13,1,0
22156,121.5652174,4,3,0,13,1,0
22157,999999999,4,3,0,13,1,0
22166,131.0625,4,3,0,13,1,0
22167,999999999,4,3,0,13,1,0
22176,142.1694915,4,3,0,13,1,0
22177,999999999,4,3,0,13,1,0
22186,155.3333333,4,3,0,13,1,0
22187,999999999,4,3,0,13,1,0
22196,171.1836735,4,3,0,13,1,0
22197,999999999,4,3,0,13,1,0
22206,190.6363636,4,3,0,13,1,0
22207,999999999,4,3,0,13,1,0
22216,215.0769231,4,3,0,13,1,0
22217,999999999,4,3,0,13,1,0
22226,246.7058824,4,3,0,13,1,0
22227,999999999,4,3,0,13,1,0
22236,289.2413793,4,3,0,13,1,0
22237,999999999,4,3,0,13,1,0
22246,349.5,4,3,0,13,1,0
22247,999999999,4,3,0,13,1,0
22256,441.4736842,4,3,0,13,1,0
22257,999999999,4,3,0,13,1,0
22266,599.1428571,4,3,0,13,1,0
22267,999999999,4,3,0,13,1,0
22276,932,4,3,0,13,1,0
22277,999999999,4,3,0,13,1,0
22286,2097,4,3,0,13,1,0
22287,999999999,4,3,0,13,1,0
22294,346.820809248555,4,3,0,13,1,0
44013,-200,4,3,0,13,0,0
44100,-181.818181818182,4,3,0,13,0,0
44187,-161.290322580645,4,3,0,13,0,0
44273,-140.845070422535,4,3,0,13,0,0
44360,-121.951219512195,4,3,0,13,0,0
44447,-105.263157894737,4,3,0,13,0,0
44490,-100,4,3,0,13,0,0
88623,-100,4,3,1,100,0,0
88710,-66.6666666666667,4,3,1,60,0,1
88796,-100,4,3,0,13,0,0
89490,-200,4,3,0,10,0,0
89533,-66.6666666666667,4,3,0,10,0,0
89577,-100,4,3,0,10,0,0
92265,-200,4,3,0,10,0,0
92308,-66.6666666666667,4,3,0,10,0,0
92351,-100,4,3,0,10,0,0
95039,-200,4,3,0,10,0,0
95083,-66.6666666666667,4,3,0,10,0,0
95126,-100,4,3,0,10,0,0
97814,-200,4,3,0,10,0,0
97857,-66.6666666666667,4,3,0,10,0,0
97900,-100,4,3,0,10,0,0
99028,-133.333333333333,4,3,0,10,0,0
99114,-142.857142857143,4,3,0,10,0,0
99201,-153.846153846154,4,3,0,10,0,0
99288,-100,4,3,0,10,0,0
100588,-200,4,3,0,10,0,0
100632,-66.6666666666667,4,3,0,10,0,0
100675,-100,4,3,0,10,0,0
102322,-1000,4,3,0,10,0,0
102366,-52.6315789473684,4,3,0,10,0,0
102409,-100,4,3,0,10,0,0
103363,-200,4,3,0,10,0,0
103406,-66.6666666666667,4,3,0,10,0,0
103450,-100,4,3,0,10,0,0
106137,-200,4,3,0,10,0,0
106181,-66.6666666666667,4,3,0,10,0,0
106224,-100,4,3,0,10,0,0
108912,-200,4,3,0,10,0,0
108955,-66.6666666666667,4,3,0,10,0,0
108999,-100,4,3,0,10,0,0
110126,-1000,4,3,1,30,0,0
110213,-666.666666666667,4,3,0,30,0,0
110299,-500,4,3,0,30,0,0
110386,-400,4,3,0,30,0,0
110429,-100,4,3,0,30,0,0
110451,-400,4,3,0,30,0,0
110473,-333.333333333333,4,3,0,30,0,0
110559,-285.714285714286,4,3,0,30,0,0
110646,-250,4,3,0,30,0,0
110689,-62.5,4,3,0,30,0,0
110711,-250,4,3,0,30,0,0
110733,-222.222222222222,4,3,0,30,0,0
110820,-200,4,3,0,30,0,0
110863,-50,4,3,0,30,0,0
110885,-200,4,3,0,30,0,0
110906,-181.818181818182,4,3,0,30,0,0
110993,-166.666666666667,4,3,0,30,0,0
111080,-100,4,3,0,10,0,0
222062,-100,4,3,1,100,0,0
222149,-100,4,3,1,13,0,0
242872,-10000,4,3,0,13,0,0
243132,-1000,4,3,0,13,0,0
243218,-434.782608695652,4,3,0,13,0,0
243305,-294.117647058824,4,3,0,13,0,0
243392,-204.081632653061,4,3,0,13,0,0
243478,-128.205128205128,4,3,0,13,0,0
243565,-111.111111111111,4,3,0,13,0,0
244259,-100,4,3,0,13,0,1
244519,-100,4,3,0,13,0,0
265848,-45.4545454545455,4,3,0,13,0,0
265870,-1000,4,3,0,13,0,0
265892,-40,4,3,0,13,0,0
265914,-1000,4,3,0,13,0,0
265935,-45.4545454545455,4,3,0,13,0,0
265957,-1000,4,3,0,13,0,0
265978,-52.6315789473684,4,3,0,13,0,0
266000,-1000,4,3,0,13,0,0
266022,-62.5,4,3,0,13,0,0
266044,-1000,4,3,0,13,0,0
266065,-76.9230769230769,4,3,0,13,0,0
266087,-1000,4,3,0,13,0,0
266109,-52.6315789473684,4,3,0,13,0,0
266130,-1000,4,3,0,13,0,0
266174,-52.6315789473684,4,3,0,13,0,0
266217,-1000,4,3,0,13,0,0
266261,-52.6315789473684,4,3,0,13,0,0
266304,-1000,4,3,0,13,0,0
266348,-52.6315789473684,4,3,0,13,0,0
266390,-1000,4,3,0,13,0,0
266434,-52.6315789473684,4,3,0,13,0,0
266455,-100,4,3,0,13,0,0
313999,-66.6666666666667,4,3,0,13,0,0
314143,-74.0740740740741,4,3,0,13,0,0
314172,-83.3333333333333,4,3,0,13,0,0
314201,-90.9090909090909,4,3,0,13,0,0
314230,-100,4,3,0,13,0,0
321253,-79.3650793650794,4,3,0,13,0,0
321426,-100,4,3,0,13,0,0
322120,-111.111111111111,4,3,0,13,0,0
322149,-125,4,3,0,13,0,0
322178,-142.857142857143,4,3,0,13,0,0
322207,-166.666666666667,4,3,0,13,0,0
322236,-100,4,3,0,13,0,0
325097,-66.6666666666667,4,3,0,13,0,0
325241,-74.0740740740741,4,3,0,13,0,0
325270,-83.3333333333333,4,3,0,13,0,0
325299,-90.9090909090909,4,3,0,13,0,0
325328,-100,4,3,0,13,0,0

[HitObjects]
64,192,22294,5,0,0:0:0:0:
448,192,22294,128,0,25068:0:0:0:0:
64,192,22554,1,0,0:0:0:0:
64,192,22814,1,0,0:0:0:0:
64,192,23074,1,0,0:0:0:0:
64,192,23334,1,0,0:0:0:0:
64,192,23507,1,0,0:0:0:0:
320,192,23681,1,0,0:0:0:0:
192,192,23767,1,0,0:0:0:0:
64,192,23854,1,0,0:0:0:0:
192,192,23941,1,0,0:0:0:0:
320,192,23941,128,0,25068:0:0:0:0:
192,192,24201,1,0,0:0:0:0:
192,192,24461,1,0,0:0:0:0:
192,192,24721,1,0,0:0:0:0:
192,192,24895,1,0,0:0:0:0:
64,192,25068,1,0,0:0:0:0:
192,192,25155,128,0,25328:0:0:0:0:
320,192,25328,1,0,0:0:0:0:
320,192,25588,1,0,0:0:0:0:
320,192,25848,1,0,0:0:0:0:
320,192,26109,1,0,0:0:0:0:
320,192,26282,1,0,0:0:0:0:
192,192,26455,128,0,27669:0:0:0:0:
448,192,26542,1,0,0:0:0:0:
448,192,26715,1,0,0:0:0:0:
448,192,26976,1,0,0:0:0:0:
448,192,27236,1,0,0:0:0:0:
448,192,27496,1,0,0:0:0:0:
64,192,27496,128,0,27843:0:0:0:0:
448,192,27669,1,0,0:0:0:0:
192,192,27843,1,0,0:0:0:0:
448,192,27843,128,0,29230:0:0:0:0:
192,192,28103,1,0,0:0:0:0:
192,192,28363,1,0,0:0:0:0:
192,192,28623,1,0,0:0:0:0:
192,192,28883,1,0,0:0:0:0:
192,192,29057,1,0,0:0:0:0:
64,192,29230,128,0,30270:0:0:0:0:
192,192,29317,1,0,0:0:0:0:
192,192,29490,1,0,0:0:0:0:
192,192,29750,1,0,0:0:0:0:
192,192,30010,1,0,0:0:0:0:
192,192,30270,1,0,0:0:0:0:
320,192,30270,128,0,30617:0:0:0:0:
448,192,30270,128,0,30617:0:0:0:0:
192,192,30444,1,0,0:0:0:0:
64,192,30617,1,0,0:0:0:0:
192,192,30617,128,0,32004:0:0:0:0:
64,192,30877,1,0,0:0:0:0:
320,192,30964,128,0,31080:0:0:0:0:
448,192,31080,128,0,31253:0:0:0:0:
64,192,31137,1,0,0:0:0:0:
320,192,31253,128,0,32004:0:0:0:0:
64,192,31398,1,0,0:0:0:0:
64,192,31658,1,0,0:0:0:0:
64,192,31831,1,0,0:0:0:0:
448,192,32004,1,0,0:0:0:0:
192,192,32091,1,0,0:0:0:0:
192,192,32265,1,0,0:0:0:0:
320,192,32351,128,0,32438:0:0:0:0:
192,192,32525,1,0,0:0:0:0:
64,192,32525,128,0,32611:0:0:0:0:
448,192,32611,128,0,32698:0:0:0:0:
192,192,32785,1,0,0:0:0:0:
320,192,32785,128,0,33132:0:0:0:0:
192,192,33045,1,0,0:0:0:0:
448,192,33132,128,0,33392:0:0:0:0:
192,192,33218,128,0,33392:0:0:0:0:
64,192,33392,128,0,36166:0:0:0:0:
320,192,33392,1,0,0:0:0:0:
320,192,33652,1,0,0:0:0:0:
320,192,33912,1,0,0:0:0:0:
320,192,34172,1,0,0:0:0:0:
320,192,34432,1,0,0:0:0:0:
320,192,34606,1,0,0:0:0:0:
192,192,34779,128,0,36166:0:0:0:0:
320,192,34779,1,0,0:0:0:0:
448,192,34866,1,0,0:0:0:0:
448,192,35039,1,0,0:0:0:0:
448,192,35299,1,0,0:0:0:0:
448,192,35559,1,0,0:0:0:0:
448,192,35820,1,0,0:0:0:0:
448,192,35993,1,0,0:0:0:0:
448,192,36166,128,0,38941:0:0:0:0:
320,192,36166,1,0,0:0:0:0:
320,192,36426,1,0,0:0:0:0:
320,192,36687,1,0,0:0:0:0:
320,192,36947,1,0,0:0:0:0:
320,192,37207,1,0,0:0:0:0:
320,192,37380,1,0,0:0:0:0:
64,192,37554,1,0,0:0:0:0:
192,192,37640,1,0,0:0:0:0:
192,192,37814,1,0,0:0:0:0:
192,192,38074,1,0,0:0:0:0:
64,192,38074,128,0,38334:0:0:0:0:
320,192,38334,1,0,0:0:0:0:
192,192,38334,128,0,38507:0:0:0:0:
64,192,38507,128,0,38941:0:0:0:0:
320,192,38594,1,0,0:0:0:0:
320,192,38767,1,0,0:0:0:0:
192,192,38941,1,0,0:0:0:0:
320,192,38941,128,0,40328:0:0:0:0:
192,192,39201,1,0,0:0:0:0:
192,192,39461,1,0,0:0:0:0:
192,192,39721,1,0,0:0:0:0:
192,192,39981,1,0,0:0:0:0:
192,192,40155,1,0,0:0:0:0:
192,192,40328,1,0,0:0:0:0:
448,192,40328,128,0,42062:0:0:0:0:
64,192,40415,1,0,0:0:0:0:
64,192,40588,1,0,0:0:0:0:
64,192,40848,1,0,0:0:0:0:
64,192,41109,1,0,0:0:0:0:
320,192,41282,128,0,42062:0:0:0:0:
64,192,41369,1,0,0:0:0:0:
64,192,41542,1,0,0:0:0:0:
192,192,41542,128,0,41715:0:0:0:0:
64,192,41715,1,0,0:0:0:0:
64,192,42062,128,0,42409:0:0:0:0:
448,192,42149,128,0,42409:0:0:0:0:
192,192,42236,128,0,43796:0:0:0:0:
64,192,43450,128,0,43796:0:0:0:0:
320,192,43681,128,0,43854:0:0:0:0:
448,192,43854,128,0,43999:0:0:0:0:
64,192,44013,128,0,44490:0:0:0:0:
192,192,44490,1,0,0:0:0:0:
320,192,44490,128,0,47178:0:0:0:0:
448,192,44490,128,0,47178:0:0:0:0:
64,192,45877,1,0,0:0:0:0:
192,192,47265,128,0,49952:0:0:0:0:
448,192,47265,128,0,49952:0:0:0:0:
320,192,47265,1,0,0:0:0:0:
320,192,48652,1,0,0:0:0:0:
320,192,50039,128,0,52727:0:0:0:0:
64,192,50039,128,0,52727:0:0:0:0:
448,192,50039,1,0,0:0:0:0:
448,192,51426,1,0,0:0:0:0:
192,192,52814,128,0,55502:0:0:0:0:
320,192,52814,128,0,55502:0:0:0:0:
448,192,52814,1,0,0:0:0:0:
64,192,54201,1,0,0:0:0:0:
448,192,55588,128,0,58276:0:0:0:0:
64,192,55588,128,0,58276:0:0:0:0:
320,192,55588,1,0,0:0:0:0:
320,192,56282,1,0,0:0:0:0:
192,192,56976,1,0,0:0:0:0:
192,192,57669,1,0,0:0:0:0:
320,192,58363,128,0,61051:0:0:0:0:
448,192,58363,128,0,61051:0:0:0:0:
192,192,58363,1,0,0:0:0:0:
64,192,59057,1,0,0:0:0:0:
192,192,59750,1,0,0:0:0:0:
64,192,60444,1,0,0:0:0:0:
192,192,61137,128,0,63825:0:0:0:0:
64,192,61137,128,0,63825:0:0:0:0:
320,192,61137,1,0,0:0:0:0:
320,192,61484,1,0,0:0:0:0:
448,192,61831,1,0,0:0:0:0:
448,192,62178,1,0,0:0:0:0:
320,192,62525,1,0,0:0:0:0:
320,192,62872,1,0,0:0:0:0:
448,192,63218,1,0,0:0:0:0:
448,192,63565,1,0,0:0:0:0:
448,192,63912,128,0,65993:0:0:0:0:
64,192,63912,128,0,65993:0:0:0:0:
192,192,63912,1,0,0:0:0:0:
320,192,64085,1,0,0:0:0:0:
192,192,64259,1,0,0:0:0:0:
320,192,64432,1,0,0:0:0:0:
192,192,64606,1,0,0:0:0:0:
320,192,64779,1,0,0:0:0:0:
192,192,64952,1,0,0:0:0:0:
320,192,65126,1,0,0:0:0:0:
192,192,65299,1,0,0:0:0:0:
320,192,65473,1,0,0:0:0:0:
192,192,65646,1,0,0:0:0:0:
320,192,65820,1,0,0:0:0:0:
192,192,65993,1,0,0:0:0:0:
320,192,66080,1,0,0:0:0:0:
64,192,66166,1,0,0:0:0:0:
320,192,66253,1,0,0:0:0:0:
192,192,66340,1,0,0:0:0:0:
448,192,66426,1,0,0:0:0:0:
192,192,66513,1,0,0:0:0:0:
320,192,66600,1,0,0:0:0:0:
64,192,66687,5,0,0:0:0:0:
448,192,66687,1,0,0:0:0:0:
192,192,66687,1,0,0:0:0:0:
64,192,66860,1,0,0:0:0:0:
320,192,67033,1,0,0:0:0:0:
448,192,67033,1,0,0:0:0:0:
192,192,67033,1,0,0:0:0:0:
192,192,67207,1,0,0:0:0:0:
320,192,67207,1,0,0:0:0:0:
192,192,67294,1,0,0:0:0:0:
64,192,67380,1,0,0:0:0:0:
448,192,67467,1,0,0:0:0:0:
320,192,67467,1,0,0:0:0:0:
192,192,67554,1,0,0:0:0:0:
64,192,67640,1,0,0:0:0:0:
320,192,67640,1,0,0:0:0:0:
448,192,67727,1,0,0:0:0:0:
192,192,67727,1,0,0:0:0:0:
64,192,67727,1,0,0:0:0:0:
320,192,67900,1,0,0:0:0:0:
192,192,67987,1,0,0:0:0:0:
64,192,68074,1,0,0:0:0:0:
448,192,68074,1,0,0:0:0:0:
64,192,68247,1,0,0:0:0:0:
320,192,68421,1,0,0:0:0:0:
448,192,68421,1,0,0:0:0:0:
192,192,68421,1,0,0:0:0:0:
192,192,68594,1,0,0:0:0:0:
320,192,68594,1,0,0:0:0:0:
192,192,68681,1,0,0:0:0:0:
64,192,68767,1,0,0:0:0:0:
192,192,68854,1,0,0:0:0:0:
448,192,68854,1,0,0:0:0:0:
448,192,68941,1,0,0:0:0:0:
320,192,68941,1,0,0:0:0:0:
320,192,69028,1,0,0:0:0:0:
448,192,69028,1,0,0:0:0:0:
192,192,69114,1,0,0:0:0:0:
64,192,69114,1,0,0:0:0:0:
320,192,69114,1,0,0:0:0:0:
320,192,69288,1,0,0:0:0:0:
192,192,69374,1,0,0:0:0:0:
64,192,69461,1,0,0:0:0:0:
448,192,69461,1,0,0:0:0:0:
64,192,69635,1,0,0:0:0:0:
192,192,69808,1,0,0:0:0:0:
448,192,69808,1,0,0:0:0:0:
320,192,69808,1,0,0:0:0:0:
64,192,69981,1,0,0:0:0:0:
448,192,69981,1,0,0:0:0:0:
64,192,70068,1,0,0:0:0:0:
320,192,70155,1,0,0:0:0:0:
448,192,70241,1,0,0:0:0:0:
64,192,70241,1,0,0:0:0:0:
192,192,70328,1,0,0:0:0:0:
320,192,70415,1,0,0:0:0:0:
448,192,70415,1,0,0:0:0:0:
192,192,70502,1,0,0:0:0:0:
64,192,70502,1,0,0:0:0:0:
448,192,70502,1,0,0:0:0:0:
320,192,70675,1,0,0:0:0:0:
192,192,70762,1,0,0:0:0:0:
320,192,70848,1,0,0:0:0:0:
448,192,70848,1,0,0:0:0:0:
64,192,71022,1,0,0:0:0:0:
192,192,71195,1,0,0:0:0:0:
320,192,71195,1,0,0:0:0:0:
64,192,71195,1,0,0:0:0:0:
320,192,71369,1,0,0:0:0:0:
448,192,71369,1,0,0:0:0:0:
320,192,71455,1,0,0:0:0:0:
448,192,71542,1,0,0:0:0:0:
64,192,71542,1,0,0:0:0:0:
320,192,71629,1,0,0:0:0:0:
192,192,71715,1,0,0:0:0:0:
64,192,71715,1,0,0:0:0:0:
64,192,71802,1,0,0:0:0:0:
192,192,71802,1,0,0:0:0:0:
192,192,71889,1,0,0:0:0:0:
448,192,71889,1,0,0:0:0:0:
320,192,71889,1,0,0:0:0:0:
320,192,72062,1,0,0:0:0:0:
448,192,72149,1,0,0:0:0:0:
64,192,72236,1,0,0:0:0:0:
192,192,72236,1,0,0:0:0:0:
320,192,72409,1,0,0:0:0:0:
192,192,72583,1,0,0:0:0:0:
64,192,72583,1,0,0:0:0:0:
448,192,72583,1,0,0:0:0:0:
320,192,72756,1,0,0:0:0:0:
192,192,72756,1,0,0:0:0:0:
320,192,72843,1,0,0:0:0:0:
448,192,72929,1,0,0:0:0:0:
64,192,73016,1,0,0:0:0:0:
192,192,73016,1,0,0:0:0:0:
320,192,73103,1,0,0:0:0:0:
448,192,73189,1,0,0:0:0:0:
192,192,73189,1,0,0:0:0:0:
64,192,73276,1,0,0:0:0:0:
320,192,73276,1,0,0:0:0:0:
192,192,73276,1,0,0:0:0:0:
192,192,73450,1,0,0:0:0:0:
320,192,73536,1,0,0:0:0:0:
64,192,73623,1,0,0:0:0:0:
448,192,73623,1,0,0:0:0:0:
64,192,73796,1,0,0:0:0:0:
320,192,73970,1,0,0:0:0:0:
448,192,73970,1,0,0:0:0:0:
192,192,73970,1,0,0:0:0:0:
192,192,74143,1,0,0:0:0:0:
320,192,74143,1,0,0:0:0:0:
192,192,74230,1,0,0:0:0:0:
448,192,74317,1,0,0:0:0:0:
320,192,74403,1,0,0:0:0:0:
64,192,74403,1,0,0:0:0:0:
64,192,74490,1,0,0:0:0:0:
192,192,74490,1,0,0:0:0:0:
192,192,74577,1,0,0:0:0:0:
64,192,74577,1,0,0:0:0:0:
320,192,74663,1,0,0:0:0:0:
448,192,74663,1,0,0:0:0:0:
192,192,74663,1,0,0:0:0:0:
192,192,74837,1,0,0:0:0:0:
320,192,74924,1,0,0:0:0:0:
64,192,75010,1,0,0:0:0:0:
448,192,75010,1,0,0:0:0:0:
64,192,75184,1,0,0:0:0:0:
320,192,75357,1,0,0:0:0:0:
448,192,75357,1,0,0:0:0:0:
192,192,75357,1,0,0:0:0:0:
192,192,75530,1,0,0:0:0:0:
448,192,75530,1,0,0:0:0:0:
192,192,75617,1,0,0:0:0:0:
320,192,75704,1,0,0:0:0:0:
448,192,75704,1,0,0:0:0:0:
64,192,75791,1,0,0:0:0:0:
192,192,75791,1,0,0:0:0:0:
320,192,75877,1,0,0:0:0:0:
448,192,75964,1,0,0:0:0:0:
64,192,75964,1,0,0:0:0:0:
320,192,76051,1,0,0:0:0:0:
192,192,76051,1,0,0:0:0:0:
64,192,76051,1,0,0:0:0:0:
448,192,76224,1,0,0:0:0:0:
320,192,76311,1,0,0:0:0:0:
192,192,76398,1,0,0:0:0:0:
64,192,76398,1,0,0:0:0:0:
448,192,76571,1,0,0:0:0:0:
320,192,76744,1,0,0:0:0:0:
192,192,76744,1,0,0:0:0:0:
448,192,76744,1,0,0:0:0:0:
192,192,76918,1,0,0:0:0:0:
64,192,76918,1,0,0:0:0:0:
192,192,77004,1,0,0:0:0:0:
64,192,77091,1,0,0:0:0:0:
448,192,77178,1,0,0:0:0:0:
192,192,77178,1,0,0:0:0:0:
320,192,77265,1,0,0:0:0:0:
448,192,77265,1,0,0:0:0:0:
448,192,77351,1,0,0:0:0:0:
320,192,77351,1,0,0:0:0:0:
192,192,77438,1,0,0:0:0:0:
64,192,77438,1,0,0:0:0:0:
320,192,77438,1,0,0:0:0:0:
192,192,77611,1,0,0:0:0:0:
320,192,77698,1,0,0:0:0:0:
64,192,77785,1,0,0:0:0:0:
448,192,77785,1,0,0:0:0:0:
64,192,77958,1,0,0:0:0:0:
192,192,78132,1,0,0:0:0:0:
448,192,78132,1,0,0:0:0:0:
448,192,78305,1,0,0:0:0:0:
320,192,78478,1,0,0:0:0:0:
64,192,78478,1,0,0:0:0:0:
64,192,78652,1,0,0:0:0:0:
192,192,78825,1,0,0:0:0:0:
448,192,78825,1,0,0:0:0:0:
448,192,78999,1,0,0:0:0:0:
320,192,79172,1,0,0:0:0:0:
192,192,79172,1,0,0:0:0:0:
192,192,79346,1,0,0:0:0:0:
64,192,79519,1,0,0:0:0:0:
320,192,79519,1,0,0:0:0:0:
448,192,79692,1,0,0:0:0:0:
320,192,79866,1,0,0:0:0:0:
192,192,79866,1,0,0:0:0:0:
320,192,80039,1,0,0:0:0:0:
192,192,80213,1,0,0:0:0:0:
448,192,80213,1,0,0:0:0:0:
64,192,80386,1,0,0:0:0:0:
64,192,80559,1,0,0:0:0:0:
192,192,80559,1,0,0:0:0:0:
448,192,80733,1,0,0:0:0:0:
448,192,80906,1,0,0:0:0:0:
192,192,80906,1,0,0:0:0:0:
64,192,81080,1,0,0:0:0:0:
320,192,81253,1,0,0:0:0:0:
448,192,81253,1,0,0:0:0:0:
64,192,81426,1,0,0:0:0:0:
320,192,81600,1,0,0:0:0:0:
64,192,81600,1,0,0:0:0:0:
448,192,81773,1,0,0:0:0:0:
192,192,81947,1,0,0:0:0:0:
448,192,81947,1,0,0:0:0:0:
320,192,82120,1,0,0:0:0:0:
192,192,82294,1,0,0:0:0:0:
64,192,82294,1,0,0:0:0:0:
192,192,82467,1,0,0:0:0:0:
320,192,82640,1,0,0:0:0:0:
64,192,82640,1,0,0:0:0:0:
192,192,82814,1,0,0:0:0:0:
320,192,82987,1,0,0:0:0:0:
448,192,82987,1,0,0:0:0:0:
448,192,83161,1,0,0:0:0:0:
64,192,83334,1,0,0:0:0:0:
192,192,83334,1,0,0:0:0:0:
64,192,83507,1,0,0:0:0:0:
192,192,83507,1,0,0:0:0:0:
64,192,83681,1,0,0:0:0:0:
320,192,83681,1,0,0:0:0:0:
320,192,83854,1,0,0:0:0:0:
64,192,83854,1,0,0:0:0:0:
192,192,84028,1,0,0:0:0:0:
448,192,84028,1,0,0:0:0:0:
448,192,84201,1,0,0:0:0:0:
192,192,84201,1,0,0:0:0:0:
320,192,84374,1,0,0:0:0:0:
448,192,84374,1,0,0:0:0:0:
448,192,84548,1,0,0:0:0:0:
320,192,84548,1,0,0:0:0:0:
192,192,84721,1,0,0:0:0:0:
320,192,84721,1,0,0:0:0:0:
192,192,84895,1,0,0:0:0:0:
64,192,84895,1,0,0:0:0:0:
64,192,85068,1,0,0:0:0:0:
448,192,85068,1,0,0:0:0:0:
448,192,85241,1,0,0:0:0:0:
192,192,85241,1,0,0:0:0:0:
192,192,85415,1,0,0:0:0:0:
320,192,85415,1,0,0:0:0:0:
320,192,85588,1,0,0:0:0:0:
448,192,85588,1,0,0:0:0:0:
448,192,85762,1,0,0:0:0:0:
64,192,85762,1,0,0:0:0:0:
64,192,85935,1,0,0:0:0:0:
320,192,85935,1,0,0:0:0:0:
320,192,86109,1,0,0:0:0:0:
448,192,86109,1,0,0:0:0:0:
192,192,86195,1,0,0:0:0:0:
64,192,86195,1,0,0:0:0:0:
320,192,86282,1,0,0:0:0:0:
448,192,86282,1,0,0:0:0:0:
64,192,86369,1,0,0:0:0:0:
192,192,86369,1,0,0:0:0:0:
320,192,86455,1,0,0:0:0:0:
448,192,86455,1,0,0:0:0:0:
192,192,86542,1,0,0:0:0:0:
64,192,86542,1,0,0:0:0:0:
320,192,86629,1,0,0:0:0:0:
448,192,86629,1,0,0:0:0:0:
192,192,86715,1,0,0:0:0:0:
64,192,86715,1,0,0:0:0:0:
320,192,86802,1,0,0:0:0:0:
448,192,86802,1,0,0:0:0:0:
320,192,86889,1,0,0:0:0:0:
448,192,86889,1,0,0:0:0:0:
192,192,86976,1,0,0:0:0:0:
64,192,86976,1,0,0:0:0:0:
64,192,87062,1,0,0:0:0:0:
192,192,87062,1,0,0:0:0:0:
320,192,87149,1,0,0:0:0:0:
320,192,87265,1,0,0:0:0:0:
320,192,87380,1,0,0:0:0:0:
192,192,87496,1,0,0:0:0:0:
64,192,87496,1,0,0:0:0:0:
320,192,87648,5,0,0:0:0:0:
192,192,87727,5,0,0:0:0:0:
64,192,87778,1,0,0:0:0:0:
448,192,87799,1,0,0:0:0:0:
320,192,87864,1,0,0:0:0:0:
192,192,88016,1,0,0:0:0:0:
320,192,88189,1,0,0:0:0:0:
192,192,88320,1,0,0:0:0:0:
64,192,88428,1,0,0:0:0:0:
320,192,88688,128,8,88796:0:0:0:0:
192,192,88688,128,8,88796:0:0:0:0:
64,192,88883,5,0,0:0:0:0:
192,192,88883,1,0,0:0:0:0:
320,192,88970,1,0,0:0:0:0:
64,192,89057,1,0,0:0:0:0:
320,192,89143,1,0,0:0:0:0:
448,192,89230,1,0,0:0:0:0:
64,192,89230,1,0,0:0:0:0:
192,192,89317,1,0,0:0:0:0:
320,192,89403,1,0,0:0:0:0:
448,192,89403,1,0,0:0:0:0:
64,192,89490,1,0,0:0:0:0:
192,192,89577,1,0,0:0:0:0:
64,192,89663,1,0,0:0:0:0:
320,192,89663,1,0,0:0:0:0:
192,192,89750,1,0,0:0:0:0:
448,192,89750,1,0,0:0:0:0:
320,192,89837,1,0,0:0:0:0:
64,192,89837,1,0,0:0:0:0:
448,192,89924,1,0,0:0:0:0:
320,192,89924,1,0,0:0:0:0:
64,192,90010,1,0,0:0:0:0:
192,192,90097,1,0,0:0:0:0:
192,192,90184,1,0,0:0:0:0:
64,192,90270,1,0,0:0:0:0:
448,192,90270,1,0,0:0:0:0:
320,192,90357,1,0,0:0:0:0:
64,192,90444,1,0,0:0:0:0:
320,192,90530,1,0,0:0:0:0:
192,192,90617,1,0,0:0:0:0:
448,192,90617,1,0,0:0:0:0:
64,192,90704,1,0,0:0:0:0:
320,192,90791,1,0,0:0:0:0:
448,192,90791,1,0,0:0:0:0:
64,192,90877,1,0,0:0:0:0:
320,192,90964,1,0,0:0:0:0:
64,192,91051,1,0,0:0:0:0:
192,192,91051,1,0,0:0:0:0:
320,192,91137,1,0,0:0:0:0:
448,192,91137,1,0,0:0:0:0:
64,192,91224,1,0,0:0:0:0:
192,192,91224,1,0,0:0:0:0:
448,192,91311,1,0,0:0:0:0:
192,192,91311,1,0,0:0:0:0:
320,192,91398,1,0,0:0:0:0:
64,192,91484,1,0,0:0:0:0:
64,192,91571,1,0,0:0:0:0:
448,192,91658,1,0,0:0:0:0:
320,192,91658,1,0,0:0:0:0:
64,192,91744,1,0,0:0:0:0:
320,192,91831,1,0,0:0:0:0:
64,192,91918,1,0,0:0:0:0:
192,192,92004,1,0,0:0:0:0:
448,192,92004,1,0,0:0:0:0:
64,192,92091,1,0,0:0:0:0:
320,192,92178,1,0,0:0:0:0:
448,192,92178,1,0,0:0:0:0:
192,192,92265,1,0,0:0:0:0:
64,192,92351,1,0,0:0:0:0:
320,192,92438,1,0,0:0:0:0:
448,192,92438,1,0,0:0:0:0:
64,192,92525,1,0,0:0:0:0:
192,192,92525,1,0,0:0:0:0:
320,192,92611,1,0,0:0:0:0:
448,192,92611,1,0,0:0:0:0:
448,192,92698,1,0,0:0:0:0:
64,192,92698,1,0,0:0:0:0:
320,192,92785,1,0,0:0:0:0:
192,192,92872,1,0,0:0:0:0:
192,192,92958,1,0,0:0:0:0:
64,192,93045,1,0,0:0:0:0:
448,192,93045,1,0,0:0:0:0:
320,192,93132,1,0,0:0:0:0:
448,192,93218,1,0,0:0:0:0:
64,192,93305,1,0,0:0:0:0:
192,192,93305,1,0,0:0:0:0:
448,192,93392,1,0,0:0:0:0:
64,192,93392,1,0,0:0:0:0:
320,192,93478,1,0,0:0:0:0:
192,192,93565,1,0,0:0:0:0:
64,192,93565,1,0,0:0:0:0:
448,192,93652,1,0,0:0:0:0:
320,192,93652,1,0,0:0:0:0:
64,192,93739,1,0,0:0:0:0:
448,192,93825,1,0,0:0:0:0:
192,192,93825,1,0,0:0:0:0:
64,192,93912,1,0,0:0:0:0:
320,192,93912,1,0,0:0:0:0:
64,192,93999,1,0,0:0:0:0:
192,192,93999,1,0,0:0:0:0:
320,192,94085,1,0,0:0:0:0:
448,192,94085,1,0,0:0:0:0:
192,192,94172,1,0,0:0:0:0:
448,192,94259,1,0,0:0:0:0:
192,192,94346,1,0,0:0:0:0:
64,192,94432,1,0,0:0:0:0:
448,192,94432,1,0,0:0:0:0:
320,192,94519,1,0,0:0:0:0:
64,192,94606,1,0,0:0:0:0:
320,192,94692,1,0,0:0:0:0:
64,192,94779,1,0,0:0:0:0:
448,192,94779,1,0,0:0:0:0:
192,192,94866,1,0,0:0:0:0:
320,192,94952,1,0,0:0:0:0:
448,192,94952,1,0,0:0:0:0:
192,192,95039,1,0,0:0:0:0:
448,192,95126,1,0,0:0:0:0:
64,192,95213,1,0,0:0:0:0:
192,192,95213,1,0,0:0:0:0:
320,192,95299,1,0,0:0:0:0:
448,192,95299,1,0,0:0:0:0:
192,192,95386,1,0,0:0:0:0:
64,192,95386,1,0,0:0:0:0:
64,192,95473,1,0,0:0:0:0:
448,192,95473,1,0,0:0:0:0:
320,192,95559,1,0,0:0:0:0:
192,192,95646,1,0,0:0:0:0:
192,192,95733,1,0,0:0:0:0:
448,192,95820,1,0,0:0:0:0:
64,192,95820,1,0,0:0:0:0:
192,192,95906,1,0,0:0:0:0:
448,192,95993,1,0,0:0:0:0:
192,192,96080,1,0,0:0:0:0:
448,192,96166,1,0,0:0:0:0:
320,192,96166,1,0,0:0:0:0:
64,192,96253,1,0,0:0:0:0:
448,192,96340,1,0,0:0:0:0:
320,192,96340,1,0,0:0:0:0:
64,192,96426,1,0,0:0:0:0:
320,192,96513,1,0,0:0:0:0:
64,192,96600,1,0,0:0:0:0:
448,192,96600,1,0,0:0:0:0:
192,192,96687,1,0,0:0:0:0:
320,192,96687,1,0,0:0:0:0:
64,192,96773,1,0,0:0:0:0:
448,192,96773,1,0,0:0:0:0:
320,192,96860,1,0,0:0:0:0:
448,192,96860,1,0,0:0:0:0:
192,192,96947,1,0,0:0:0:0:
320,192,97033,1,0,0:0:0:0:
320,192,97120,1,0,0:0:0:0:
64,192,97207,1,0,0:0:0:0:
448,192,97207,1,0,0:0:0:0:
320,192,97294,1,0,0:0:0:0:
192,192,97380,1,0,0:0:0:0:
448,192,97467,1,0,0:0:0:0:
64,192,97554,1,0,0:0:0:0:
192,192,97554,1,0,0:0:0:0:
448,192,97640,1,0,0:0:0:0:
64,192,97727,1,0,0:0:0:0:
320,192,97727,1,0,0:0:0:0:
192,192,97814,1,0,0:0:0:0:
448,192,97900,1,0,0:0:0:0:
64,192,97987,1,0,0:0:0:0:
192,192,97987,1,0,0:0:0:0:
320,192,98074,1,0,0:0:0:0:
448,192,98074,1,0,0:0:0:0:
192,192,98161,1,0,0:0:0:0:
64,192,98161,1,0,0:0:0:0:
64,192,98247,1,0,0:0:0:0:
320,192,98247,1,0,0:0:0:0:
448,192,98334,1,0,0:0:0:0:
192,192,98421,1,0,0:0:0:0:
192,192,98507,1,0,0:0:0:0:
64,192,98594,1,0,0:0:0:0:
448,192,98594,1,0,0:0:0:0:
192,192,98681,1,0,0:0:0:0:
320,192,98767,1,0,0:0:0:0:
192,192,98854,1,0,0:0:0:0:
448,192,98941,1,0,0:0:0:0:
320,192,98941,1,0,0:0:0:0:
64,192,99028,1,0,0:0:0:0:
192,192,99114,1,0,0:0:0:0:
448,192,99114,1,0,0:0:0:0:
320,192,99201,1,0,0:0:0:0:
192,192,99288,1,0,0:0:0:0:
64,192,99374,1,0,0:0:0:0:
448,192,99374,1,0,0:0:0:0:
192,192,99461,1,0,0:0:0:0:
320,192,99461,1,0,0:0:0:0:
64,192,99548,1,0,0:0:0:0:
448,192,99548,1,0,0:0:0:0:
64,192,99635,1,0,0:0:0:0:
192,192,99635,1,0,0:0:0:0:
448,192,99721,1,0,0:0:0:0:
192,192,99765,1,0,0:0:0:0:
320,192,99808,1,0,0:0:0:0:
320,192,99895,1,0,0:0:0:0:
64,192,99981,1,0,0:0:0:0:
192,192,99981,1,0,0:0:0:0:
320,192,100068,1,0,0:0:0:0:
448,192,100155,1,0,0:0:0:0:
192,192,100241,1,0,0:0:0:0:
320,192,100328,1,0,0:0:0:0:
64,192,100328,1,0,0:0:0:0:
448,192,100415,1,0,0:0:0:0:
64,192,100502,1,0,0:0:0:0:
192,192,100502,1,0,0:0:0:0:
320,192,100588,1,0,0:0:0:0:
448,192,100675,1,0,0:0:0:0:
64,192,100762,1,0,0:0:0:0:
192,192,100762,1,0,0:0:0:0:
320,192,100848,1,0,0:0:0:0:
448,192,100848,1,0,0:0:0:0:
192,192,100935,1,0,0:0:0:0:
64,192,100935,1,0,0:0:0:0:
64,192,101022,1,0,0:0:0:0:
320,192,101022,1,0,0:0:0:0:
448,192,101109,1,0,0:0:0:0:
192,192,101195,1,0,0:0:0:0:
192,192,101282,1,0,0:0:0:0:
448,192,101369,1,0,0:0:0:0:
320,192,101369,1,0,0:0:0:0:
64,192,101455,1,0,0:0:0:0:
192,192,101542,1,0,0:0:0:0:
64,192,101629,1,0,0:0:0:0:
192,192,101715,1,0,0:0:0:0:
448,192,101715,1,0,0:0:0:0:
320,192,101802,1,0,0:0:0:0:
64,192,101889,1,0,0:0:0:0:
192,192,101889,1,0,0:0:0:0:
448,192,101976,1,0,0:0:0:0:
320,192,102062,5,0,0:0:0:0:
64,192,102149,1,0,0:0:0:0:
192,192,102149,1,0,0:0:0:0:
320,192,102236,1,0,0:0:0:0:
448,192,102236,1,0,0:0:0:0:
192,192,102322,1,0,0:0:0:0:
64,192,102322,1,0,0:0:0:0:
448,192,102409,1,0,0:0:0:0:
64,192,102496,1,0,0:0:0:0:
320,192,102583,1,0,0:0:0:0:
448,192,102669,1,0,0:0:0:0:
64,192,102756,1,0,0:0:0:0:
192,192,102756,1,0,0:0:0:0:
320,192,102843,1,0,0:0:0:0:
64,192,102929,1,0,0:0:0:0:
320,192,103016,1,0,0:0:0:0:
448,192,103103,1,0,0:0:0:0:
192,192,103103,1,0,0:0:0:0:
64,192,103189,1,0,0:0:0:0:
448,192,103276,1,0,0:0:0:0:
320,192,103276,1,0,0:0:0:0:
192,192,103363,1,0,0:0:0:0:
64,192,103450,1,0,0:0:0:0:
320,192,103536,1,0,0:0:0:0:
448,192,103536,1,0,0:0:0:0:
192,192,103623,1,0,0:0:0:0:
64,192,103623,1,0,0:0:0:0:
320,192,103710,1,0,0:0:0:0:
448,192,103710,1,0,0:0:0:0:
64,192,103796,1,0,0:0:0:0:
320,192,103796,1,0,0:0:0:0:
192,192,103883,1,0,0:0:0:0:
64,192,103970,1,0,0:0:0:0:
64,192,104057,1,0,0:0:0:0:
448,192,104143,1,0,0:0:0:0:
192,192,104143,1,0,0:0:0:0:
320,192,104230,1,0,0:0:0:0:
448,192,104317,1,0,0:0:0:0:
64,192,104403,1,0,0:0:0:0:
192,192,104403,1,0,0:0:0:0:
448,192,104490,1,0,0:0:0:0:
320,192,104490,1,0,0:0:0:0:
64,192,104577,1,0,0:0:0:0:
192,192,104663,1,0,0:0:0:0:
448,192,104663,1,0,0:0:0:0:
320,192,104750,1,0,0:0:0:0:
64,192,104837,1,0,0:0:0:0:
192,192,104924,1,0,0:0:0:0:
448,192,104924,1,0,0:0:0:0:
64,192,105010,1,0,0:0:0:0:
320,192,105010,1,0,0:0:0:0:
192,192,105097,1,0,0:0:0:0:
448,192,105097,1,0,0:0:0:0:
320,192,105184,1,0,0:0:0:0:
448,192,105184,1,0,0:0:0:0:
192,192,105270,1,0,0:0:0:0:
64,192,105357,1,0,0:0:0:0:
64,192,105444,1,0,0:0:0:0:
320,192,105530,1,0,0:0:0:0:
448,192,105530,1,0,0:0:0:0:
192,192,105617,1,0,0:0:0:0:
64,192,105704,1,0,0:0:0:0:
320,192,105791,1,0,0:0:0:0:
192,192,105877,1,0,0:0:0:0:
64,192,105877,1,0,0:0:0:0:
320,192,105964,1,0,0:0:0:0:
448,192,106051,1,0,0:0:0:0:
64,192,106051,1,0,0:0:0:0:
192,192,106137,1,0,0:0:0:0:
320,192,106224,1,0,0:0:0:0:
64,192,106311,1,0,0:0:0:0:
448,192,106311,1,0,0:0:0:0:
192,192,106398,1,0,0:0:0:0:
320,192,106398,1,0,0:0:0:0:
64,192,106484,1,0,0:0:0:0:
448,192,106484,1,0,0:0:0:0:
192,192,106571,1,0,0:0:0:0:
448,192,106571,1,0,0:0:0:0:
320,192,106658,1,0,0:0:0:0:
192,192,106744,1,0,0:0:0:0:
192,192,106831,1,0,0:0:0:0:
64,192,106918,1,0,0:0:0:0:
448,192,106918,1,0,0:0:0:0:
320,192,107004,1,0,0:0:0:0:
192,192,107091,1,0,0:0:0:0:
320,192,107178,1,0,0:0:0:0:
448,192,107265,1,0,0:0:0:0:
64,192,107265,1,0,0:0:0:0:
192,192,107351,1,0,0:0:0:0:
320,192,107438,1,0,0:0:0:0:
64,192,107438,1,0,0:0:0:0:
448,192,107525,1,0,0:0:0:0:
448,192,107611,1,0,0:0:0:0:
64,192,107698,1,0,0:0:0:0:
192,192,107698,1,0,0:0:0:0:
320,192,107785,1,0,0:0:0:0:
448,192,107785,1,0,0:0:0:0:
192,192,107872,1,0,0:0:0:0:
64,192,107872,1,0,0:0:0:0:
64,192,107958,1,0,0:0:0:0:
448,192,107958,1,0,0:0:0:0:
320,192,108045,1,0,0:0:0:0:
192,192,108132,1,0,0:0:0:0:
192,192,108218,1,0,0:0:0:0:
64,192,108305,1,0,0:0:0:0:
448,192,108305,1,0,0:0:0:0:
320,192,108392,1,0,0:0:0:0:
64,192,108478,1,0,0:0:0:0:
320,192,108565,1,0,0:0:0:0:
192,192,108652,1,0,0:0:0:0:
448,192,108652,1,0,0:0:0:0:
64,192,108739,1,0,0:0:0:0:
320,192,108825,1,0,0:0:0:0:
448,192,108825,1,0,0:0:0:0:
192,192,108912,1,0,0:0:0:0:
64,192,108999,1,0,0:0:0:0:
320,192,109085,1,0,0:0:0:0:
448,192,109085,1,0,0:0:0:0:
192,192,109172,1,0,0:0:0:0:
64,192,109172,1,0,0:0:0:0:
320,192,109259,1,0,0:0:0:0:
448,192,109259,1,0,0:0:0:0:
64,192,109346,1,0,0:0:0:0:
448,192,109346,1,0,0:0:0:0:
192,192,109432,1,0,0:0:0:0:
320,192,109519,1,0,0:0:0:0:
448,192,109606,1,0,0:0:0:0:
64,192,109692,5,0,0:0:0:0:
192,192,109692,1,0,0:0:0:0:
320,192,109779,1,0,0:0:0:0:
320,192,109866,1,0,0:0:0:0:
448,192,109866,1,0,0:0:0:0:
192,192,109952,5,0,0:0:0:0:
64,192,110039,1,0,0:0:0:0:
448,192,110039,1,0,0:0:0:0:
320,192,110126,128,4,111080:0:0:0:0:
448,192,111080,5,0,0:0:0:0:
64,192,111080,128,0,111166:0:0:0:0:
192,192,111166,1,0,0:0:0:0:
320,192,111253,1,0,0:0:0:0:
448,192,111253,128,0,111340:0:0:0:0:
192,192,111340,1,0,0:0:0:0:
64,192,111426,1,0,0:0:0:0:
448,192,111426,1,0,0:0:0:0:
320,192,111426,1,0,0:0:0:0:
192,192,111513,1,0,0:0:0:0:
448,192,111600,1,0,0:0:0:0:
64,192,111600,1,0,0:0:0:0:
320,192,111600,1,0,0:0:0:0:
192,192,111687,1,0,0:0:0:0:
448,192,111773,1,0,0:0:0:0:
320,192,111773,1,0,0:0:0:0:
64,192,111860,1,0,0:0:0:0:
448,192,111947,1,0,0:0:0:0:
320,192,111947,1,0,0:0:0:0:
320,192,112033,1,0,0:0:0:0:
64,192,112120,1,0,0:0:0:0:
448,192,112120,1,0,0:0:0:0:
192,192,112120,1,0,0:0:0:0:
320,192,112207,1,0,0:0:0:0:
192,192,112250,1,0,0:0:0:0:
64,192,112294,1,0,0:0:0:0:
448,192,112337,1,0,0:0:0:0:
320,192,112380,1,0,0:0:0:0:
192,192,112424,1,0,0:0:0:0:
64,192,112467,1,0,0:0:0:0:
448,192,112467,128,0,112554:0:0:0:0:
320,192,112554,1,0,0:0:0:0:
192,192,112640,1,0,0:0:0:0:
64,192,112640,128,0,112727:0:0:0:0:
448,192,112727,1,0,0:0:0:0:
320,192,112727,1,0,0:0:0:0:
320,192,112814,1,0,0:0:0:0:
192,192,112814,1,0,0:0:0:0:
448,192,112900,1,0,0:0:0:0:
64,192,112900,1,0,0:0:0:0:
192,192,112987,1,0,0:0:0:0:
320,192,112987,1,0,0:0:0:0:
448,192,113074,1,0,0:0:0:0:
192,192,113161,1,0,0:0:0:0:
64,192,113161,1,0,0:0:0:0:
448,192,113247,1,0,0:0:0:0:
320,192,113247,1,0,0:0:0:0:
64,192,113334,1,0,0:0:0:0:
192,192,113334,1,0,0:0:0:0:
320,192,113421,1,0,0:0:0:0:
448,192,113421,1,0,0:0:0:0:
192,192,113507,1,0,0:0:0:0:
64,192,113507,1,0,0:0:0:0:
448,192,113565,1,0,0:0:0:0:
320,192,113623,1,0,0:0:0:0:
64,192,113681,1,0,0:0:0:0:
192,192,113739,1,0,0:0:0:0:
320,192,113796,1,0,0:0:0:0:
448,192,113854,1,0,0:0:0:0:
64,192,113854,128,0,113941:0:0:0:0:
192,192,113941,1,0,0:0:0:0:
448,192,114028,1,0,0:0:0:0:
320,192,114028,128,0,114114:0:0:0:0:
64,192,114114,1,0,0:0:0:0:
192,192,114201,1,0,0:0:0:0:
320,192,114201,1,0,0:0:0:0:
448,192,114201,1,0,0:0:0:0:
64,192,114288,1,0,0:0:0:0:
448,192,114374,1,0,0:0:0:0:
192,192,114374,1,0,0:0:0:0:
320,192,114461,1,0,0:0:0:0:
64,192,114461,1,0,0:0:0:0:
192,192,114548,1,0,0:0:0:0:
448,192,114635,1,0,0:0:0:0:
320,192,114635,1,0,0:0:0:0:
192,192,114721,1,0,0:0:0:0:
320,192,114721,1,0,0:0:0:0:
192,192,114808,1,0,0:0:0:0:
64,192,114808,1,0,0:0:0:0:
448,192,114895,1,0,0:0:0:0:
320,192,114895,1,0,0:0:0:0:
192,192,114981,1,0,0:0:0:0:
320,192,115068,1,0,0:0:0:0:
448,192,115068,128,0,115155:0:0:0:0:
64,192,115155,128,0,115241:0:0:0:0:
320,192,115241,128,0,115285:0:0:0:0:
192,192,115241,128,0,115285:0:0:0:0:
448,192,115241,128,0,115285:0:0:0:0:
64,192,115328,1,0,0:0:0:0:
448,192,115415,1,0,0:0:0:0:
192,192,115415,1,0,0:0:0:0:
320,192,115502,128,0,115545:0:0:0:0:
192,192,115502,128,0,115545:0:0:0:0:
64,192,115502,128,0,115545:0:0:0:0:
448,192,115588,1,0,0:0:0:0:
192,192,115675,1,0,0:0:0:0:
448,192,115762,128,0,115805:0:0:0:0:
64,192,115762,128,0,115805:0:0:0:0:
320,192,115848,128,0,115892:0:0:0:0:
192,192,115848,128,0,115892:0:0:0:0:
448,192,115935,1,0,0:0:0:0:
64,192,116022,1,0,0:0:0:0:
192,192,116022,1,0,0:0:0:0:
192,192,116109,1,0,0:0:0:0:
320,192,116109,1,0,0:0:0:0:
64,192,116195,1,0,0:0:0:0:
448,192,116195,1,0,0:0:0:0:
320,192,116282,1,0,0:0:0:0:
192,192,116282,1,0,0:0:0:0:
448,192,116369,128,0,116542:0:0:0:0:
192,192,116455,1,0,0:0:0:0:
320,192,116542,1,0,0:0:0:0:
192,192,116629,1,0,0:0:0:0:
64,192,116629,128,0,116802:0:0:0:0:
320,192,116715,1,0,0:0:0:0:
448,192,116802,128,0,116846:0:0:0:0:
192,192,116846,128,0,116889:0:0:0:0:
64,192,116976,1,0,0:0:0:0:
320,192,116976,1,0,0:0:0:0:
448,192,116976,1,0,0:0:0:0:
192,192,117062,128,0,117149:0:0:0:0:
320,192,117149,128,0,117192:0:0:0:0:
448,192,117149,128,0,117192:0:0:0:0:
192,192,117236,128,0,117279:0:0:0:0:
64,192,117236,128,0,117279:0:0:0:0:
320,192,117322,128,0,117366:0:0:0:0:
448,192,117322,128,0,117366:0:0:0:0:
192,192,117409,1,0,0:0:0:0:
64,192,117409,1,0,0:0:0:0:
448,192,117496,1,0,0:0:0:0:
320,192,117496,1,0,0:0:0:0:
192,192,117583,1,0,0:0:0:0:
64,192,117583,1,0,0:0:0:0:
448,192,117669,1,0,0:0:0:0:
320,192,117669,1,0,0:0:0:0:
64,192,117669,1,0,0:0:0:0:
192,192,117756,1,0,0:0:0:0:
320,192,117799,1,0,0:0:0:0:
448,192,117843,1,0,0:0:0:0:
64,192,117886,1,0,0:0:0:0:
192,192,117929,1,0,0:0:0:0:
320,192,117973,1,0,0:0:0:0:
64,192,118016,1,0,0:0:0:0:
448,192,118016,128,0,118103:0:0:0:0:
192,192,118103,1,0,0:0:0:0:
320,192,118189,1,0,0:0:0:0:
64,192,118189,128,0,118276:0:0:0:0:
192,192,118276,128,0,118320:0:0:0:0:
448,192,118276,128,0,118320:0:0:0:0:
320,192,118363,1,0,0:0:0:0:
64,192,118363,1,0,0:0:0:0:
192,192,118450,1,0,0:0:0:0:
448,192,118536,1,0,0:0:0:0:
64,192,118536,1,0,0:0:0:0:
320,192,118623,1,0,0:0:0:0:
192,192,118710,1,0,0:0:0:0:
448,192,118710,1,0,0:0:0:0:
320,192,118796,1,0,0:0:0:0:
64,192,118796,1,0,0:0:0:0:
192,192,118883,1,0,0:0:0:0:
320,192,118883,1,0,0:0:0:0:
448,192,118970,1,0,0:0:0:0:
64,192,118970,1,0,0:0:0:0:
320,192,119057,1,0,0:0:0:0:
192,192,119057,1,0,0:0:0:0:
64,192,119114,1,0,0:0:0:0:
192,192,119172,1,0,0:0:0:0:
448,192,119230,1,0,0:0:0:0:
320,192,119288,1,0,0:0:0:0:
64,192,119346,1,0,0:0:0:0:
320,192,119403,1,0,0:0:0:0:
448,192,119403,128,0,119490:0:0:0:0:
192,192,119490,1,0,0:0:0:0:
448,192,119577,1,0,0:0:0:0:
64,192,119577,128,0,119663:0:0:0:0:
320,192,119663,1,0,0:0:0:0:
192,192,119750,1,0,0:0:0:0:
64,192,119750,1,0,0:0:0:0:
448,192,119750,1,0,0:0:0:0:
320,192,119837,1,0,0:0:0:0:
448,192,119924,1,0,0:0:0:0:
64,192,119924,1,0,0:0:0:0:
320,192,120010,1,0,0:0:0:0:
192,192,120010,1,0,0:0:0:0:
320,192,120097,1,0,0:0:0:0:
448,192,120097,1,0,0:0:0:0:
192,192,120184,1,0,0:0:0:0:
64,192,120184,1,0,0:0:0:0:
320,192,120270,1,0,0:0:0:0:
448,192,120270,1,0,0:0:0:0:
192,192,120357,1,0,0:0:0:0:
64,192,120357,1,0,0:0:0:0:
448,192,120444,1,0,0:0:0:0:
320,192,120444,1,0,0:0:0:0:
192,192,120530,1,0,0:0:0:0:
448,192,120617,1,0,0:0:0:0:
64,192,120617,1,0,0:0:0:0:
320,192,120661,1,0,0:0:0:0:
192,192,120704,1,0,0:0:0:0:
64,192,120747,1,0,0:0:0:0:
320,192,120791,1,0,0:0:0:0:
448,192,120791,1,0,0:0:0:0:
192,192,120877,1,0,0:0:0:0:
448,192,120964,128,0,121051:0:0:0:0:
64,192,120964,128,0,121051:0:0:0:0:
192,192,121051,1,0,0:0:0:0:
320,192,121137,1,0,0:0:0:0:
448,192,121137,1,0,0:0:0:0:
192,192,121224,128,0,121267:0:0:0:0:
448,192,121311,1,0,0:0:0:0:
64,192,121311,1,0,0:0:0:0:
320,192,121398,128,0,121441:0:0:0:0:
64,192,121484,1,0,0:0:0:0:
192,192,121484,128,0,121528:0:0:0:0:
448,192,121571,1,0,0:0:0:0:
320,192,121658,1,0,0:0:0:0:
64,192,121658,128,0,121701:0:0:0:0:
192,192,121744,1,0,0:0:0:0:
448,192,121831,1,0,0:0:0:0:
64,192,121831,1,0,0:0:0:0:
192,192,121918,128,0,121961:0:0:0:0:
448,192,122004,128,0,122048:0:0:0:0:
64,192,122091,128,0,122135:0:0:0:0:
192,192,122178,1,0,0:0:0:0:
448,192,122178,1,0,0:0:0:0:
320,192,122178,1,0,0:0:0:0:
64,192,122265,1,0,0:0:0:0:
448,192,122351,1,0,0:0:0:0:
192,192,122351,1,0,0:0:0:0:
320,192,122438,1,0,0:0:0:0:
448,192,122525,1,0,0:0:0:0:
64,192,122525,1,0,0:0:0:0:
320,192,122611,1,0,0:0:0:0:
64,192,122698,1,0,0:0:0:0:
448,192,122698,1,0,0:0:0:0:
192,192,122785,128,0,122828:0:0:0:0:
448,192,122785,128,0,122828:0:0:0:0:
64,192,122872,1,0,0:0:0:0:
320,192,122872,1,0,0:0:0:0:
448,192,122958,128,0,123002:0:0:0:0:
192,192,122958,128,0,123002:0:0:0:0:
320,192,123045,1,0,0:0:0:0:
64,192,123045,1,0,0:0:0:0:
192,192,123132,1,0,0:0:0:0:
64,192,123218,1,0,0:0:0:0:
320,192,123218,1,0,0:0:0:0:
448,192,123218,1,0,0:0:0:0:
192,192,123305,1,0,0:0:0:0:
320,192,123348,1,0,0:0:0:0:
448,192,123392,1,0,0:0:0:0:
64,192,123435,1,0,0:0:0:0:
192,192,123478,1,0,0:0:0:0:
320,192,123522,1,0,0:0:0:0:
64,192,123565,1,0,0:0:0:0:
448,192,123565,1,0,0:0:0:0:
320,192,123652,1,0,0:0:0:0:
448,192,123739,1,0,0:0:0:0:
192,192,123739,128,0,123825:0:0:0:0:
320,192,123825,128,0,123869:0:0:0:0:
448,192,123912,1,0,0:0:0:0:
192,192,123912,1,0,0:0:0:0:
64,192,123912,1,0,0:0:0:0:
320,192,123999,1,0,0:0:0:0:
64,192,124085,1,0,0:0:0:0:
448,192,124085,1,0,0:0:0:0:
192,192,124172,1,0,0:0:0:0:
448,192,124259,1,0,0:0:0:0:
64,192,124259,1,0,0:0:0:0:
320,192,124346,1,0,0:0:0:0:
192,192,124346,1,0,0:0:0:0:
64,192,124432,1,0,0:0:0:0:
320,192,124432,128,0,124476:0:0:0:0:
448,192,124519,1,0,0:0:0:0:
320,192,124606,1,0,0:0:0:0:
192,192,124606,1,0,0:0:0:0:
64,192,124663,1,0,0:0:0:0:
192,192,124721,1,0,0:0:0:0:
448,192,124779,1,0,0:0:0:0:
320,192,124837,1,0,0:0:0:0:
192,192,124895,1,0,0:0:0:0:
64,192,124952,1,0,0:0:0:0:
448,192,124952,1,0,0:0:0:0:
320,192,125039,1,0,0:0:0:0:
192,192,125126,1,0,0:0:0:0:
64,192,125126,1,0,0:0:0:0:
448,192,125213,1,0,0:0:0:0:
64,192,125299,1,0,0:0:0:0:
192,192,125299,1,0,0:0:0:0:
320,192,125299,1,0,0:0:0:0:
448,192,125386,1,0,0:0:0:0:
64,192,125473,1,0,0:0:0:0:
192,192,125473,1,0,0:0:0:0:
320,192,125559,1,0,0:0:0:0:
448,192,125559,1,0,0:0:0:0:
320,192,125646,1,0,0:0:0:0:
448,192,125646,1,0,0:0:0:0:
192,192,125733,1,0,0:0:0:0:
64,192,125733,1,0,0:0:0:0:
320,192,125820,1,0,0:0:0:0:
448,192,125820,1,0,0:0:0:0:
192,192,125906,1,0,0:0:0:0:
64,192,125906,1,0,0:0:0:0:
64,192,125993,1,0,0:0:0:0:
448,192,125993,1,0,0:0:0:0:
320,192,126080,1,0,0:0:0:0:
448,192,126166,1,0,0:0:0:0:
192,192,126166,1,0,0:0:0:0:
320,192,126253,1,0,0:0:0:0:
64,192,126253,1,0,0:0:0:0:
448,192,126340,1,0,0:0:0:0:
192,192,126340,128,0,126426:0:0:0:0:
320,192,126426,1,0,0:0:0:0:
448,192,126513,128,0,126600:0:0:0:0:
192,192,126513,1,0,0:0:0:0:
64,192,126600,128,0,126687:0:0:0:0:
320,192,126600,1,0,0:0:0:0:
192,192,126687,1,0,0:0:0:0:
448,192,126687,1,0,0:0:0:0:
320,192,126773,1,0,0:0:0:0:
448,192,126860,128,0,126903:0:0:0:0:
64,192,126860,128,0,126903:0:0:0:0:
320,192,126947,128,0,126990:0:0:0:0:
192,192,126947,128,0,126990:0:0:0:0:
448,192,127033,1,0,0:0:0:0:
192,192,127120,1,0,0:0:0:0:
64,192,127120,1,0,0:0:0:0:
448,192,127207,1,0,0:0:0:0:
320,192,127207,1,0,0:0:0:0:
192,192,127294,1,0,0:0:0:0:
64,192,127294,1,0,0:0:0:0:
192,192,127380,1,0,0:0:0:0:
320,192,127380,1,0,0:0:0:0:
448,192,127467,128,0,127554:0:0:0:0:
320,192,127554,1,0,0:0:0:0:
192,192,127554,1,0,0:0:0:0:
64,192,127640,1,0,0:0:0:0:
320,192,127727,1,0,0:0:0:0:
448,192,127727,128,0,127814:0:0:0:0:
64,192,127814,1,0,0:0:0:0:
448,192,127900,1,0,0:0:0:0:
192,192,127900,128,0,127987:0:0:0:0:
320,192,127987,1,0,0:0:0:0:
64,192,128074,1,0,0:0:0:0:
448,192,128074,1,0,0:0:0:0:
192,192,128161,1,0,0:0:0:0:
448,192,128247,1,0,0:0:0:0:
320,192,128247,1,0,0:0:0:0:
320,192,128334,1,0,0:0:0:0:
192,192,128334,1,0,0:0:0:0:
448,192,128421,1,0,0:0:0:0:
64,192,128421,1,0,0:0:0:0:
64,192,128507,1,0,0:0:0:0:
192,192,128507,1,0,0:0:0:0:
448,192,128594,1,0,0:0:0:0:
320,192,128594,1,0,0:0:0:0:
320,192,128681,1,0,0:0:0:0:
192,192,128681,1,0,0:0:0:0:
64,192,128767,1,0,0:0:0:0:
448,192,128767,1,0,0:0:0:0:
320,192,128854,1,0,0:0:0:0:
64,192,128898,1,0,0:0:0:0:
192,192,128941,1,0,0:0:0:0:
320,192,128984,1,0,0:0:0:0:
448,192,129028,1,0,0:0:0:0:
64,192,129071,1,0,0:0:0:0:
192,192,129114,1,0,0:0:0:0:
320,192,129114,1,0,0:0:0:0:
448,192,129201,1,0,0:0:0:0:
64,192,129201,1,0,0:0:0:0:
192,192,129288,1,0,0:0:0:0:
320,192,129288,1,0,0:0:0:0:
64,192,129374,1,0,0:0:0:0:
448,192,129374,1,0,0:0:0:0:
320,192,129461,1,0,0:0:0:0:
192,192,129461,1,0,0:0:0:0:
64,192,129548,1,0,0:0:0:0:
448,192,129635,1,0,0:0:0:0:
320,192,129635,1,0,0:0:0:0:
192,192,129721,1,0,0:0:0:0:
320,192,129721,1,0,0:0:0:0:
64,192,129808,1,0,0:0:0:0:
448,192,129808,1,0,0:0:0:0:
320,192,129895,1,0,0:0:0:0:
192,192,129895,1,0,0:0:0:0:
64,192,129981,1,0,0:0:0:0:
448,192,129981,1,0,0:0:0:0:
320,192,130068,1,0,0:0:0:0:
192,192,130155,1,0,0:0:0:0:
64,192,130155,1,0,0:0:0:0:
448,192,130155,1,0,0:0:0:0:
320,192,130241,128,0,130328:0:0:0:0:
192,192,130328,128,0,130415:0:0:0:0:
320,192,130415,128,0,130502:0:0:0:0:
448,192,130502,1,0,0:0:0:0:
64,192,130502,1,0,0:0:0:0:
448,192,130588,1,0,0:0:0:0:
320,192,130675,1,0,0:0:0:0:
192,192,130675,1,0,0:0:0:0:
64,192,130762,1,0,0:0:0:0:
448,192,130848,1,0,0:0:0:0:
192,192,130848,1,0,0:0:0:0:
320,192,130848,1,0,0:0:0:0:
64,192,130935,1,0,0:0:0:0:
320,192,131022,1,0,0:0:0:0:
192,192,131022,1,0,0:0:0:0:
448,192,131109,128,0,131282:0:0:0:0:
64,192,131195,1,0,0:0:0:0:
192,192,131195,1,0,0:0:0:0:
320,192,131282,128,0,131455:0:0:0:0:
64,192,131282,1,0,0:0:0:0:
192,192,131455,1,0,0:0:0:0:
64,192,131542,1,0,0:0:0:0:
448,192,131542,1,0,0:0:0:0:
320,192,131629,128,0,131715:0:0:0:0:
192,192,131715,1,0,0:0:0:0:
448,192,131715,1,0,0:0:0:0:
320,192,131889,1,0,0:0:0:0:
64,192,131889,128,0,132062:0:0:0:0:
448,192,132062,128,0,132236:0:0:0:0:
192,192,132236,128,0,132409:0:0:0:0:
320,192,132409,128,0,132583:0:0:0:0:
64,192,132583,128,0,132626:0:0:0:0:
192,192,132626,128,0,132669:0:0:0:0:
320,192,132669,128,0,132713:0:0:0:0:
448,192,132713,128,0,132756:0:0:0:0:
64,192,132756,128,0,132799:0:0:0:0:
192,192,132799,128,0,132843:0:0:0:0:
320,192,132843,128,0,132886:0:0:0:0:
448,192,132886,128,0,132929:0:0:0:0:
64,192,132929,128,0,132973:0:0:0:0:
192,192,132973,128,0,133016:0:0:0:0:
448,192,133016,128,0,133059:0:0:0:0:
320,192,133059,128,0,133103:0:0:0:0:
192,192,133103,128,0,133146:0:0:0:0:
64,192,133146,128,0,133189:0:0:0:0:
448,192,133189,128,0,133233:0:0:0:0:
320,192,133276,5,0,0:0:0:0:
192,192,133276,1,0,0:0:0:0:
64,192,133363,1,0,0:0:0:0:
448,192,133450,1,0,0:0:0:0:
192,192,133493,1,0,0:0:0:0:
320,192,133536,1,0,0:0:0:0:
64,192,133580,1,0,0:0:0:0:
320,192,133623,1,0,0:0:0:0:
192,192,133623,1,0,0:0:0:0:
448,192,133623,1,0,0:0:0:0:
64,192,133710,1,0,0:0:0:0:
448,192,133796,1,0,0:0:0:0:
320,192,133796,1,0,0:0:0:0:
192,192,133854,1,0,0:0:0:0:
64,192,133912,1,0,0:0:0:0:
320,192,133970,1,0,0:0:0:0:
64,192,134057,1,0,0:0:0:0:
448,192,134057,1,0,0:0:0:0:
192,192,134143,1,0,0:0:0:0:
448,192,134230,1,0,0:0:0:0:
320,192,134230,1,0,0:0:0:0:
192,192,134317,1,0,0:0:0:0:
448,192,134317,1,0,0:0:0:0:
64,192,134317,1,0,0:0:0:0:
320,192,134374,1,0,0:0:0:0:
192,192,134432,1,0,0:0:0:0:
64,192,134490,1,0,0:0:0:0:
320,192,134548,1,0,0:0:0:0:
448,192,134606,1,0,0:0:0:0:
64,192,134663,1,0,0:0:0:0:
192,192,134663,1,0,0:0:0:0:
320,192,134663,1,0,0:0:0:0:
448,192,134750,1,0,0:0:0:0:
64,192,134837,1,0,0:0:0:0:
192,192,134895,1,0,0:0:0:0:
320,192,134952,1,0,0:0:0:0:
64,192,135010,1,0,0:0:0:0:
448,192,135010,1,0,0:0:0:0:
192,192,135010,1,0,0:0:0:0:
192,192,135097,1,0,0:0:0:0:
320,192,135184,1,0,0:0:0:0:
448,192,135184,1,0,0:0:0:0:
64,192,135184,1,0,0:0:0:0:
320,192,135270,1,0,0:0:0:0:
192,192,135357,1,0,0:0:0:0:
448,192,135357,1,0,0:0:0:0:
64,192,135357,1,0,0:0:0:0:
448,192,135444,1,0,0:0:0:0:
192,192,135530,1,0,0:0:0:0:
320,192,135530,1,0,0:0:0:0:
64,192,135530,1,0,0:0:0:0:
320,192,135617,1,0,0:0:0:0:
448,192,135704,1,0,0:0:0:0:
192,192,135704,1,0,0:0:0:0:
64,192,135704,1,0,0:0:0:0:
64,192,135791,1,0,0:0:0:0:
448,192,135877,1,0,0:0:0:0:
320,192,135877,1,0,0:0:0:0:
192,192,135877,1,0,0:0:0:0:
64,192,135964,1,0,0:0:0:0:
448,192,136051,1,0,0:0:0:0:
320,192,136051,1,0,0:0:0:0:
192,192,136109,1,0,0:0:0:0:
64,192,136166,1,0,0:0:0:0:
448,192,136224,1,0,0:0:0:0:
192,192,136282,1,0,0:0:0:0:
320,192,136340,1,0,0:0:0:0:
448,192,136398,1,0,0:0:0:0:
192,192,136398,1,0,0:0:0:0:
64,192,136398,1,0,0:0:0:0:
64,192,136484,1,0,0:0:0:0:
192,192,136571,1,0,0:0:0:0:
448,192,136571,1,0,0:0:0:0:
64,192,136658,1,0,0:0:0:0:
320,192,136701,1,0,0:0:0:0:
448,192,136744,1,0,0:0:0:0:
64,192,136831,1,0,0:0:0:0:
192,192,136831,1,0,0:0:0:0:
192,192,136918,1,0,0:0:0:0:
448,192,136918,1,0,0:0:0:0:
64,192,137004,1,0,0:0:0:0:
320,192,137004,1,0,0:0:0:0:
448,192,137091,1,0,0:0:0:0:
320,192,137091,1,0,0:0:0:0:
64,192,137178,1,0,0:0:0:0:
192,192,137178,1,0,0:0:0:0:
320,192,137265,1,0,0:0:0:0:
64,192,137351,1,0,0:0:0:0:
448,192,137438,1,0,0:0:0:0:
192,192,137438,128,0,137525:0:0:0:0:
320,192,137525,1,0,0:0:0:0:
448,192,137611,128,0,137655:0:0:0:0:
320,192,137655,128,0,137698:0:0:0:0:
64,192,137698,128,0,137741:0:0:0:0:
192,192,137741,128,0,137785:0:0:0:0:
448,192,137785,1,0,0:0:0:0:
320,192,137785,1,0,0:0:0:0:
320,192,137872,1,0,0:0:0:0:
448,192,137958,1,0,0:0:0:0:
64,192,137958,128,0,138016:0:0:0:0:
192,192,138016,1,0,0:0:0:0:
448,192,138074,128,0,138132:0:0:0:0:
320,192,138074,1,0,0:0:0:0:
64,192,138132,1,0,0:0:0:0:
192,192,138189,1,0,0:0:0:0:
320,192,138247,128,0,138305:0:0:0:0:
64,192,138305,1,0,0:0:0:0:
192,192,138392,1,0,0:0:0:0:
448,192,138392,1,0,0:0:0:0:
320,192,138478,1,0,0:0:0:0:
64,192,138478,1,0,0:0:0:0:
448,192,138478,1,0,0:0:0:0:
192,192,138536,1,0,0:0:0:0:
320,192,138594,1,0,0:0:0:0:
64,192,138652,1,0,0:0:0:0:
192,192,138710,1,0,0:0:0:0:
320,192,138767,1,0,0:0:0:0:
64,192,138825,1,0,0:0:0:0:
192,192,138825,1,0,0:0:0:0:
448,192,138825,1,0,0:0:0:0:
320,192,138912,1,0,0:0:0:0:
64,192,138999,1,0,0:0:0:0:
192,192,139057,1,0,0:0:0:0:
448,192,139114,1,0,0:0:0:0:
192,192,139172,1,0,0:0:0:0:
320,192,139172,1,0,0:0:0:0:
64,192,139172,1,0,0:0:0:0:
448,192,139259,1,0,0:0:0:0:
64,192,139346,1,0,0:0:0:0:
192,192,139346,1,0,0:0:0:0:
320,192,139432,1,0,0:0:0:0:
64,192,139519,1,0,0:0:0:0:
320,192,139606,1,0,0:0:0:0:
448,192,139606,1,0,0:0:0:0:
192,192,139692,1,0,0:0:0:0:
320,192,139779,1,0,0:0:0:0:
64,192,139779,1,0,0:0:0:0:
448,192,139866,1,0,0:0:0:0:
192,192,139866,1,0,0:0:0:0:
64,192,139866,1,0,0:0:0:0:
320,192,139924,1,0,0:0:0:0:
192,192,139981,1,0,0:0:0:0:
448,192,140039,1,0,0:0:0:0:
320,192,140097,1,0,0:0:0:0:
192,192,140155,1,0,0:0:0:0:
320,192,140213,1,0,0:0:0:0:
448,192,140213,1,0,0:0:0:0:
64,192,140213,1,0,0:0:0:0:
192,192,140299,1,0,0:0:0:0:
64,192,140386,1,0,0:0:0:0:
448,192,140444,1,0,0:0:0:0:
192,192,140502,1,0,0:0:0:0:
320,192,140559,1,0,0:0:0:0:
448,192,140559,1,0,0:0:0:0:
64,192,140559,1,0,0:0:0:0:
320,192,140646,1,0,0:0:0:0:
64,192,140733,1,0,0:0:0:0:
448,192,140733,1,0,0:0:0:0:
192,192,140733,1,0,0:0:0:0:
64,192,140820,1,0,0:0:0:0:
448,192,140906,1,0,0:0:0:0:
192,192,140906,1,0,0:0:0:0:
320,192,140906,1,0,0:0:0:0:
192,192,140993,1,0,0:0:0:0:
320,192,141080,1,0,0:0:0:0:
448,192,141080,1,0,0:0:0:0:
64,192,141080,1,0,0:0:0:0:
320,192,141166,1,0,0:0:0:0:
448,192,141253,1,0,0:0:0:0:
192,192,141253,1,0,0:0:0:0:
64,192,141253,1,0,0:0:0:0:
64,192,141340,1,0,0:0:0:0:
320,192,141426,1,0,0:0:0:0:
448,192,141426,1,0,0:0:0:0:
192,192,141484,1,0,0:0:0:0:
448,192,141542,1,0,0:0:0:0:
64,192,141600,1,0,0:0:0:0:
320,192,141600,1,0,0:0:0:0:
192,192,141658,1,0,0:0:0:0:
320,192,141715,1,0,0:0:0:0:
192,192,141773,1,0,0:0:0:0:
448,192,141860,1,0,0:0:0:0:
64,192,141860,1,0,0:0:0:0:
192,192,141947,1,0,0:0:0:0:
64,192,141947,1,0,0:0:0:0:
320,192,141947,1,0,0:0:0:0:
448,192,142033,1,0,0:0:0:0:
64,192,142120,1,0,0:0:0:0:
192,192,142120,1,0,0:0:0:0:
320,192,142207,1,0,0:0:0:0:
192,192,142250,1,0,0:0:0:0:
64,192,142294,1,0,0:0:0:0:
320,192,142337,1,0,0:0:0:0:
192,192,142380,1,0,0:0:0:0:
448,192,142380,1,0,0:0:0:0:
64,192,142467,1,0,0:0:0:0:
320,192,142554,1,0,0:0:0:0:
448,192,142554,1,0,0:0:0:0:
448,192,142640,1,0,0:0:0:0:
192,192,142640,1,0,0:0:0:0:
64,192,142640,1,0,0:0:0:0:
320,192,142727,1,0,0:0:0:0:
192,192,142814,1,0,0:0:0:0:
64,192,142900,1,0,0:0:0:0:
192,192,142987,1,0,0:0:0:0:
320,192,142987,1,0,0:0:0:0:
448,192,142987,1,0,0:0:0:0:
64,192,143103,1,0,0:0:0:0:
320,192,143161,1,0,0:0:0:0:
192,192,143218,1,0,0:0:0:0:
448,192,143276,1,0,0:0:0:0:
64,192,143334,1,0,0:0:0:0:
320,192,143334,1,0,0:0:0:0:
192,192,143334,1,0,0:0:0:0:
448,192,143421,1,0,0:0:0:0:
320,192,143507,1,0,0:0:0:0:
64,192,143507,1,0,0:0:0:0:
192,192,143594,1,0,0:0:0:0:
320,192,143637,1,0,0:0:0:0:
448,192,143681,1,0,0:0:0:0:
64,192,143724,1,0,0:0:0:0:
320,192,143767,1,0,0:0:0:0:
192,192,143767,1,0,0:0:0:0:
64,192,143898,128,0,143941:0:0:0:0:
320,192,143898,1,0,0:0:0:0:
192,192,143984,128,0,144028:0:0:0:0:
448,192,143984,1,0,0:0:0:0:
320,192,144071,128,0,144114:0:0:0:0:
64,192,144071,1,0,0:0:0:0:
448,192,144158,128,0,144201:0:0:0:0:
192,192,144158,1,0,0:0:0:0:
64,192,144244,128,0,144288:0:0:0:0:
320,192,144244,1,0,0:0:0:0:
448,192,144331,1,0,0:0:0:0:
320,192,144374,1,0,0:0:0:0:
192,192,144374,1,0,0:0:0:0:
64,192,144374,1,0,0:0:0:0:
448,192,144461,1,0,0:0:0:0:
192,192,144548,1,0,0:0:0:0:
64,192,144606,1,0,0:0:0:0:
448,192,144663,1,0,0:0:0:0:
320,192,144721,1,0,0:0:0:0:
192,192,144721,1,0,0:0:0:0:
64,192,144721,1,0,0:0:0:0:
448,192,144808,1,0,0:0:0:0:
64,192,144895,1,0,0:0:0:0:
192,192,144895,1,0,0:0:0:0:
320,192,144952,1,0,0:0:0:0:
448,192,145010,1,0,0:0:0:0:
64,192,145068,1,0,0:0:0:0:
320,192,145155,1,0,0:0:0:0:
192,192,145155,1,0,0:0:0:0:
448,192,145241,1,0,0:0:0:0:
192,192,145328,1,0,0:0:0:0:
64,192,145328,1,0,0:0:0:0:
64,192,145415,1,0,0:0:0:0:
320,192,145415,1,0,0:0:0:0:
448,192,145415,1,0,0:0:0:0:
192,192,145502,1,0,0:0:0:0:
320,192,145530,1,0,0:0:0:0:
64,192,145588,1,0,0:0:0:0:
448,192,145646,1,0,0:0:0:0:
192,192,145704,1,0,0:0:0:0:
448,192,145762,1,0,0:0:0:0:
320,192,145762,1,0,0:0:0:0:
192,192,145848,1,0,0:0:0:0:
64,192,145935,1,0,0:0:0:0:
320,192,145993,1,0,0:0:0:0:
192,192,146051,1,0,0:0:0:0:
64,192,146109,1,0,0:0:0:0:
320,192,146109,1,0,0:0:0:0:
448,192,146109,1,0,0:0:0:0:
320,192,146195,1,0,0:0:0:0:
64,192,146282,1,0,0:0:0:0:
448,192,146282,1,0,0:0:0:0:
192,192,146282,1,0,0:0:0:0:
64,192,146369,1,0,0:0:0:0:
448,192,146455,1,0,0:0:0:0:
192,192,146455,1,0,0:0:0:0:
320,192,146455,1,0,0:0:0:0:
320,192,146542,1,0,0:0:0:0:
64,192,146629,1,0,0:0:0:0:
448,192,146629,1,0,0:0:0:0:
192,192,146629,1,0,0:0:0:0:
192,192,146715,1,0,0:0:0:0:
64,192,146802,1,0,0:0:0:0:
320,192,146802,1,0,0:0:0:0:
448,192,146802,1,0,0:0:0:0:
320,192,146889,1,0,0:0:0:0:
64,192,146976,1,0,0:0:0:0:
448,192,146976,1,0,0:0:0:0:
192,192,146976,1,0,0:0:0:0:
192,192,147062,1,0,0:0:0:0:
320,192,147062,1,0,0:0:0:0:
448,192,147149,1,0,0:0:0:0:
64,192,147149,1,0,0:0:0:0:
320,192,147149,1,0,0:0:0:0:
192,192,147236,1,0,0:0:0:0:
448,192,147322,1,0,0:0:0:0:
64,192,147380,1,0,0:0:0:0:
320,192,147438,1,0,0:0:0:0:
448,192,147496,1,0,0:0:0:0:
192,192,147496,1,0,0:0:0:0:
64,192,147496,1,0,0:0:0:0:
320,192,147583,1,0,0:0:0:0:
192,192,147669,1,0,0:0:0:0:
64,192,147669,1,0,0:0:0:0:
448,192,147727,1,0,0:0:0:0:
320,192,147785,1,0,0:0:0:0:
192,192,147843,1,0,0:0:0:0:
320,192,147929,1,0,0:0:0:0:
64,192,147929,1,0,0:0:0:0:
448,192,148016,1,0,0:0:0:0:
320,192,148103,1,0,0:0:0:0:
192,192,148103,1,0,0:0:0:0:
448,192,148189,1,0,0:0:0:0:
320,192,148189,1,0,0:0:0:0:
64,192,148189,1,0,0:0:0:0:
192,192,148276,1,0,0:0:0:0:
448,192,148363,1,0,0:0:0:0:
192,192,148450,1,0,0:0:0:0:
448,192,148536,1,0,0:0:0:0:
320,192,148536,1,0,0:0:0:0:
64,192,148536,128,0,148652:0:0:0:0:
192,192,148594,1,0,0:0:0:0:
448,192,148652,1,0,0:0:0:0:
320,192,148710,1,0,0:0:0:0:
192,192,148767,1,0,0:0:0:0:
448,192,148796,128,0,148883:0:0:0:0:
64,192,148825,1,0,0:0:0:0:
320,192,148883,1,0,0:0:0:0:
192,192,148883,1,0,0:0:0:0:
64,192,148970,1,0,0:0:0:0:
448,192,149057,1,0,0:0:0:0:
64,192,149057,128,0,149143:0:0:0:0:
192,192,149143,128,0,149230:0:0:0:0:
320,192,149172,1,0,0:0:0:0:
448,192,149230,1,0,0:0:0:0:
64,192,149288,1,0,0:0:0:0:
192,192,149317,1,0,0:0:0:0:
320,192,149317,1,0,0:0:0:0:
448,192,149403,1,0,0:0:0:0:
192,192,149490,1,0,0:0:0:0:
64,192,149490,1,0,0:0:0:0:
320,192,149577,1,0,0:0:0:0:
448,192,149577,1,0,0:0:0:0:
64,192,149577,1,0,0:0:0:0:
192,192,149635,1,0,0:0:0:0:
320,192,149692,1,0,0:0:0:0:
64,192,149750,1,0,0:0:0:0:
448,192,149808,1,0,0:0:0:0:
192,192,149866,1,0,0:0:0:0:
320,192,149924,1,0,0:0:0:0:
448,192,149924,1,0,0:0:0:0:
64,192,149924,1,0,0:0:0:0:
192,192,150010,1,0,0:0:0:0:
448,192,150097,1,0,0:0:0:0:
320,192,150155,1,0,0:0:0:0:
64,192,150213,1,0,0:0:0:0:
192,192,150270,1,0,0:0:0:0:
448,192,150270,1,0,0:0:0:0:
320,192,150270,1,0,0:0:0:0:
64,192,150357,1,0,0:0:0:0:
320,192,150444,1,0,0:0:0:0:
448,192,150444,1,0,0:0:0:0:
192,192,150502,1,0,0:0:0:0:
64,192,150559,1,0,0:0:0:0:
320,192,150617,1,0,0:0:0:0:
192,192,150704,1,0,0:0:0:0:
448,192,150704,1,0,0:0:0:0:
64,192,150791,1,0,0:0:0:0:
192,192,150877,1,0,0:0:0:0:
320,192,150877,1,0,0:0:0:0:
448,192,150964,1,0,0:0:0:0:
320,192,150964,1,0,0:0:0:0:
64,192,150964,1,0,0:0:0:0:
192,192,151022,1,0,0:0:0:0:
448,192,151080,1,0,0:0:0:0:
320,192,151137,1,0,0:0:0:0:
192,192,151195,1,0,0:0:0:0:
448,192,151253,1,0,0:0:0:0:
320,192,151311,1,0,0:0:0:0:
64,192,151311,1,0,0:0:0:0:
192,192,151311,1,0,0:0:0:0:
448,192,151398,1,0,0:0:0:0:
192,192,151484,1,0,0:0:0:0:
320,192,151542,1,0,0:0:0:0:
64,192,151571,1,0,0:0:0:0:
448,192,151571,1,0,0:0:0:0:
64,192,151658,1,0,0:0:0:0:
448,192,151658,1,0,0:0:0:0:
192,192,151658,1,0,0:0:0:0:
192,192,151744,1,0,0:0:0:0:
320,192,151831,1,0,0:0:0:0:
448,192,151831,1,0,0:0:0:0:
64,192,151831,1,0,0:0:0:0:
320,192,151918,1,0,0:0:0:0:
192,192,152004,1,0,0:0:0:0:
448,192,152004,1,0,0:0:0:0:
64,192,152004,1,0,0:0:0:0:
448,192,152091,1,0,0:0:0:0:
192,192,152178,1,0,0:0:0:0:
320,192,152178,1,0,0:0:0:0:
64,192,152178,1,0,0:0:0:0:
320,192,152265,1,0,0:0:0:0:
448,192,152351,1,0,0:0:0:0:
192,192,152351,1,0,0:0:0:0:
64,192,152351,1,0,0:0:0:0:
64,192,152438,1,0,0:0:0:0:
448,192,152525,1,0,0:0:0:0:
320,192,152525,1,0,0:0:0:0:
192,192,152525,1,0,0:0:0:0:
64,192,152611,1,0,0:0:0:0:
320,192,152611,1,0,0:0:0:0:
448,192,152698,1,0,0:0:0:0:
64,192,152698,1,0,0:0:0:0:
192,192,152698,1,0,0:0:0:0:
320,192,152785,1,0,0:0:0:0:
64,192,152872,1,0,0:0:0:0:
448,192,152929,1,0,0:0:0:0:
192,192,152987,1,0,0:0:0:0:
320,192,153045,1,0,0:0:0:0:
64,192,153045,1,0,0:0:0:0:
448,192,153045,1,0,0:0:0:0:
192,192,153132,1,0,0:0:0:0:
320,192,153218,1,0,0:0:0:0:
448,192,153218,1,0,0:0:0:0:
192,192,153334,1,0,0:0:0:0:
320,192,153392,1,0,0:0:0:0:
448,192,153450,1,0,0:0:0:0:
192,192,153478,1,0,0:0:0:0:
64,192,153478,1,0,0:0:0:0:
320,192,153565,1,0,0:0:0:0:
192,192,153652,1,0,0:0:0:0:
448,192,153652,1,0,0:0:0:0:
448,192,153739,1,0,0:0:0:0:
320,192,153739,1,0,0:0:0:0:
64,192,153739,1,0,0:0:0:0:
192,192,153825,1,0,0:0:0:0:
320,192,153912,1,0,0:0:0:0:
192,192,153999,1,0,0:0:0:0:
448,192,154085,1,0,0:0:0:0:
320,192,154085,1,0,0:0:0:0:
64,192,154085,1,0,0:0:0:0:
192,192,154172,128,0,154259:0:0:0:0:
448,192,154259,1,0,0:0:0:0:
320,192,154317,1,0,0:0:0:0:
64,192,154374,1,0,0:0:0:0:
320,192,154432,1,0,0:0:0:0:
192,192,154432,1,0,0:0:0:0:
448,192,154432,1,0,0:0:0:0:
64,192,154490,5,0,0:0:0:0:
448,192,154548,1,0,0:0:0:0:
192,192,154606,1,0,0:0:0:0:
320,192,154606,1,0,0:0:0:0:
64,192,154721,128,0,154779:0:0:0:0:
448,192,154779,128,0,154837:0:0:0:0:
320,192,154779,1,0,0:0:0:0:
64,192,154895,128,0,154952:0:0:0:0:
192,192,154895,1,0,0:0:0:0:
320,192,154952,1,0,0:0:0:0:
192,192,155010,128,0,155068:0:0:0:0:
448,192,155010,1,0,0:0:0:0:
320,192,155068,128,0,155126:0:0:0:0:
64,192,155068,1,0,0:0:0:0:
448,192,155126,128,0,155184:0:0:0:0:
192,192,155241,128,0,155299:0:0:0:0:
320,192,155357,128,0,155415:0:0:0:0:
64,192,155473,1,0,0:0:0:0:
448,192,155473,1,0,0:0:0:0:
192,192,155646,5,0,0:0:0:0:
448,192,155689,1,0,0:0:0:0:
64,192,155733,1,0,0:0:0:0:
320,192,155791,1,0,0:0:0:0:
64,192,155820,1,0,0:0:0:0:
448,192,155820,1,0,0:0:0:0:
192,192,155848,1,0,0:0:0:0:
320,192,155906,1,0,0:0:0:0:
448,192,155964,1,0,0:0:0:0:
64,192,155993,1,0,0:0:0:0:
192,192,155993,1,0,0:0:0:0:
320,192,156022,1,0,0:0:0:0:
448,192,156080,1,0,0:0:0:0:
192,192,156137,1,0,0:0:0:0:
64,192,156195,1,0,0:0:0:0:
320,192,156253,1,0,0:0:0:0:
448,192,156253,1,0,0:0:0:0:
192,192,156311,1,0,0:0:0:0:
64,192,156369,1,0,0:0:0:0:
320,192,156426,1,0,0:0:0:0:
448,192,156426,1,0,0:0:0:0:
64,192,156484,1,0,0:0:0:0:
320,192,156513,1,0,0:0:0:0:
448,192,156513,1,0,0:0:0:0:
192,192,156542,1,0,0:0:0:0:
448,192,156600,1,0,0:0:0:0:
320,192,156658,1,0,0:0:0:0:
192,192,156715,1,0,0:0:0:0:
448,192,156773,1,0,0:0:0:0:
64,192,156817,1,0,0:0:0:0:
192,192,156860,1,0,0:0:0:0:
320,192,156860,1,0,0:0:0:0:
64,192,156947,1,0,0:0:0:0:
192,192,157033,1,0,0:0:0:0:
448,192,157091,1,0,0:0:0:0:
320,192,157149,1,0,0:0:0:0:
64,192,157207,1,0,0:0:0:0:
192,192,157207,1,0,0:0:0:0:
448,192,157294,1,0,0:0:0:0:
64,192,157322,1,0,0:0:0:0:
192,192,157380,1,0,0:0:0:0:
320,192,157380,1,0,0:0:0:0:
64,192,157467,1,0,0:0:0:0:
192,192,157525,1,0,0:0:0:0:
448,192,157583,1,0,0:0:0:0:
192,192,157640,1,0,0:0:0:0:
320,192,157640,1,0,0:0:0:0:
64,192,157727,1,0,0:0:0:0:
448,192,157727,1,0,0:0:0:0:
192,192,157814,1,0,0:0:0:0:
320,192,157814,1,0,0:0:0:0:
320,192,157900,1,0,0:0:0:0:
448,192,157900,1,0,0:0:0:0:
64,192,157958,1,0,0:0:0:0:
192,192,158016,1,0,0:0:0:0:
448,192,158074,1,0,0:0:0:0:
320,192,158117,1,0,0:0:0:0:
64,192,158161,1,0,0:0:0:0:
192,192,158204,1,0,0:0:0:0:
320,192,158247,1,0,0:0:0:0:
448,192,158247,1,0,0:0:0:0:
64,192,158334,1,0,0:0:0:0:
320,192,158421,1,0,0:0:0:0:
192,192,158478,1,0,0:0:0:0:
448,192,158536,1,0,0:0:0:0:
64,192,158594,1,0,0:0:0:0:
320,192,158594,1,0,0:0:0:0:
448,192,158681,1,0,0:0:0:0:
64,192,158739,1,0,0:0:0:0:
192,192,158767,1,0,0:0:0:0:
320,192,158767,1,0,0:0:0:0:
448,192,158854,1,0,0:0:0:0:
64,192,158912,1,0,0:0:0:0:
448,192,158970,1,0,0:0:0:0:
192,192,159028,1,0,0:0:0:0:
320,192,159028,1,0,0:0:0:0:
64,192,159114,1,0,0:0:0:0:
448,192,159172,1,0,0:0:0:0:
192,192,159201,1,0,0:0:0:0:
320,192,159201,1,0,0:0:0:0:
192,192,159288,1,0,0:0:0:0:
448,192,159288,1,0,0:0:0:0:
64,192,159346,1,0,0:0:0:0:
320,192,159374,1,0,0:0:0:0:
448,192,159418,1,0,0:0:0:0:
192,192,159461,1,0,0:0:0:0:
64,192,159504,1,0,0:0:0:0:
448,192,159548,1,0,0:0:0:0:
320,192,159591,1,0,0:0:0:0:
64,192,159635,1,0,0:0:0:0:
192,192,159635,1,0,0:0:0:0:
320,192,159721,1,0,0:0:0:0:
448,192,159808,1,0,0:0:0:0:
64,192,159866,1,0,0:0:0:0:
320,192,159895,1,0,0:0:0:0:
192,192,159924,1,0,0:0:0:0:
320,192,159981,1,0,0:0:0:0:
448,192,159981,1,0,0:0:0:0:
64,192,160039,1,0,0:0:0:0:
192,192,160068,1,0,0:0:0:0:
64,192,160155,1,0,0:0:0:0:
448,192,160155,1,0,0:0:0:0:
320,192,160241,1,0,0:0:0:0:
192,192,160299,1,0,0:0:0:0:
320,192,160357,1,0,0:0:0:0:
64,192,160415,1,0,0:0:0:0:
448,192,160415,1,0,0:0:0:0:
192,192,160502,1,0,0:0:0:0:
320,192,160502,1,0,0:0:0:0:
64,192,160588,1,0,0:0:0:0:
448,192,160588,1,0,0:0:0:0:
192,192,160675,1,0,0:0:0:0:
448,192,160675,1,0,0:0:0:0:
64,192,160733,1,0,0:0:0:0:
320,192,160805,1,0,0:0:0:0:
448,192,160848,1,0,0:0:0:0:
64,192,160892,1,0,0:0:0:0:
192,192,160935,1,0,0:0:0:0:
320,192,160978,1,0,0:0:0:0:
64,192,161022,1,0,0:0:0:0:
448,192,161022,1,0,0:0:0:0:
192,192,161109,1,0,0:0:0:0:
320,192,161195,1,0,0:0:0:0:
64,192,161253,1,0,0:0:0:0:
448,192,161311,1,0,0:0:0:0:
192,192,161369,1,0,0:0:0:0:
320,192,161369,1,0,0:0:0:0:
64,192,161455,1,0,0:0:0:0:
192,192,161484,1,0,0:0:0:0:
320,192,161542,1,0,0:0:0:0:
448,192,161542,1,0,0:0:0:0:
64,192,161629,1,0,0:0:0:0:
448,192,161687,1,0,0:0:0:0:
64,192,161744,1,0,0:0:0:0:
320,192,161802,1,0,0:0:0:0:
448,192,161802,1,0,0:0:0:0:
192,192,161889,1,0,0:0:0:0:
64,192,161947,1,0,0:0:0:0:
320,192,161976,1,0,0:0:0:0:
448,192,161976,1,0,0:0:0:0:
64,192,162062,1,0,0:0:0:0:
192,192,162062,1,0,0:0:0:0:
448,192,162120,1,0,0:0:0:0:
64,192,162149,128,0,162192:0:0:0:0:
320,192,162192,1,0,0:0:0:0:
192,192,162236,1,0,0:0:0:0:
64,192,162279,1,0,0:0:0:0:
448,192,162322,1,0,0:0:0:0:
320,192,162366,1,0,0:0:0:0:
64,192,162409,1,0,0:0:0:0:
448,192,162409,1,0,0:0:0:0:
192,192,162496,1,0,0:0:0:0:
448,192,162583,1,0,0:0:0:0:
192,192,162640,1,0,0:0:0:0:
64,192,162698,1,0,0:0:0:0:
192,192,162756,1,0,0:0:0:0:
448,192,162756,1,0,0:0:0:0:
320,192,162843,1,0,0:0:0:0:
192,192,162872,1,0,0:0:0:0:
64,192,162929,1,0,0:0:0:0:
448,192,162929,1,0,0:0:0:0:
320,192,163016,128,0,163059:0:0:0:0:
192,192,163059,128,0,163103:0:0:0:0:
320,192,163103,128,0,163161:0:0:0:0:
64,192,163189,1,0,0:0:0:0:
448,192,163189,1,0,0:0:0:0:
64,192,163276,1,0,0:0:0:0:
192,192,163276,1,0,0:0:0:0:
64,192,163363,1,0,0:0:0:0:
448,192,163363,1,0,0:0:0:0:
192,192,163450,1,0,0:0:0:0:
320,192,163450,1,0,0:0:0:0:
64,192,163507,1,0,0:0:0:0:
320,192,163536,128,0,163580:0:0:0:0:
192,192,163580,1,0,0:0:0:0:
448,192,163623,1,0,0:0:0:0:
64,192,163666,1,0,0:0:0:0:
448,192,163710,1,0,0:0:0:0:
320,192,163753,1,0,0:0:0:0:
64,192,163796,1,0,0:0:0:0:
192,192,163796,1,0,0:0:0:0:
448,192,163883,1,0,0:0:0:0:
192,192,163970,1,0,0:0:0:0:
448,192,164028,1,0,0:0:0:0:
64,192,164085,1,0,0:0:0:0:
192,192,164143,1,0,0:0:0:0:
320,192,164143,1,0,0:0:0:0:
448,192,164230,1,0,0:0:0:0:
320,192,164259,1,0,0:0:0:0:
64,192,164317,1,0,0:0:0:0:
192,192,164317,1,0,0:0:0:0:
320,192,164403,1,0,0:0:0:0:
64,192,164461,1,0,0:0:0:0:
320,192,164519,1,0,0:0:0:0:
64,192,164577,1,0,0:0:0:0:
192,192,164577,1,0,0:0:0:0:
448,192,164663,1,0,0:0:0:0:
320,192,164721,1,0,0:0:0:0:
64,192,164750,1,0,0:0:0:0:
192,192,164750,1,0,0:0:0:0:
320,192,164837,1,0,0:0:0:0:
448,192,164837,1,0,0:0:0:0:
64,192,164895,1,0,0:0:0:0:
448,192,164924,128,0,164967:0:0:0:0:
192,192,164967,1,0,0:0:0:0:
320,192,165010,1,0,0:0:0:0:
64,192,165054,1,0,0:0:0:0:
192,192,165097,1,0,0:0:0:0:
320,192,165140,1,0,0:0:0:0:
64,192,165184,1,0,0:0:0:0:
448,192,165184,1,0,0:0:0:0:
192,192,165270,1,0,0:0:0:0:
320,192,165357,1,0,0:0:0:0:
192,192,165415,1,0,0:0:0:0:
448,192,165444,1,0,0:0:0:0:
64,192,165473,1,0,0:0:0:0:
320,192,165530,1,0,0:0:0:0:
448,192,165530,1,0,0:0:0:0:
192,192,165617,1,0,0:0:0:0:
320,192,165646,1,0,0:0:0:0:
64,192,165704,1,0,0:0:0:0:
448,192,165704,1,0,0:0:0:0:
192,192,165791,1,0,0:0:0:0:
320,192,165848,1,0,0:0:0:0:
192,192,165906,1,0,0:0:0:0:
64,192,165964,1,0,0:0:0:0:
448,192,165964,1,0,0:0:0:0:
192,192,166051,1,0,0:0:0:0:
320,192,166051,1,0,0:0:0:0:
64,192,166137,1,0,0:0:0:0:
448,192,166137,1,0,0:0:0:0:
64,192,166224,1,0,0:0:0:0:
192,192,166224,1,0,0:0:0:0:
448,192,166282,1,0,0:0:0:0:
320,192,166340,1,0,0:0:0:0:
448,192,166398,1,0,0:0:0:0:
192,192,166441,1,0,0:0:0:0:
64,192,166484,1,0,0:0:0:0:
320,192,166528,1,0,0:0:0:0:
64,192,166571,1,0,0:0:0:0:
448,192,166571,1,0,0:0:0:0:
192,192,166658,1,0,0:0:0:0:
320,192,166744,1,0,0:0:0:0:
64,192,166802,1,0,0:0:0:0:
192,192,166860,1,0,0:0:0:0:
64,192,166918,1,0,0:0:0:0:
320,192,166918,1,0,0:0:0:0:
192,192,167004,1,0,0:0:0:0:
320,192,167033,1,0,0:0:0:0:
64,192,167091,1,0,0:0:0:0:
448,192,167091,1,0,0:0:0:0:
320,192,167178,1,0,0:0:0:0:
192,192,167236,1,0,0:0:0:0:
320,192,167294,1,0,0:0:0:0:
64,192,167351,1,0,0:0:0:0:
448,192,167351,1,0,0:0:0:0:
320,192,167438,1,0,0:0:0:0:
192,192,167496,1,0,0:0:0:0:
64,192,167525,1,0,0:0:0:0:
448,192,167525,1,0,0:0:0:0:
192,192,167611,1,0,0:0:0:0:
448,192,167611,1,0,0:0:0:0:
64,192,167669,1,0,0:0:0:0:
192,192,167741,1,0,0:0:0:0:
320,192,167785,1,0,0:0:0:0:
448,192,167828,1,0,0:0:0:0:
64,192,167872,1,0,0:0:0:0:
448,192,167915,1,0,0:0:0:0:
192,192,167958,1,0,0:0:0:0:
320,192,167958,1,0,0:0:0:0:
64,192,168045,1,0,0:0:0:0:
320,192,168132,1,0,0:0:0:0:
64,192,168189,1,0,0:0:0:0:
448,192,168247,1,0,0:0:0:0:
64,192,168305,1,0,0:0:0:0:
192,192,168305,1,0,0:0:0:0:
448,192,168392,1,0,0:0:0:0:
64,192,168421,1,0,0:0:0:0:
192,192,168478,1,0,0:0:0:0:
320,192,168478,1,0,0:0:0:0:
64,192,168565,1,0,0:0:0:0:
448,192,168623,1,0,0:0:0:0:
64,192,168681,1,0,0:0:0:0:
192,192,168739,1,0,0:0:0:0:
320,192,168739,1,0,0:0:0:0:
64,192,168825,1,0,0:0:0:0:
448,192,168825,1,0,0:0:0:0:
192,192,168912,1,0,0:0:0:0:
320,192,168912,1,0,0:0:0:0:
320,192,168999,1,0,0:0:0:0:
448,192,168999,1,0,0:0:0:0:
64,192,169057,1,0,0:0:0:0:
320,192,169114,1,0,0:0:0:0:
192,192,169172,1,0,0:0:0:0:
448,192,169215,1,0,0:0:0:0:
64,192,169259,1,0,0:0:0:0:
448,192,169302,1,0,0:0:0:0:
192,192,169346,1,0,0:0:0:0:
320,192,169346,1,0,0:0:0:0:
448,192,169432,1,0,0:0:0:0:
320,192,169519,1,0,0:0:0:0:
64,192,169577,1,0,0:0:0:0:
448,192,169635,1,0,0:0:0:0:
64,192,169692,1,0,0:0:0:0:
320,192,169692,1,0,0:0:0:0:
448,192,169779,1,0,0:0:0:0:
64,192,169837,1,0,0:0:0:0:
192,192,169866,1,0,0:0:0:0:
320,192,169866,1,0,0:0:0:0:
448,192,169952,1,0,0:0:0:0:
320,192,170010,1,0,0:0:0:0:
64,192,170068,1,0,0:0:0:0:
192,192,170126,1,0,0:0:0:0:
320,192,170126,1,0,0:0:0:0:
64,192,170213,1,0,0:0:0:0:
448,192,170270,1,0,0:0:0:0:
192,192,170299,1,0,0:0:0:0:
320,192,170299,1,0,0:0:0:0:
192,192,170386,1,0,0:0:0:0:
448,192,170386,1,0,0:0:0:0:
64,192,170444,1,0,0:0:0:0:
448,192,170516,1,0,0:0:0:0:
64,192,170559,1,0,0:0:0:0:
192,192,170603,1,0,0:0:0:0:
320,192,170646,1,0,0:0:0:0:
192,192,170689,1,0,0:0:0:0:
64,192,170733,1,0,0:0:0:0:
448,192,170733,1,0,0:0:0:0:
320,192,170820,1,0,0:0:0:0:
448,192,170906,1,0,0:0:0:0:
320,192,170964,1,0,0:0:0:0:
64,192,170993,1,0,0:0:0:0:
192,192,171022,1,0,0:0:0:0:
64,192,171080,1,0,0:0:0:0:
320,192,171080,1,0,0:0:0:0:
192,192,171166,1,0,0:0:0:0:
320,192,171195,1,0,0:0:0:0:
64,192,171253,1,0,0:0:0:0:
448,192,171253,1,0,0:0:0:0:
192,192,171340,1,0,0:0:0:0:
448,192,171398,1,0,0:0:0:0:
320,192,171455,1,0,0:0:0:0:
64,192,171513,1,0,0:0:0:0:
448,192,171513,1,0,0:0:0:0:
192,192,171600,1,0,0:0:0:0:
320,192,171600,1,0,0:0:0:0:
64,192,171687,1,0,0:0:0:0:
448,192,171687,1,0,0:0:0:0:
192,192,171773,1,0,0:0:0:0:
448,192,171773,1,0,0:0:0:0:
64,192,171831,1,0,0:0:0:0:
448,192,171889,1,0,0:0:0:0:
320,192,171903,1,0,0:0:0:0:
192,192,171947,1,0,0:0:0:0:
64,192,171990,1,0,0:0:0:0:
320,192,172033,1,0,0:0:0:0:
192,192,172077,1,0,0:0:0:0:
320,192,172120,1,0,0:0:0:0:
448,192,172120,1,0,0:0:0:0:
64,192,172207,1,0,0:0:0:0:
192,192,172294,1,0,0:0:0:0:
320,192,172351,1,0,0:0:0:0:
64,192,172380,1,0,0:0:0:0:
448,192,172409,1,0,0:0:0:0:
64,192,172467,1,0,0:0:0:0:
192,192,172467,1,0,0:0:0:0:
448,192,172554,1,0,0:0:0:0:
64,192,172583,1,0,0:0:0:0:
320,192,172640,1,0,0:0:0:0:
448,192,172640,1,0,0:0:0:0:
192,192,172727,1,0,0:0:0:0:
448,192,172785,1,0,0:0:0:0:
64,192,172843,1,0,0:0:0:0:
320,192,172900,1,0,0:0:0:0:
448,192,172900,1,0,0:0:0:0:
192,192,172987,1,0,0:0:0:0:
64,192,173045,1,0,0:0:0:0:
320,192,173074,1,0,0:0:0:0:
448,192,173074,1,0,0:0:0:0:
64,192,173161,1,0,0:0:0:0:
192,192,173161,1,0,0:0:0:0:
320,192,173218,1,0,0:0:0:0:
64,192,173247,128,0,173291:0:0:0:0:
448,192,173247,1,0,0:0:0:0:
192,192,173291,1,0,0:0:0:0:
320,192,173334,1,0,0:0:0:0:
448,192,173377,1,0,0:0:0:0:
64,192,173421,1,0,0:0:0:0:
320,192,173464,1,0,0:0:0:0:
64,192,173507,1,0,0:0:0:0:
448,192,173507,1,0,0:0:0:0:
192,192,173594,1,0,0:0:0:0:
320,192,173681,1,0,0:0:0:0:
192,192,173739,1,0,0:0:0:0:
448,192,173796,1,0,0:0:0:0:
192,192,173854,1,0,0:0:0:0:
320,192,173854,1,0,0:0:0:0:
64,192,173941,1,0,0:0:0:0:
320,192,173970,1,0,0:0:0:0:
64,192,174028,1,0,0:0:0:0:
448,192,174028,1,0,0:0:0:0:
320,192,174114,128,0,174158:0:0:0:0:
192,192,174158,128,0,174201:0:0:0:0:
320,192,174201,128,0,174259:0:0:0:0:
64,192,174288,1,0,0:0:0:0:
448,192,174288,1,0,0:0:0:0:
192,192,174374,1,0,0:0:0:0:
320,192,174374,1,0,0:0:0:0:
64,192,174461,1,0,0:0:0:0:
448,192,174461,1,0,0:0:0:0:
320,192,174548,1,0,0:0:0:0:
448,192,174548,1,0,0:0:0:0:
192,192,174635,128,0,174678:0:0:0:0:
64,192,174721,1,0,0:0:0:0:
320,192,174721,1,0,0:0:0:0:
448,192,174808,1,0,0:0:0:0:
192,192,174895,1,0,0:0:0:0:
64,192,174981,1,0,0:0:0:0:
448,192,174981,1,0,0:0:0:0:
192,192,175068,1,0,0:0:0:0:
320,192,175068,1,0,0:0:0:0:
64,192,175155,1,0,0:0:0:0:
448,192,175155,1,0,0:0:0:0:
64,192,175241,1,0,0:0:0:0:
192,192,175241,1,0,0:0:0:0:
320,192,175328,128,0,175372:0:0:0:0:
192,192,175415,1,0,0:0:0:0:
448,192,175415,1,0,0:0:0:0:
64,192,175502,1,0,0:0:0:0:
320,192,175588,1,0,0:0:0:0:
64,192,175675,1,0,0:0:0:0:
448,192,175675,1,0,0:0:0:0:
192,192,175762,1,0,0:0:0:0:
320,192,175762,1,0,0:0:0:0:
64,192,175848,1,0,0:0:0:0:
448,192,175848,1,0,0:0:0:0:
320,192,175935,1,0,0:0:0:0:
448,192,175935,1,0,0:0:0:0:
192,192,176022,128,0,176065:0:0:0:0:
64,192,176109,1,0,0:0:0:0:
320,192,176109,1,0,0:0:0:0:
448,192,176195,1,0,0:0:0:0:
192,192,176282,1,0,0:0:0:0:
64,192,176369,1,0,0:0:0:0:
448,192,176369,1,0,0:0:0:0:
192,192,176455,5,0,0:0:0:0:
320,192,176455,1,0,0:0:0:0:
64,192,176542,1,0,0:0:0:0:
448,192,176542,1,0,0:0:0:0:
64,192,176629,1,0,0:0:0:0:
192,192,176629,1,0,0:0:0:0:
448,192,176715,128,0,176744:0:0:0:0:
64,192,176744,128,0,176773:0:0:0:0:
192,192,176773,128,0,176802:0:0:0:0:
320,192,176802,128,0,176831:0:0:0:0:
448,192,176831,128,0,176860:0:0:0:0:
64,192,176860,128,0,176918:0:0:0:0:
448,192,176918,128,0,176976:0:0:0:0:
64,192,176976,128,0,177033:0:0:0:0:
448,192,177033,128,0,177091:0:0:0:0:
64,192,177091,128,0,177149:0:0:0:0:
448,192,177149,128,0,177452:0:0:0:0:
64,192,177236,128,0,177561:0:0:0:0:
320,192,177322,128,0,177452:0:0:0:0:
192,192,177452,128,0,177561:0:0:0:0:
320,192,177561,1,0,0:0:0:0:
448,192,177561,1,0,0:0:0:0:
64,192,177669,5,0,0:0:0:0:
192,192,177669,1,0,0:0:0:0:
320,192,177756,1,0,0:0:0:0:
192,192,177843,128,0,177886:0:0:0:0:
448,192,177929,1,0,0:0:0:0:
64,192,178016,1,0,0:0:0:0:
192,192,178016,1,0,0:0:0:0:
320,192,178016,1,0,0:0:0:0:
448,192,178103,128,0,178189:0:0:0:0:
192,192,178189,128,0,178276:0:0:0:0:
320,192,178276,128,0,178320:0:0:0:0:
448,192,178320,128,0,178363:0:0:0:0:
64,192,178363,128,0,178406:0:0:0:0:
192,192,178406,128,0,178450:0:0:0:0:
320,192,178450,1,0,0:0:0:0:
64,192,178536,1,0,0:0:0:0:
192,192,178623,1,0,0:0:0:0:
448,192,178623,1,0,0:0:0:0:
64,192,178710,1,0,0:0:0:0:
448,192,178710,1,0,0:0:0:0:
320,192,178710,1,0,0:0:0:0:
192,192,178796,128,0,178926:0:0:0:0:
448,192,178883,128,0,179057:0:0:0:0:
64,192,178926,128,0,179057:0:0:0:0:
320,192,178970,1,0,0:0:0:0:
192,192,179057,1,0,0:0:0:0:
320,192,179143,1,0,0:0:0:0:
448,192,179230,128,0,179317:0:0:0:0:
64,192,179317,1,0,0:0:0:0:
448,192,179403,1,0,0:0:0:0:
320,192,179403,1,0,0:0:0:0:
192,192,179403,1,0,0:0:0:0:
64,192,179490,128,0,179533:0:0:0:0:
320,192,179577,128,0,179620:0:0:0:0:
64,192,179663,128,0,179750:0:0:0:0:
448,192,179750,1,0,0:0:0:0:
192,192,179837,128,0,179880:0:0:0:0:
448,192,179924,128,0,179967:0:0:0:0:
192,192,180010,128,0,180054:0:0:0:0:
320,192,180097,128,0,180184:0:0:0:0:
448,192,180097,1,0,0:0:0:0:
64,192,180097,1,0,0:0:0:0:
192,192,180184,1,0,0:0:0:0:
64,192,180270,1,0,0:0:0:0:
448,192,180270,128,0,180444:0:0:0:0:
320,192,180357,1,0,0:0:0:0:
64,192,180444,1,0,0:0:0:0:
192,192,180444,1,0,0:0:0:0:
320,192,180530,1,0,0:0:0:0:
448,192,180617,128,0,180661:0:0:0:0:
64,192,180704,1,0,0:0:0:0:
448,192,180791,1,0,0:0:0:0:
320,192,180791,1,0,0:0:0:0:
192,192,180791,1,0,0:0:0:0:
64,192,180877,128,0,180964:0:0:0:0:
320,192,180964,128,0,181051:0:0:0:0:
192,192,181051,128,0,181094:0:0:0:0:
64,192,181094,128,0,181137:0:0:0:0:
448,192,181137,128,0,181181:0:0:0:0:
320,192,181181,128,0,181224:0:0:0:0:
192,192,181224,1,0,0:0:0:0:
448,192,181311,1,0,0:0:0:0:
320,192,181398,1,0,0:0:0:0:
64,192,181398,1,0,0:0:0:0:
192,192,181484,1,0,0:0:0:0:
448,192,181484,1,0,0:0:0:0:
64,192,181484,1,0,0:0:0:0:
320,192,181571,128,0,181701:0:0:0:0:
192,192,181658,128,0,181831:0:0:0:0:
448,192,181701,128,0,181831:0:0:0:0:
64,192,181744,1,0,0:0:0:0:
320,192,181831,128,0,181918:0:0:0:0:
64,192,181918,1,0,0:0:0:0:
192,192,182004,1,0,0:0:0:0:
448,192,182091,128,0,182178:0:0:0:0:
64,192,182178,1,0,0:0:0:0:
320,192,182178,1,0,0:0:0:0:
192,192,182178,1,0,0:0:0:0:
448,192,182265,1,0,0:0:0:0:
192,192,182351,128,0,182481:0:0:0:0:
448,192,182438,128,0,182568:0:0:0:0:
64,192,182525,1,0,0:0:0:0:
320,192,182611,128,0,182741:0:0:0:0:
192,192,182698,1,0,0:0:0:0:
64,192,182785,1,0,0:0:0:0:
192,192,182872,1,0,0:0:0:0:
320,192,182872,1,0,0:0:0:0:
448,192,182872,1,0,0:0:0:0:
64,192,182958,128,0,183088:0:0:0:0:
448,192,183045,1,0,0:0:0:0:
320,192,183132,1,0,0:0:0:0:
192,192,183218,1,0,0:0:0:0:
448,192,183218,1,0,0:0:0:0:
64,192,183305,1,0,0:0:0:0:
320,192,183392,128,0,183435:0:0:0:0:
64,192,183478,1,0,0:0:0:0:
320,192,183565,1,0,0:0:0:0:
448,192,183565,1,0,0:0:0:0:
192,192,183565,1,0,0:0:0:0:
64,192,183652,128,0,183739:0:0:0:0:
320,192,183739,128,0,183825:0:0:0:0:
192,192,183825,128,0,183869:0:0:0:0:
448,192,183912,128,0,183955:0:0:0:0:
320,192,183999,1,0,0:0:0:0:
64,192,183999,1,0,0:0:0:0:
448,192,184085,1,0,0:0:0:0:
192,192,184172,1,0,0:0:0:0:
320,192,184172,1,0,0:0:0:0:
192,192,184259,1,0,0:0:0:0:
448,192,184259,1,0,0:0:0:0:
64,192,184259,1,0,0:0:0:0:
320,192,184346,128,0,184476:0:0:0:0:
448,192,184432,128,0,184606:0:0:0:0:
64,192,184476,128,0,184606:0:0:0:0:
192,192,184519,1,0,0:0:0:0:
320,192,184606,1,0,0:0:0:0:
192,192,184692,1,0,0:0:0:0:
64,192,184779,1,0,0:0:0:0:
448,192,184866,1,0,0:0:0:0:
320,192,184952,1,0,0:0:0:0:
64,192,184952,1,0,0:0:0:0:
192,192,184952,1,0,0:0:0:0:
448,192,185039,128,0,185083:0:0:0:0:
192,192,185126,128,0,185169:0:0:0:0:
448,192,185213,128,0,185299:0:0:0:0:
64,192,185299,1,0,0:0:0:0:
320,192,185386,128,0,185429:0:0:0:0:
64,192,185473,128,0,185516:0:0:0:0:
320,192,185559,128,0,185603:0:0:0:0:
192,192,185646,1,0,0:0:0:0:
64,192,185646,1,0,0:0:0:0:
448,192,185646,1,0,0:0:0:0:
320,192,185820,1,0,0:0:0:0:
64,192,185820,128,0,185993:0:0:0:0:
448,192,185906,128,0,185993:0:0:0:0:
192,192,185993,1,0,0:0:0:0:
320,192,185993,1,0,0:0:0:0:
64,192,186080,1,0,0:0:0:0:
192,192,186166,128,0,186210:0:0:0:0:
448,192,186253,1,0,0:0:0:0:
320,192,186340,1,0,0:0:0:0:
64,192,186340,1,0,0:0:0:0:
192,192,186340,1,0,0:0:0:0:
448,192,186426,128,0,186513:0:0:0:0:
192,192,186513,128,0,186600:0:0:0:0:
320,192,186600,128,0,186643:0:0:0:0:
448,192,186643,128,0,186687:0:0:0:0:
64,192,186687,128,0,186730:0:0:0:0:
192,192,186730,128,0,186773:0:0:0:0:
320,192,186773,1,0,0:0:0:0:
64,192,186860,1,0,0:0:0:0:
448,192,186947,1,0,0:0:0:0:
192,192,186947,1,0,0:0:0:0:
448,192,187033,1,0,0:0:0:0:
64,192,187033,1,0,0:0:0:0:
320,192,187033,1,0,0:0:0:0:
192,192,187120,128,0,187250:0:0:0:0:
320,192,187207,128,0,187380:0:0:0:0:
64,192,187250,128,0,187380:0:0:0:0:
448,192,187294,1,0,0:0:0:0:
192,192,187380,1,0,0:0:0:0:
448,192,187467,1,0,0:0:0:0:
320,192,187554,1,0,0:0:0:0:
64,192,187640,128,0,187684:0:0:0:0:
192,192,187727,1,0,0:0:0:0:
448,192,187727,1,0,0:0:0:0:
320,192,187727,1,0,0:0:0:0:
64,192,187814,1,0,0:0:0:0:
448,192,187900,128,0,187987:0:0:0:0:
192,192,187944,128,0,188030:0:0:0:0:
320,192,187987,128,0,188074:0:0:0:0:
64,192,188030,128,0,188117:0:0:0:0:
448,192,188074,128,0,188161:0:0:0:0:
192,192,188117,128,0,188204:0:0:0:0:
320,192,188161,128,0,188204:0:0:0:0:
64,192,188204,128,0,188247:0:0:0:0:
448,192,188247,128,0,188291:0:0:0:0:
192,192,188291,128,0,188334:0:0:0:0:
320,192,188334,128,0,188377:0:0:0:0:
64,192,188421,1,0,0:0:0:0:
448,192,188421,1,0,0:0:0:0:
192,192,188464,1,0,0:0:0:0:
320,192,188507,1,0,0:0:0:0:
448,192,188551,1,0,0:0:0:0:
64,192,188594,1,0,0:0:0:0:
192,192,188637,1,0,0:0:0:0:
320,192,188681,1,0,0:0:0:0:
64,192,188724,1,0,0:0:0:0:
448,192,188767,1,0,0:0:0:0:
192,192,188767,1,0,0:0:0:0:
320,192,188854,1,0,0:0:0:0:
192,192,188941,128,0,188984:0:0:0:0:
320,192,189028,1,0,0:0:0:0:
192,192,189114,1,0,0:0:0:0:
448,192,189114,1,0,0:0:0:0:
64,192,189114,1,0,0:0:0:0:
320,192,189201,128,0,189288:0:0:0:0:
448,192,189288,128,0,189374:0:0:0:0:
64,192,189374,128,0,189418:0:0:0:0:
192,192,189418,128,0,189461:0:0:0:0:
448,192,189461,128,0,189504:0:0:0:0:
320,192,189504,128,0,189548:0:0:0:0:
64,192,189548,1,0,0:0:0:0:
448,192,189635,1,0,0:0:0:0:
320,192,189721,1,0,0:0:0:0:
64,192,189721,1,0,0:0:0:0:
448,192,189808,1,0,0:0:0:0:
192,192,189808,1,0,0:0:0:0:
64,192,189808,1,0,0:0:0:0:
320,192,189895,128,0,190025:0:0:0:0:
192,192,189981,128,0,190155:0:0:0:0:
448,192,190025,128,0,190155:0:0:0:0:
64,192,190068,1,0,0:0:0:0:
320,192,190155,1,0,0:0:0:0:
192,192,190241,1,0,0:0:0:0:
64,192,190328,128,0,190415:0:0:0:0:
448,192,190415,1,0,0:0:0:0:
192,192,190502,1,0,0:0:0:0:
64,192,190502,1,0,0:0:0:0:
320,192,190502,1,0,0:0:0:0:
448,192,190588,128,0,190632:0:0:0:0:
192,192,190675,128,0,190718:0:0:0:0:
448,192,190762,128,0,190848:0:0:0:0:
64,192,190848,1,0,0:0:0:0:
320,192,190935,128,0,190978:0:0:0:0:
64,192,191022,128,0,191065:0:0:0:0:
320,192,191109,128,0,191152:0:0:0:0:
192,192,191195,128,0,191282:0:0:0:0:
448,192,191195,1,0,0:0:0:0:
64,192,191195,1,0,0:0:0:0:
320,192,191282,1,0,0:0:0:0:
448,192,191369,1,0,0:0:0:0:
64,192,191369,128,0,191542:0:0:0:0:
192,192,191455,1,0,0:0:0:0:
320,192,191542,1,0,0:0:0:0:
448,192,191542,1,0,0:0:0:0:
192,192,191629,1,0,0:0:0:0:
64,192,191715,128,0,191759:0:0:0:0:
448,192,191802,1,0,0:0:0:0:
64,192,191889,1,0,0:0:0:0:
320,192,191889,1,0,0:0:0:0:
192,192,191889,1,0,0:0:0:0:
448,192,191976,128,0,192062:0:0:0:0:
192,192,192062,128,0,192149:0:0:0:0:
320,192,192149,128,0,192192:0:0:0:0:
448,192,192192,128,0,192236:0:0:0:0:
64,192,192236,128,0,192279:0:0:0:0:
192,192,192279,128,0,192322:0:0:0:0:
320,192,192322,1,0,0:0:0:0:
64,192,192409,1,0,0:0:0:0:
448,192,192496,1,0,0:0:0:0:
192,192,192496,1,0,0:0:0:0:
64,192,192583,1,0,0:0:0:0:
448,192,192583,1,0,0:0:0:0:
320,192,192583,1,0,0:0:0:0:
192,192,192669,128,0,192799:0:0:0:0:
448,192,192756,128,0,192929:0:0:0:0:
64,192,192799,128,0,192929:0:0:0:0:
320,192,192843,1,0,0:0:0:0:
192,192,192929,128,0,193016:0:0:0:0:
320,192,193016,1,0,0:0:0:0:
448,192,193103,1,0,0:0:0:0:
64,192,193189,128,0,193276:0:0:0:0:
192,192,193276,1,0,0:0:0:0:
320,192,193276,1,0,0:0:0:0:
448,192,193276,1,0,0:0:0:0:
64,192,193363,1,0,0:0:0:0:
320,192,193450,128,0,193580:0:0:0:0:
64,192,193536,128,0,193666:0:0:0:0:
448,192,193623,1,0,0:0:0:0:
192,192,193710,128,0,193840:0:0:0:0:
320,192,193796,1,0,0:0:0:0:
448,192,193883,1,0,0:0:0:0:
192,192,193970,1,0,0:0:0:0:
320,192,193970,1,0,0:0:0:0:
64,192,193970,1,0,0:0:0:0:
448,192,194057,128,0,194187:0:0:0:0:
64,192,194143,1,0,0:0:0:0:
192,192,194230,1,0,0:0:0:0:
320,192,194317,1,0,0:0:0:0:
64,192,194317,1,0,0:0:0:0:
448,192,194403,1,0,0:0:0:0:
192,192,194490,128,0,194533:0:0:0:0:
448,192,194577,1,0,0:0:0:0:
192,192,194663,1,0,0:0:0:0:
64,192,194663,1,0,0:0:0:0:
320,192,194663,1,0,0:0:0:0:
448,192,194750,128,0,194837:0:0:0:0:
192,192,194837,128,0,194924:0:0:0:0:
320,192,194924,128,0,194967:0:0:0:0:
64,192,195010,128,0,195054:0:0:0:0:
192,192,195097,1,0,0:0:0:0:
448,192,195097,1,0,0:0:0:0:
64,192,195184,1,0,0:0:0:0:
192,192,195270,1,0,0:0:0:0:
320,192,195270,1,0,0:0:0:0:
320,192,195357,1,0,0:0:0:0:
64,192,195357,1,0,0:0:0:0:
448,192,195357,1,0,0:0:0:0:
192,192,195444,128,0,195574:0:0:0:0:
448,192,195530,128,0,195704:0:0:0:0:
320,192,195574,128,0,195704:0:0:0:0:
64,192,195617,1,0,0:0:0:0:
192,192,195704,1,0,0:0:0:0:
320,192,195791,1,0,0:0:0:0:
448,192,195877,1,0,0:0:0:0:
64,192,195964,128,0,196007:0:0:0:0:
192,192,196051,1,0,0:0:0:0:
320,192,196051,1,0,0:0:0:0:
448,192,196051,1,0,0:0:0:0:
64,192,196137,128,0,196181:0:0:0:0:
320,192,196224,128,0,196267:0:0:0:0:
64,192,196311,128,0,196398:0:0:0:0:
448,192,196398,1,0,0:0:0:0:
192,192,196484,128,0,196528:0:0:0:0:
448,192,196571,128,0,196614:0:0:0:0:
192,192,196658,128,0,196701:0:0:0:0:
320,192,196744,1,0,0:0:0:0:
448,192,196744,1,0,0:0:0:0:
64,192,196744,1,0,0:0:0:0:
192,192,196918,1,0,0:0:0:0:
448,192,196918,128,0,197091:0:0:0:0:
64,192,197004,128,0,197091:0:0:0:0:
192,192,197091,1,0,0:0:0:0:
320,192,197091,1,0,0:0:0:0:
448,192,197178,1,0,0:0:0:0:
192,192,197265,1,0,0:0:0:0:
448,192,197351,1,0,0:0:0:0:
192,192,197438,128,0,197481:0:0:0:0:
320,192,197438,128,0,197481:0:0:0:0:
64,192,197525,1,0,0:0:0:0:
192,192,197611,1,0,0:0:0:0:
448,192,197611,1,0,0:0:0:0:
64,192,197698,1,0,0:0:0:0:
320,192,197785,1,0,0:0:0:0:
448,192,197872,1,0,0:0:0:0:
64,192,197958,1,0,0:0:0:0:
192,192,198045,1,0,0:0:0:0:
320,192,198132,1,0,0:0:0:0:
448,192,198132,128,0,198175:0:0:0:0:
64,192,198218,128,0,198262:0:0:0:0:
320,192,198305,128,0,198348:0:0:0:0:
192,192,198392,1,0,0:0:0:0:
448,192,198478,1,0,0:0:0:0:
64,192,198478,1,0,0:0:0:0:
320,192,198565,128,0,198609:0:0:0:0:
192,192,198652,128,0,198695:0:0:0:0:
448,192,198825,128,0,198869:0:0:0:0:
192,192,198999,128,0,199866:0:0:0:0:
320,192,198999,1,0,0:0:0:0:
64,192,198999,1,0,0:0:0:0:
64,192,199129,1,0,0:0:0:0:
448,192,199215,1,0,0:0:0:0:
320,192,199302,1,0,0:0:0:0:
64,192,199389,1,0,0:0:0:0:
448,192,199461,1,0,0:0:0:0:
320,192,199519,1,0,0:0:0:0:
64,192,199577,1,0,0:0:0:0:
448,192,199663,1,0,0:0:0:0:
320,192,199736,1,0,0:0:0:0:
64,192,199866,1,0,0:0:0:0:
320,192,199866,1,0,0:0:0:0:
448,192,199866,1,0,0:0:0:0:
192,192,200039,5,0,0:0:0:0:
320,192,200126,1,0,0:0:0:0:
64,192,200213,1,0,0:0:0:0:
448,192,200213,1,0,0:0:0:0:
192,192,200299,1,0,0:0:0:0:
320,192,200299,1,0,0:0:0:0:
192,192,200386,1,0,0:0:0:0:
448,192,200386,1,0,0:0:0:0:
64,192,200473,1,0,0:0:0:0:
448,192,200559,1,0,0:0:0:0:
320,192,200559,1,0,0:0:0:0:
64,192,200646,1,0,0:0:0:0:
192,192,200646,1,0,0:0:0:0:
448,192,200646,1,0,0:0:0:0:
64,192,200733,1,0,0:0:0:0:
320,192,200733,1,0,0:0:0:0:
320,192,200820,1,0,0:0:0:0:
448,192,200820,1,0,0:0:0:0:
64,192,200906,1,0,0:0:0:0:
192,192,200906,1,0,0:0:0:0:
448,192,200993,1,0,0:0:0:0:
320,192,200993,1,0,0:0:0:0:
192,192,201080,1,0,0:0:0:0:
64,192,201166,1,0,0:0:0:0:
192,192,201253,1,0,0:0:0:0:
448,192,201253,1,0,0:0:0:0:
320,192,201253,1,0,0:0:0:0:
64,192,201340,1,0,0:0:0:0:
448,192,201426,1,0,0:0:0:0:
320,192,201426,1,0,0:0:0:0:
64,192,201513,1,0,0:0:0:0:
192,192,201600,1,0,0:0:0:0:
448,192,201600,1,0,0:0:0:0:
320,192,201687,1,0,0:0:0:0:
64,192,201773,1,0,0:0:0:0:
192,192,201773,1,0,0:0:0:0:
320,192,201860,1,0,0:0:0:0:
448,192,201947,1,0,0:0:0:0:
192,192,202033,1,0,0:0:0:0:
320,192,202033,1,0,0:0:0:0:
64,192,202120,1,0,0:0:0:0:
448,192,202120,1,0,0:0:0:0:
192,192,202207,1,0,0:0:0:0:
320,192,202207,1,0,0:0:0:0:
64,192,202294,1,0,0:0:0:0:
448,192,202294,1,0,0:0:0:0:
320,192,202380,1,0,0:0:0:0:
192,192,202467,1,0,0:0:0:0:
448,192,202467,1,0,0:0:0:0:
64,192,202554,1,0,0:0:0:0:
320,192,202554,1,0,0:0:0:0:
64,192,202640,1,0,0:0:0:0:
192,192,202640,1,0,0:0:0:0:
448,192,202640,1,0,0:0:0:0:
320,192,202814,1,0,0:0:0:0:
192,192,202900,1,0,0:0:0:0:
448,192,202987,1,0,0:0:0:0:
64,192,202987,1,0,0:0:0:0:
192,192,203074,1,0,0:0:0:0:
320,192,203074,1,0,0:0:0:0:
64,192,203161,1,0,0:0:0:0:
320,192,203161,1,0,0:0:0:0:
448,192,203247,1,0,0:0:0:0:
64,192,203334,1,0,0:0:0:0:
192,192,203334,1,0,0:0:0:0:
320,192,203421,1,0,0:0:0:0:
448,192,203421,1,0,0:0:0:0:
64,192,203421,1,0,0:0:0:0:
192,192,203507,1,0,0:0:0:0:
448,192,203507,1,0,0:0:0:0:
320,192,203594,1,0,0:0:0:0:
192,192,203594,1,0,0:0:0:0:
448,192,203681,1,0,0:0:0:0:
64,192,203681,1,0,0:0:0:0:
192,192,203767,1,0,0:0:0:0:
320,192,203767,1,0,0:0:0:0:
64,192,203854,1,0,0:0:0:0:
448,192,203941,1,0,0:0:0:0:
192,192,204028,1,0,0:0:0:0:
64,192,204028,1,0,0:0:0:0:
320,192,204028,1,0,0:0:0:0:
448,192,204114,1,0,0:0:0:0:
320,192,204158,1,0,0:0:0:0:
192,192,204201,1,0,0:0:0:0:
64,192,204201,1,0,0:0:0:0:
320,192,204288,1,0,0:0:0:0:
448,192,204288,1,0,0:0:0:0:
64,192,204374,1,0,0:0:0:0:
192,192,204374,1,0,0:0:0:0:
448,192,204461,1,0,0:0:0:0:
64,192,204548,1,0,0:0:0:0:
192,192,204548,1,0,0:0:0:0:
320,192,204548,1,0,0:0:0:0:
320,192,204635,1,0,0:0:0:0:
448,192,204635,1,0,0:0:0:0:
192,192,204721,1,0,0:0:0:0:
320,192,204808,1,0,0:0:0:0:
448,192,204808,1,0,0:0:0:0:
64,192,204808,1,0,0:0:0:0:
64,192,204895,1,0,0:0:0:0:
192,192,204895,1,0,0:0:0:0:
448,192,204981,1,0,0:0:0:0:
320,192,204981,1,0,0:0:0:0:
192,192,205068,1,0,0:0:0:0:
64,192,205068,1,0,0:0:0:0:
448,192,205155,1,0,0:0:0:0:
192,192,205241,1,0,0:0:0:0:
320,192,205328,1,0,0:0:0:0:
448,192,205415,5,0,0:0:0:0:
192,192,205415,1,0,0:0:0:0:
64,192,205415,1,0,0:0:0:0:
320,192,205588,1,0,0:0:0:0:
192,192,205675,1,0,0:0:0:0:
64,192,205762,1,0,0:0:0:0:
448,192,205762,1,0,0:0:0:0:
192,192,205848,1,0,0:0:0:0:
320,192,205848,1,0,0:0:0:0:
192,192,205935,1,0,0:0:0:0:
448,192,205935,1,0,0:0:0:0:
320,192,206022,1,0,0:0:0:0:
448,192,206109,1,0,0:0:0:0:
64,192,206109,1,0,0:0:0:0:
192,192,206195,1,0,0:0:0:0:
320,192,206195,1,0,0:0:0:0:
64,192,206195,1,0,0:0:0:0:
448,192,206282,1,0,0:0:0:0:
320,192,206282,1,0,0:0:0:0:
64,192,206369,1,0,0:0:0:0:
448,192,206369,1,0,0:0:0:0:
320,192,206455,1,0,0:0:0:0:
192,192,206455,1,0,0:0:0:0:
448,192,206542,1,0,0:0:0:0:
64,192,206542,1,0,0:0:0:0:
320,192,206629,1,0,0:0:0:0:
192,192,206715,1,0,0:0:0:0:
448,192,206802,1,0,0:0:0:0:
64,192,206802,1,0,0:0:0:0:
320,192,206802,1,0,0:0:0:0:
192,192,206889,1,0,0:0:0:0:
448,192,206976,1,0,0:0:0:0:
64,192,206976,1,0,0:0:0:0:
320,192,207062,1,0,0:0:0:0:
192,192,207149,1,0,0:0:0:0:
64,192,207149,1,0,0:0:0:0:
320,192,207236,1,0,0:0:0:0:
192,192,207322,1,0,0:0:0:0:
448,192,207322,1,0,0:0:0:0:
64,192,207409,1,0,0:0:0:0:
448,192,207496,1,0,0:0:0:0:
192,192,207583,1,0,0:0:0:0:
320,192,207583,1,0,0:0:0:0:
64,192,207669,1,0,0:0:0:0:
448,192,207669,1,0,0:0:0:0:
192,192,207756,1,0,0:0:0:0:
320,192,207756,1,0,0:0:0:0:
64,192,207843,1,0,0:0:0:0:
448,192,207843,1,0,0:0:0:0:
192,192,207929,1,0,0:0:0:0:
64,192,208016,1,0,0:0:0:0:
320,192,208016,1,0,0:0:0:0:
192,192,208103,1,0,0:0:0:0:
448,192,208103,1,0,0:0:0:0:
64,192,208189,1,0,0:0:0:0:
320,192,208189,1,0,0:0:0:0:
448,192,208189,1,0,0:0:0:0:
192,192,208363,1,0,0:0:0:0:
320,192,208450,1,0,0:0:0:0:
448,192,208536,1,0,0:0:0:0:
64,192,208536,1,0,0:0:0:0:
192,192,208623,1,0,0:0:0:0:
320,192,208623,1,0,0:0:0:0:
320,192,208710,1,0,0:0:0:0:
64,192,208710,1,0,0:0:0:0:
192,192,208796,1,0,0:0:0:0:
64,192,208883,1,0,0:0:0:0:
448,192,208883,1,0,0:0:0:0:
448,192,208970,1,0,0:0:0:0:
320,192,208970,1,0,0:0:0:0:
192,192,208970,1,0,0:0:0:0:
64,192,209057,1,0,0:0:0:0:
192,192,209057,1,0,0:0:0:0:
64,192,209143,1,0,0:0:0:0:
448,192,209143,1,0,0:0:0:0:
192,192,209230,1,0,0:0:0:0:
320,192,209230,1,0,0:0:0:0:
448,192,209317,1,0,0:0:0:0:
64,192,209317,1,0,0:0:0:0:
320,192,209403,1,0,0:0:0:0:
192,192,209490,1,0,0:0:0:0:
320,192,209577,1,0,0:0:0:0:
448,192,209577,1,0,0:0:0:0:
64,192,209577,1,0,0:0:0:0:
192,192,209663,1,0,0:0:0:0:
320,192,209750,1,0,0:0:0:0:
448,192,209750,1,0,0:0:0:0:
64,192,209837,1,0,0:0:0:0:
192,192,209837,1,0,0:0:0:0:
320,192,209924,1,0,0:0:0:0:
448,192,209924,1,0,0:0:0:0:
64,192,210010,1,0,0:0:0:0:
192,192,210097,1,0,0:0:0:0:
320,192,210097,1,0,0:0:0:0:
448,192,210097,1,0,0:0:0:0:
64,192,210184,1,0,0:0:0:0:
192,192,210184,1,0,0:0:0:0:
320,192,210270,1,0,0:0:0:0:
448,192,210357,1,0,0:0:0:0:
64,192,210357,1,0,0:0:0:0:
192,192,210357,1,0,0:0:0:0:
320,192,210444,1,0,0:0:0:0:
448,192,210444,1,0,0:0:0:0:
192,192,210530,1,0,0:0:0:0:
64,192,210530,1,0,0:0:0:0:
320,192,210617,1,0,0:0:0:0:
448,192,210617,1,0,0:0:0:0:
64,192,210704,128,0,210791:0:0:0:0:
192,192,210791,128,0,210877:0:0:0:0:
320,192,210877,128,0,210964:0:0:0:0:
64,192,210964,1,0,0:0:0:0:
192,192,210964,1,0,0:0:0:0:
448,192,210964,1,0,0:0:0:0:
448,192,211137,1,0,0:0:0:0:
320,192,211224,1,0,0:0:0:0:
64,192,211311,1,0,0:0:0:0:
192,192,211311,1,0,0:0:0:0:
448,192,211398,1,0,0:0:0:0:
320,192,211398,1,0,0:0:0:0:
320,192,211484,1,0,0:0:0:0:
192,192,211484,1,0,0:0:0:0:
64,192,211571,1,0,0:0:0:0:
448,192,211658,1,0,0:0:0:0:
192,192,211658,1,0,0:0:0:0:
448,192,211744,1,0,0:0:0:0:
64,192,211744,1,0,0:0:0:0:
320,192,211744,1,0,0:0:0:0:
192,192,211831,1,0,0:0:0:0:
64,192,211831,1,0,0:0:0:0:
448,192,211918,1,0,0:0:0:0:
192,192,211918,1,0,0:0:0:0:
64,192,212004,1,0,0:0:0:0:
320,192,212004,1,0,0:0:0:0:
192,192,212091,1,0,0:0:0:0:
448,192,212091,1,0,0:0:0:0:
320,192,212178,1,0,0:0:0:0:
64,192,212265,1,0,0:0:0:0:
192,192,212351,1,0,0:0:0:0:
448,192,212351,1,0,0:0:0:0:
320,192,212351,1,0,0:0:0:0:
64,192,212438,1,0,0:0:0:0:
448,192,212525,1,0,0:0:0:0:
320,192,212525,1,0,0:0:0:0:
192,192,212611,1,0,0:0:0:0:
64,192,212698,1,0,0:0:0:0:
448,192,212698,1,0,0:0:0:0:
320,192,212785,1,0,0:0:0:0:
192,192,212872,1,0,0:0:0:0:
64,192,212872,1,0,0:0:0:0:
320,192,212958,1,0,0:0:0:0:
448,192,213045,1,0,0:0:0:0:
192,192,213132,1,0,0:0:0:0:
320,192,213132,1,0,0:0:0:0:
64,192,213218,1,0,0:0:0:0:
448,192,213218,1,0,0:0:0:0:
192,192,213305,1,0,0:0:0:0:
320,192,213305,1,0,0:0:0:0:
64,192,213392,1,0,0:0:0:0:
448,192,213392,1,0,0:0:0:0:
320,192,213478,1,0,0:0:0:0:
192,192,213565,1,0,0:0:0:0:
448,192,213565,1,0,0:0:0:0:
64,192,213652,1,0,0:0:0:0:
320,192,213652,1,0,0:0:0:0:
192,192,213739,1,0,0:0:0:0:
64,192,213739,1,0,0:0:0:0:
448,192,213739,1,0,0:0:0:0:
320,192,213912,1,0,0:0:0:0:
192,192,213999,1,0,0:0:0:0:
64,192,214085,1,0,0:0:0:0:
448,192,214085,1,0,0:0:0:0:
320,192,214172,1,0,0:0:0:0:
192,192,214172,1,0,0:0:0:0:
192,192,214259,1,0,0:0:0:0:
64,192,214259,1,0,0:0:0:0:
320,192,214346,1,0,0:0:0:0:
448,192,214432,1,0,0:0:0:0:
64,192,214432,1,0,0:0:0:0:
448,192,214519,1,0,0:0:0:0:
192,192,214519,1,0,0:0:0:0:
320,192,214519,1,0,0:0:0:0:
64,192,214606,1,0,0:0:0:0:
320,192,214606,1,0,0:0:0:0:
64,192,214692,1,0,0:0:0:0:
448,192,214692,1,0,0:0:0:0:
320,192,214779,1,0,0:0:0:0:
192,192,214779,1,0,0:0:0:0:
448,192,214866,1,0,0:0:0:0:
64,192,214866,1,0,0:0:0:0:
320,192,214952,1,0,0:0:0:0:
64,192,215039,1,0,0:0:0:0:
448,192,215126,1,0,0:0:0:0:
320,192,215126,1,0,0:0:0:0:
192,192,215126,1,0,0:0:0:0:
64,192,215213,1,0,0:0:0:0:
448,192,215299,1,0,0:0:0:0:
320,192,215299,1,0,0:0:0:0:
64,192,215386,1,0,0:0:0:0:
192,192,215386,1,0,0:0:0:0:
320,192,215473,1,0,0:0:0:0:
448,192,215473,1,0,0:0:0:0:
64,192,215559,1,0,0:0:0:0:
320,192,215646,1,0,0:0:0:0:
192,192,215646,1,0,0:0:0:0:
448,192,215646,1,0,0:0:0:0:
192,192,215733,1,0,0:0:0:0:
64,192,215733,1,0,0:0:0:0:
320,192,215820,1,0,0:0:0:0:
64,192,215906,1,0,0:0:0:0:
192,192,215906,1,0,0:0:0:0:
448,192,215906,1,0,0:0:0:0:
448,192,215993,1,0,0:0:0:0:
320,192,215993,1,0,0:0:0:0:
64,192,216080,1,0,0:0:0:0:
192,192,216080,1,0,0:0:0:0:
448,192,216166,1,0,0:0:0:0:
320,192,216166,1,0,0:0:0:0:
192,192,216253,1,0,0:0:0:0:
448,192,216340,1,0,0:0:0:0:
64,192,216426,1,0,0:0:0:0:
448,192,216513,1,0,0:0:0:0:
320,192,216513,1,0,0:0:0:0:
192,192,216513,1,0,0:0:0:0:
64,192,216687,1,0,0:0:0:0:
192,192,216773,1,0,0:0:0:0:
448,192,216860,1,0,0:0:0:0:
320,192,216860,1,0,0:0:0:0:
64,192,216947,1,0,0:0:0:0:
192,192,216947,1,0,0:0:0:0:
192,192,217033,1,0,0:0:0:0:
320,192,217033,1,0,0:0:0:0:
448,192,217120,1,0,0:0:0:0:
64,192,217207,1,0,0:0:0:0:
320,192,217207,1,0,0:0:0:0:
64,192,217294,1,0,0:0:0:0:
448,192,217294,1,0,0:0:0:0:
192,192,217294,1,0,0:0:0:0:
448,192,217380,1,0,0:0:0:0:
320,192,217380,1,0,0:0:0:0:
64,192,217467,1,0,0:0:0:0:
320,192,217467,1,0,0:0:0:0:
448,192,217554,1,0,0:0:0:0:
192,192,217554,1,0,0:0:0:0:
320,192,217640,1,0,0:0:0:0:
64,192,217640,1,0,0:0:0:0:
192,192,217727,1,0,0:0:0:0:
448,192,217814,1,0,0:0:0:0:
320,192,217900,1,0,0:0:0:0:
64,192,217900,1,0,0:0:0:0:
192,192,217900,1,0,0:0:0:0:
448,192,217987,1,0,0:0:0:0:
64,192,218074,1,0,0:0:0:0:
320,192,218074,1,0,0:0:0:0:
192,192,218161,1,0,0:0:0:0:
448,192,218247,1,0,0:0:0:0:
320,192,218247,1,0,0:0:0:0:
192,192,218334,1,0,0:0:0:0:
64,192,218421,1,0,0:0:0:0:
448,192,218421,1,0,0:0:0:0:
320,192,218507,1,0,0:0:0:0:
192,192,218594,1,0,0:0:0:0:
320,192,218681,1,0,0:0:0:0:
64,192,218681,1,0,0:0:0:0:
448,192,218767,1,0,0:0:0:0:
192,192,218767,1,0,0:0:0:0:
320,192,218854,1,0,0:0:0:0:
64,192,218854,1,0,0:0:0:0:
448,192,218941,1,0,0:0:0:0:
192,192,218941,1,0,0:0:0:0:
64,192,219028,1,0,0:0:0:0:
320,192,219114,1,0,0:0:0:0:
192,192,219114,1,0,0:0:0:0:
448,192,219201,1,0,0:0:0:0:
64,192,219201,1,0,0:0:0:0:
192,192,219288,1,0,0:0:0:0:
448,192,219288,1,0,0:0:0:0:
320,192,219288,1,0,0:0:0:0:
64,192,219461,1,0,0:0:0:0:
192,192,219548,5,0,0:0:0:0:
320,192,219635,1,0,0:0:0:0:
448,192,219635,1,0,0:0:0:0:
64,192,219721,1,0,0:0:0:0:
192,192,219808,1,0,0:0:0:0:
448,192,219808,1,0,0:0:0:0:
64,192,219895,1,0,0:0:0:0:
448,192,219981,1,0,0:0:0:0:
192,192,220068,1,0,0:0:0:0:
64,192,220068,1,0,0:0:0:0:
320,192,220155,1,0,0:0:0:0:
448,192,220155,1,0,0:0:0:0:
192,192,220241,1,0,0:0:0:0:
64,192,220241,1,0,0:0:0:0:
320,192,220328,1,0,0:0:0:0:
448,192,220328,1,0,0:0:0:0:
192,192,220415,1,0,0:0:0:0:
64,192,220502,1,0,0:0:0:0:
448,192,220588,1,0,0:0:0:0:
192,192,220675,128,0,222062:0:0:0:0:
320,192,220675,1,0,0:0:0:0:
64,192,220675,1,0,0:0:0:0:
64,192,220877,5,0,0:0:0:0:
448,192,220877,5,0,0:0:0:0:
320,192,220993,1,0,0:0:0:0:
448,192,221137,1,0,0:0:0:0:
64,192,221137,1,0,0:0:0:0:
320,192,221282,1,0,0:0:0:0:
448,192,221282,1,0,0:0:0:0:
64,192,221398,1,0,0:0:0:0:
320,192,221398,1,0,0:0:0:0:
448,192,221542,1,0,0:0:0:0:
64,192,221542,1,0,0:0:0:0:
320,192,221687,1,0,0:0:0:0:
448,192,221687,1,0,0:0:0:0:
64,192,221947,1,0,0:0:0:0:
320,192,221947,1,0,0:0:0:0:
448,192,222062,128,2,224837:0:0:0:0:
64,192,222236,128,0,222322:0:0:0:0:
192,192,222496,128,0,222583:0:0:0:0:
320,192,222756,128,0,222843:0:0:0:0:
192,192,223016,128,0,223103:0:0:0:0:
320,192,223276,128,0,223363:0:0:0:0:
192,192,223450,128,0,223536:0:0:0:0:
64,192,223623,128,0,223710:0:0:0:0:
320,192,223883,128,0,223970:0:0:0:0:
64,192,224143,128,0,224230:0:0:0:0:
320,192,224403,128,0,224490:0:0:0:0:
192,192,224663,128,0,224750:0:0:0:0:
320,192,224837,128,0,227611:0:0:0:0:
64,192,225010,128,0,225097:0:0:0:0:
192,192,225270,128,0,225357:0:0:0:0:
448,192,225530,128,0,225617:0:0:0:0:
64,192,225791,128,0,225877:0:0:0:0:
448,192,226051,128,0,226137:0:0:0:0:
192,192,226224,128,0,226311:0:0:0:0:
64,192,226398,128,0,226484:0:0:0:0:
448,192,226658,128,0,226744:0:0:0:0:
64,192,226918,128,0,227004:0:0:0:0:
448,192,227178,128,0,227265:0:0:0:0:
192,192,227438,128,0,227525:0:0:0:0:
64,192,227611,128,0,230386:0:0:0:0:
192,192,227785,128,0,227872:0:0:0:0:
320,192,228045,128,0,228132:0:0:0:0:
448,192,228305,128,0,228392:0:0:0:0:
192,192,228565,128,0,228652:0:0:0:0:
448,192,228825,128,0,228912:0:0:0:0:
320,192,228999,128,0,229085:0:0:0:0:
192,192,229172,128,0,229259:0:0:0:0:
448,192,229432,128,0,229519:0:0:0:0:
192,192,229692,128,0,229779:0:0:0:0:
448,192,229952,128,0,230039:0:0:0:0:
320,192,230213,128,0,230299:0:0:0:0:
192,192,230386,128,0,233161:0:0:0:0:
64,192,230559,128,0,230646:0:0:0:0:
320,192,230820,128,0,230906:0:0:0:0:
448,192,231080,128,0,231166:0:0:0:0:
64,192,231340,128,0,231426:0:0:0:0:
448,192,231600,128,0,231687:0:0:0:0:
320,192,231773,128,0,231860:0:0:0:0:
64,192,231947,128,0,232033:0:0:0:0:
448,192,232207,128,0,232294:0:0:0:0:
320,192,232467,128,0,232554:0:0:0:0:
64,192,232727,128,0,232814:0:0:0:0:
320,192,232987,128,0,233074:0:0:0:0:
448,192,233161,128,0,235935:0:0:0:0:
64,192,233334,128,0,233421:0:0:0:0:
192,192,233594,128,0,233681:0:0:0:0:
320,192,233854,128,0,233941:0:0:0:0:
192,192,234114,128,0,234201:0:0:0:0:
320,192,234374,128,0,234461:0:0:0:0:
192,192,234548,128,0,234635:0:0:0:0:
64,192,234721,128,0,234808:0:0:0:0:
320,192,234981,128,0,235068:0:0:0:0:
64,192,235241,128,0,235328:0:0:0:0:
320,192,235502,128,0,235588:0:0:0:0:
192,192,235762,128,0,235848:0:0:0:0:
192,192,235935,128,0,238710:0:0:0:0:
64,192,236109,128,0,236195:0:0:0:0:
320,192,236369,128,0,236455:0:0:0:0:
448,192,236629,128,0,236715:0:0:0:0:
64,192,236889,128,0,236976:0:0:0:0:
448,192,237149,128,0,237236:0:0:0:0:
320,192,237322,128,0,237409:0:0:0:0:
64,192,237496,128,0,237583:0:0:0:0:
448,192,237756,128,0,237843:0:0:0:0:
320,192,238016,128,0,238103:0:0:0:0:
448,192,238276,128,0,238363:0:0:0:0:
320,192,238536,128,0,238623:0:0:0:0:
64,192,238710,128,0,241484:0:0:0:0:
192,192,238883,128,0,238970:0:0:0:0:
320,192,239143,128,0,239230:0:0:0:0:
448,192,239403,128,0,239490:0:0:0:0:
192,192,239663,128,0,239750:0:0:0:0:
448,192,239924,128,0,240010:0:0:0:0:
320,192,240097,128,0,240184:0:0:0:0:
192,192,240270,128,0,240357:0:0:0:0:
448,192,240530,128,0,240617:0:0:0:0:
192,192,240791,128,0,240877:0:0:0:0:
448,192,241051,128,0,241137:0:0:0:0:
320,192,241311,128,0,241398:0:0:0:0:
320,192,241484,128,0,242872:0:0:0:0:
64,192,241658,128,0,241744:0:0:0:0:
192,192,241918,128,0,242004:0:0:0:0:
448,192,242178,128,0,242265:0:0:0:0:
64,192,242438,128,0,242525:0:0:0:0:
192,192,242698,128,0,242785:0:0:0:0:
64,192,242872,128,0,243565:0:0:0:0:
448,192,242872,128,0,243565:0:0:0:0:
192,192,243565,128,0,243825:0:0:0:0:
320,192,243825,128,0,244085:0:0:0:0:
192,192,244085,128,0,244259:0:0:0:0:
64,192,244259,1,0,0:0:0:0:
320,192,244259,1,0,0:0:0:0:
448,192,244259,1,0,0:0:0:0:
64,192,244432,1,0,0:0:0:0:
192,192,244476,1,0,0:0:0:0:
320,192,244519,1,0,0:0:0:0:
192,192,244606,1,0,0:0:0:0:
64,192,244606,1,0,0:0:0:0:
448,192,244606,1,0,0:0:0:0:
320,192,244692,1,0,0:0:0:0:
448,192,244779,1,0,0:0:0:0:
64,192,244779,128,0,244866:0:0:0:0:
320,192,244866,1,0,0:0:0:0:
64,192,244952,1,0,0:0:0:0:
192,192,244952,1,0,0:0:0:0:
448,192,244952,1,0,0:0:0:0:
448,192,245039,1,0,0:0:0:0:
320,192,245039,1,0,0:0:0:0:
192,192,245126,1,0,0:0:0:0:
64,192,245126,1,0,0:0:0:0:
448,192,245213,128,0,245299:0:0:0:0:
192,192,245299,1,0,0:0:0:0:
320,192,245386,1,0,0:0:0:0:
64,192,245386,1,0,0:0:0:0:
448,192,245386,1,0,0:0:0:0:
64,192,245646,1,0,0:0:0:0:
320,192,245646,1,0,0:0:0:0:
448,192,245646,1,0,0:0:0:0:
192,192,245820,1,0,0:0:0:0:
320,192,245863,1,0,0:0:0:0:
448,192,245906,1,0,0:0:0:0:
64,192,245950,1,0,0:0:0:0:
320,192,245993,1,0,0:0:0:0:
192,192,246036,1,0,0:0:0:0:
448,192,246080,1,0,0:0:0:0:
320,192,246123,1,0,0:0:0:0:
64,192,246166,1,0,0:0:0:0:
192,192,246224,1,0,0:0:0:0:
320,192,246282,1,0,0:0:0:0:
448,192,246340,1,0,0:0:0:0:
192,192,246340,1,0,0:0:0:0:
64,192,246340,1,0,0:0:0:0:
64,192,246557,128,0,246600:0:0:0:0:
192,192,246687,128,0,246730:0:0:0:0:
64,192,246773,128,0,246817:0:0:0:0:
192,192,246860,128,0,246903:0:0:0:0:
64,192,246947,128,0,246990:0:0:0:0:
192,192,247033,1,0,0:0:0:0:
320,192,247033,1,0,0:0:0:0:
448,192,247033,1,0,0:0:0:0:
64,192,247207,1,0,0:0:0:0:
192,192,247250,1,0,0:0:0:0:
320,192,247294,1,0,0:0:0:0:
448,192,247380,1,0,0:0:0:0:
192,192,247380,1,0,0:0:0:0:
64,192,247380,128,0,247640:0:0:0:0:
320,192,247467,1,0,0:0:0:0:
448,192,247554,1,0,0:0:0:0:
192,192,247554,128,0,247640:0:0:0:0:
320,192,247640,1,0,0:0:0:0:
448,192,247727,1,0,0:0:0:0:
192,192,247727,1,0,0:0:0:0:
64,192,247727,1,0,0:0:0:0:
320,192,247814,1,0,0:0:0:0:
448,192,247814,1,0,0:0:0:0:
192,192,247900,1,0,0:0:0:0:
64,192,247900,1,0,0:0:0:0:
64,192,247987,128,0,248074:0:0:0:0:
320,192,248161,1,0,0:0:0:0:
448,192,248161,1,0,0:0:0:0:
192,192,248247,128,0,248334:0:0:0:0:
192,192,248377,128,0,248421:0:0:0:0:
320,192,248421,1,0,0:0:0:0:
448,192,248421,1,0,0:0:0:0:
64,192,248421,1,0,0:0:0:0:
192,192,248637,128,0,248681:0:0:0:0:
320,192,248681,1,0,0:0:0:0:
448,192,248681,1,0,0:0:0:0:
64,192,248681,1,0,0:0:0:0:
192,192,248767,1,0,0:0:0:0:
320,192,248854,1,0,0:0:0:0:
448,192,248941,1,0,0:0:0:0:
64,192,248941,1,0,0:0:0:0:
320,192,249028,1,0,0:0:0:0:
192,192,249028,1,0,0:0:0:0:
64,192,249114,1,0,0:0:0:0:
320,192,249114,1,0,0:0:0:0:
448,192,249114,128,0,249374:0:0:0:0:
192,192,249201,1,0,0:0:0:0:
64,192,249201,1,0,0:0:0:0:
320,192,249374,1,0,0:0:0:0:
64,192,249374,1,0,0:0:0:0:
64,192,249548,1,0,0:0:0:0:
448,192,249548,1,0,0:0:0:0:
320,192,249606,128,0,249635:0:0:0:0:
192,192,249635,128,0,249721:0:0:0:0:
448,192,249721,1,0,0:0:0:0:
320,192,249808,1,0,0:0:0:0:
192,192,249808,1,0,0:0:0:0:
64,192,249808,1,0,0:0:0:0:
448,192,249981,1,0,0:0:0:0:
320,192,250025,1,0,0:0:0:0:
192,192,250068,1,0,0:0:0:0:
64,192,250155,1,0,0:0:0:0:
320,192,250155,1,0,0:0:0:0:
448,192,250155,1,0,0:0:0:0:
192,192,250241,1,0,0:0:0:0:
448,192,250328,128,0,250415:0:0:0:0:
64,192,250328,1,0,0:0:0:0:
192,192,250415,1,0,0:0:0:0:
64,192,250502,1,0,0:0:0:0:
320,192,250502,1,0,0:0:0:0:
448,192,250502,1,0,0:0:0:0:
320,192,250588,1,0,0:0:0:0:
448,192,250588,1,0,0:0:0:0:
192,192,250675,1,0,0:0:0:0:
64,192,250675,1,0,0:0:0:0:
448,192,250733,128,0,250791:0:0:0:0:
320,192,250791,128,0,250935:0:0:0:0:
192,192,250848,1,0,0:0:0:0:
192,192,250935,1,0,0:0:0:0:
64,192,250935,1,0,0:0:0:0:
448,192,250935,1,0,0:0:0:0:
192,192,251195,1,0,0:0:0:0:
64,192,251195,1,0,0:0:0:0:
448,192,251195,1,0,0:0:0:0:
192,192,251369,1,0,0:0:0:0:
320,192,251412,1,0,0:0:0:0:
448,192,251455,1,0,0:0:0:0:
448,192,251542,1,0,0:0:0:0:
192,192,251629,1,0,0:0:0:0:
192,192,251715,1,0,0:0:0:0:
64,192,251802,128,0,251997:0:0:0:0:
320,192,251802,1,0,0:0:0:0:
320,192,251889,1,0,0:0:0:0:
448,192,251889,1,0,0:0:0:0:
192,192,251889,1,0,0:0:0:0:
448,192,251997,1,0,0:0:0:0:
320,192,252041,1,0,0:0:0:0:
192,192,252084,1,0,0:0:0:0:
64,192,252149,1,0,0:0:0:0:
192,192,252192,1,0,0:0:0:0:
320,192,252236,1,0,0:0:0:0:
448,192,252279,1,0,0:0:0:0:
320,192,252322,1,0,0:0:0:0:
192,192,252366,1,0,0:0:0:0:
64,192,252409,1,0,0:0:0:0:
192,192,252467,1,0,0:0:0:0:
320,192,252525,1,0,0:0:0:0:
448,192,252583,1,0,0:0:0:0:
192,192,252583,1,0,0:0:0:0:
64,192,252583,1,0,0:0:0:0:
64,192,252756,1,0,0:0:0:0:
192,192,252799,1,0,0:0:0:0:
320,192,252843,1,0,0:0:0:0:
64,192,252929,1,0,0:0:0:0:
448,192,252929,1,0,0:0:0:0:
192,192,252929,128,0,253103:0:0:0:0:
320,192,253016,1,0,0:0:0:0:
448,192,253103,1,0,0:0:0:0:
64,192,253103,128,0,253276:0:0:0:0:
320,192,253189,1,0,0:0:0:0:
448,192,253276,1,0,0:0:0:0:
192,192,253276,1,0,0:0:0:0:
320,192,253276,1,0,0:0:0:0:
192,192,253363,1,0,0:0:0:0:
64,192,253363,1,0,0:0:0:0:
320,192,253450,1,0,0:0:0:0:
448,192,253450,1,0,0:0:0:0:
64,192,253536,128,0,253710:0:0:0:0:
448,192,253623,1,0,0:0:0:0:
448,192,253710,1,0,0:0:0:0:
320,192,253710,1,0,0:0:0:0:
192,192,253710,1,0,0:0:0:0:
64,192,253840,1,0,0:0:0:0:
192,192,253970,1,0,0:0:0:0:
64,192,253970,1,0,0:0:0:0:
448,192,253970,128,0,254230:0:0:0:0:
320,192,254187,1,0,0:0:0:0:
192,192,254208,1,0,0:0:0:0:
64,192,254230,128,0,254403:0:0:0:0:
320,192,254490,1,0,0:0:0:0:
448,192,254490,1,0,0:0:0:0:
192,192,254577,1,0,0:0:0:0:
320,192,254577,1,0,0:0:0:0:
192,192,254663,1,0,0:0:0:0:
64,192,254663,1,0,0:0:0:0:
448,192,254663,1,0,0:0:0:0:
64,192,254750,1,0,0:0:0:0:
320,192,254750,1,0,0:0:0:0:
64,192,254924,1,0,0:0:0:0:
320,192,254924,1,0,0:0:0:0:
448,192,255097,128,0,255270:0:0:0:0:
64,192,255097,1,0,0:0:0:0:
320,192,255097,1,0,0:0:0:0:
192,192,255184,128,0,255357:0:0:0:0:
64,192,255357,1,0,0:0:0:0:
320,192,255357,1,0,0:0:0:0:
448,192,255357,1,0,0:0:0:0:
192,192,255530,1,0,0:0:0:0:
320,192,255574,1,0,0:0:0:0:
448,192,255617,1,0,0:0:0:0:
192,192,255704,1,0,0:0:0:0:
64,192,255704,1,0,0:0:0:0:
320,192,255704,1,0,0:0:0:0:
320,192,255791,1,0,0:0:0:0:
64,192,255877,1,0,0:0:0:0:
448,192,255877,128,0,256051:0:0:0:0:
192,192,255964,1,0,0:0:0:0:
320,192,256051,1,0,0:0:0:0:
64,192,256051,1,0,0:0:0:0:
192,192,256051,1,0,0:0:0:0:
448,192,256137,1,0,0:0:0:0:
320,192,256137,1,0,0:0:0:0:
64,192,256224,1,0,0:0:0:0:
192,192,256224,1,0,0:0:0:0:
320,192,256311,128,0,256398:0:0:0:0:
192,192,256398,1,0,0:0:0:0:
448,192,256484,1,0,0:0:0:0:
320,192,256484,1,0,0:0:0:0:
64,192,256484,1,0,0:0:0:0:
192,192,256571,1,0,0:0:0:0:
320,192,256658,1,0,0:0:0:0:
64,192,256744,1,0,0:0:0:0:
192,192,256744,1,0,0:0:0:0:
448,192,256744,1,0,0:0:0:0:
64,192,256831,1,0,0:0:0:0:
320,192,256918,1,0,0:0:0:0:
192,192,256961,1,0,0:0:0:0:
448,192,257004,1,0,0:0:0:0:
320,192,257048,1,0,0:0:0:0:
192,192,257091,1,0,0:0:0:0:
192,192,257178,1,0,0:0:0:0:
448,192,257265,1,0,0:0:0:0:
448,192,257351,1,0,0:0:0:0:
64,192,257438,1,0,0:0:0:0:
320,192,257438,1,0,0:0:0:0:
192,192,257438,1,0,0:0:0:0:
448,192,257611,128,0,257958:0:0:0:0:
64,192,257785,128,0,257958:0:0:0:0:
320,192,257958,128,0,258045:0:0:0:0:
192,192,258045,128,0,258132:0:0:0:0:
64,192,258132,1,0,0:0:0:0:
320,192,258132,1,0,0:0:0:0:
448,192,258132,1,0,0:0:0:0:
448,192,258305,1,0,0:0:0:0:
320,192,258348,1,0,0:0:0:0:
192,192,258392,1,0,0:0:0:0:
64,192,258478,1,0,0:0:0:0:
320,192,258478,1,0,0:0:0:0:
448,192,258478,128,0,258739:0:0:0:0:
192,192,258565,1,0,0:0:0:0:
320,192,258652,128,0,258739:0:0:0:0:
64,192,258652,1,0,0:0:0:0:
192,192,258739,128,0,258825:0:0:0:0:
64,192,258825,1,0,0:0:0:0:
320,192,258825,1,0,0:0:0:0:
448,192,258825,1,0,0:0:0:0:
320,192,258912,1,0,0:0:0:0:
448,192,258912,1,0,0:0:0:0:
192,192,258999,1,0,0:0:0:0:
64,192,258999,1,0,0:0:0:0:
320,192,259085,128,0,259172:0:0:0:0:
64,192,259129,128,0,259259:0:0:0:0:
192,192,259259,1,0,0:0:0:0:
320,192,259259,1,0,0:0:0:0:
448,192,259259,1,0,0:0:0:0:
192,192,259519,1,0,0:0:0:0:
320,192,259519,1,0,0:0:0:0:
448,192,259519,1,0,0:0:0:0:
192,192,259779,1,0,0:0:0:0:
320,192,259779,1,0,0:0:0:0:
448,192,259779,1,0,0:0:0:0:
448,192,259866,1,0,0:0:0:0:
64,192,259952,128,0,260039:0:0:0:0:
192,192,259952,128,0,260039:0:0:0:0:
320,192,260039,1,0,0:0:0:0:
448,192,260039,1,0,0:0:0:0:
64,192,260126,1,0,0:0:0:0:
192,192,260126,1,0,0:0:0:0:
192,192,260213,1,0,0:0:0:0:
320,192,260213,1,0,0:0:0:0:
448,192,260213,1,0,0:0:0:0:
64,192,260299,1,0,0:0:0:0:
320,192,260299,1,0,0:0:0:0:
320,192,260473,1,0,0:0:0:0:
64,192,260473,1,0,0:0:0:0:
448,192,260559,128,0,260733:0:0:0:0:
320,192,260646,128,0,260733:0:0:0:0:
192,192,260646,1,0,0:0:0:0:
64,192,260646,1,0,0:0:0:0:
64,192,260733,128,0,260906:0:0:0:0:
192,192,260820,128,0,260906:0:0:0:0:
320,192,260906,1,0,0:0:0:0:
448,192,260906,1,0,0:0:0:0:
64,192,261080,1,0,0:0:0:0:
192,192,261123,1,0,0:0:0:0:
320,192,261166,1,0,0:0:0:0:
192,192,261253,1,0,0:0:0:0:
64,192,261253,1,0,0:0:0:0:
448,192,261253,1,0,0:0:0:0:
320,192,261340,1,0,0:0:0:0:
64,192,261426,128,0,261600:0:0:0:0:
192,192,261426,1,0,0:0:0:0:
320,192,261513,1,0,0:0:0:0:
448,192,261600,1,0,0:0:0:0:
192,192,261600,1,0,0:0:0:0:
320,192,261600,1,0,0:0:0:0:
64,192,261687,1,0,0:0:0:0:
192,192,261687,1,0,0:0:0:0:
320,192,261773,1,0,0:0:0:0:
448,192,261773,1,0,0:0:0:0:
448,192,261860,128,0,261947:0:0:0:0:
320,192,262033,1,0,0:0:0:0:
192,192,262033,1,0,0:0:0:0:
64,192,262033,1,0,0:0:0:0:
320,192,262294,1,0,0:0:0:0:
192,192,262294,1,0,0:0:0:0:
64,192,262294,1,0,0:0:0:0:
64,192,262640,1,0,0:0:0:0:
320,192,262640,1,0,0:0:0:0:
448,192,262640,1,0,0:0:0:0:
192,192,262727,1,0,0:0:0:0:
448,192,262770,1,0,0:0:0:0:
192,192,262814,1,0,0:0:0:0:
320,192,262857,1,0,0:0:0:0:
64,192,262900,1,0,0:0:0:0:
320,192,262944,1,0,0:0:0:0:
448,192,262987,1,0,0:0:0:0:
64,192,262987,1,0,0:0:0:0:
192,192,262987,1,0,0:0:0:0:
448,192,263161,1,0,0:0:0:0:
64,192,263247,128,0,263377:0:0:0:0:
192,192,263291,128,0,263377:0:0:0:0:
320,192,263334,128,0,263377:0:0:0:0:
448,192,263334,1,0,0:0:0:0:
320,192,263421,128,0,263464:0:0:0:0:
192,192,263507,128,0,263551:0:0:0:0:
192,192,263594,128,0,263637:0:0:0:0:
64,192,263681,1,0,0:0:0:0:
448,192,263681,1,0,0:0:0:0:
448,192,263854,1,0,0:0:0:0:
320,192,263898,1,0,0:0:0:0:
192,192,263941,1,0,0:0:0:0:
320,192,264028,1,0,0:0:0:0:
448,192,264028,1,0,0:0:0:0:
64,192,264028,1,0,0:0:0:0:
192,192,264114,1,0,0:0:0:0:
448,192,264201,128,0,264374:0:0:0:0:
320,192,264201,1,0,0:0:0:0:
192,192,264288,1,0,0:0:0:0:
64,192,264374,1,0,0:0:0:0:
320,192,264374,1,0,0:0:0:0:
192,192,264374,1,0,0:0:0:0:
448,192,264461,1,0,0:0:0:0:
320,192,264461,1,0,0:0:0:0:
192,192,264548,1,0,0:0:0:0:
64,192,264548,1,0,0:0:0:0:
64,192,264635,128,0,264721:0:0:0:0:
192,192,264808,1,0,0:0:0:0:
320,192,264808,1,0,0:0:0:0:
448,192,264808,1,0,0:0:0:0:
64,192,264895,1,0,0:0:0:0:
192,192,264938,1,0,0:0:0:0:
320,192,264981,1,0,0:0:0:0:
448,192,265025,1,0,0:0:0:0:
192,192,265068,1,0,0:0:0:0:
64,192,265068,1,0,0:0:0:0:
320,192,265241,1,0,0:0:0:0:
192,192,265285,5,0,0:0:0:0:
448,192,265328,1,0,0:0:0:0:
64,192,265328,128,0,265588:0:0:0:0:
448,192,265415,1,0,0:0:0:0:
192,192,265502,1,0,0:0:0:0:
320,192,265588,1,0,0:0:0:0:
448,192,265588,1,0,0:0:0:0:
192,192,265675,1,0,0:0:0:0:
64,192,265675,1,0,0:0:0:0:
192,192,265762,1,0,0:0:0:0:
320,192,265762,1,0,0:0:0:0:
448,192,265762,1,0,0:0:0:0:
64,192,265848,128,0,266065:0:0:0:0:
320,192,265848,1,0,0:0:0:0:
320,192,266022,1,0,0:0:0:0:
448,192,266109,128,0,266152:0:0:0:0:
320,192,266195,128,0,266239:0:0:0:0:
448,192,266282,128,0,266325:0:0:0:0:
320,192,266369,128,0,266412:0:0:0:0:
64,192,266455,5,0,0:0:0:0:
192,192,266455,1,0,0:0:0:0:
448,192,266600,1,0,0:0:0:0:
320,192,266629,128,0,266715:0:0:0:0:
192,192,266650,1,0,0:0:0:0:
192,192,266802,1,0,0:0:0:0:
64,192,266802,1,0,0:0:0:0:
448,192,266889,1,0,0:0:0:0:
320,192,266976,128,0,267062:0:0:0:0:
64,192,266997,1,0,0:0:0:0:
192,192,267004,1,0,0:0:0:0:
320,192,267149,1,0,0:0:0:0:
192,192,267149,1,0,0:0:0:0:
448,192,267236,1,0,0:0:0:0:
320,192,267322,1,0,0:0:0:0:
192,192,267409,1,0,0:0:0:0:
448,192,267438,1,0,0:0:0:0:
64,192,267474,128,0,267561:0:0:0:0:
320,192,267583,1,0,0:0:0:0:
448,192,267583,1,0,0:0:0:0:
192,192,267669,1,0,0:0:0:0:
64,192,267727,1,0,0:0:0:0:
320,192,267756,1,0,0:0:0:0:
448,192,267799,1,0,0:0:0:0:
192,192,267843,1,0,0:0:0:0:
64,192,267929,1,0,0:0:0:0:
320,192,268016,1,0,0:0:0:0:
448,192,268103,1,0,0:0:0:0:
64,192,268189,1,0,0:0:0:0:
192,192,268247,1,0,0:0:0:0:
448,192,268305,1,0,0:0:0:0:
320,192,268320,1,0,0:0:0:0:
64,192,268363,1,0,0:0:0:0:
192,192,268406,1,0,0:0:0:0:
448,192,268450,1,0,0:0:0:0:
320,192,268493,1,0,0:0:0:0:
64,192,268536,128,0,268710:0:0:0:0:
448,192,268623,1,0,0:0:0:0:
320,192,268652,1,0,0:0:0:0:
448,192,268796,128,0,268970:0:0:0:0:
64,192,268883,1,0,0:0:0:0:
192,192,268912,1,0,0:0:0:0:
320,192,268970,1,0,0:0:0:0:
64,192,269057,128,0,269085:0:0:0:0:
448,192,269143,128,0,269172:0:0:0:0:
64,192,269230,5,0,0:0:0:0:
320,192,269230,1,0,0:0:0:0:
192,192,269382,1,0,0:0:0:0:
448,192,269403,128,0,269490:0:0:0:0:
320,192,269432,1,0,0:0:0:0:
64,192,269577,1,0,0:0:0:0:
320,192,269577,1,0,0:0:0:0:
192,192,269663,1,0,0:0:0:0:
448,192,269750,128,0,269837:0:0:0:0:
64,192,269772,1,0,0:0:0:0:
320,192,269794,1,0,0:0:0:0:
448,192,269924,1,0,0:0:0:0:
192,192,269924,1,0,0:0:0:0:
64,192,270010,1,0,0:0:0:0:
192,192,270097,1,0,0:0:0:0:
64,192,270241,1,0,0:0:0:0:
448,192,270249,128,0,270335:0:0:0:0:
192,192,270270,1,0,0:0:0:0:
320,192,270314,1,0,0:0:0:0:
64,192,270357,1,0,0:0:0:0:
448,192,270444,1,0,0:0:0:0:
192,192,270530,1,0,0:0:0:0:
320,192,270617,1,0,0:0:0:0:
64,192,270617,1,0,0:0:0:0:
448,192,270791,1,0,0:0:0:0:
192,192,270834,1,0,0:0:0:0:
64,192,270877,1,0,0:0:0:0:
320,192,270877,1,0,0:0:0:0:
448,192,270964,1,0,0:0:0:0:
192,192,270993,1,0,0:0:0:0:
64,192,271007,1,0,0:0:0:0:
192,192,271137,1,0,0:0:0:0:
448,192,271137,1,0,0:0:0:0:
448,192,271224,1,0,0:0:0:0:
192,192,271311,1,0,0:0:0:0:
64,192,271311,1,0,0:0:0:0:
64,192,271398,1,0,0:0:0:0:
320,192,271398,1,0,0:0:0:0:
64,192,271571,1,0,0:0:0:0:
320,192,271571,1,0,0:0:0:0:
448,192,271658,1,0,0:0:0:0:
64,192,271744,1,0,0:0:0:0:
320,192,271744,1,0,0:0:0:0:
448,192,271831,1,0,0:0:0:0:
320,192,271889,1,0,0:0:0:0:
64,192,271961,1,0,0:0:0:0:
448,192,272004,5,0,0:0:0:0:
320,192,272004,1,0,0:0:0:0:
64,192,272149,1,0,0:0:0:0:
192,192,272178,128,0,272265:0:0:0:0:
320,192,272207,1,0,0:0:0:0:
320,192,272351,1,0,0:0:0:0:
448,192,272351,1,0,0:0:0:0:
64,192,272438,1,0,0:0:0:0:
192,192,272525,128,0,272611:0:0:0:0:
320,192,272554,1,0,0:0:0:0:
448,192,272568,1,0,0:0:0:0:
64,192,272698,1,0,0:0:0:0:
320,192,272698,1,0,0:0:0:0:
448,192,272785,1,0,0:0:0:0:
320,192,272872,1,0,0:0:0:0:
192,192,272958,1,0,0:0:0:0:
64,192,272987,1,0,0:0:0:0:
448,192,273023,128,0,273110:0:0:0:0:
64,192,273132,1,0,0:0:0:0:
192,192,273132,1,0,0:0:0:0:
448,192,273218,1,0,0:0:0:0:
192,192,273305,1,0,0:0:0:0:
320,192,273392,1,0,0:0:0:0:
448,192,273392,1,0,0:0:0:0:
64,192,273478,1,0,0:0:0:0:
448,192,273565,1,0,0:0:0:0:
192,192,273652,1,0,0:0:0:0:
320,192,273739,1,0,0:0:0:0:
448,192,273796,1,0,0:0:0:0:
192,192,273854,1,0,0:0:0:0:
64,192,273869,1,0,0:0:0:0:
320,192,273912,1,0,0:0:0:0:
448,192,273955,1,0,0:0:0:0:
192,192,273999,1,0,0:0:0:0:
64,192,274042,1,0,0:0:0:0:
448,192,274085,128,0,274259:0:0:0:0:
320,192,274143,1,0,0:0:0:0:
192,192,274201,1,0,0:0:0:0:
64,192,274259,1,0,0:0:0:0:
448,192,274317,1,0,0:0:0:0:
192,192,274374,1,0,0:0:0:0:
320,192,274432,1,0,0:0:0:0:
448,192,274490,1,0,0:0:0:0:
320,192,274548,1,0,0:0:0:0:
192,192,274606,1,0,0:0:0:0:
64,192,274649,1,0,0:0:0:0:
448,192,274663,1,0,0:0:0:0:
320,192,274692,1,0,0:0:0:0:
64,192,274779,5,0,0:0:0:0:
192,192,274779,1,0,0:0:0:0:
192,192,274924,1,0,0:0:0:0:
320,192,274952,128,0,275039:0:0:0:0:
448,192,274974,1,0,0:0:0:0:
192,192,275126,1,0,0:0:0:0:
64,192,275126,1,0,0:0:0:0:
448,192,275213,1,0,0:0:0:0:
320,192,275299,128,0,275386:0:0:0:0:
64,192,275321,1,0,0:0:0:0:
192,192,275328,1,0,0:0:0:0:
192,192,275473,1,0,0:0:0:0:
320,192,275473,1,0,0:0:0:0:
64,192,275559,1,0,0:0:0:0:
192,192,275646,1,0,0:0:0:0:
320,192,275733,1,0,0:0:0:0:
448,192,275762,1,0,0:0:0:0:
64,192,275798,128,0,275885:0:0:0:0:
192,192,275906,1,0,0:0:0:0:
448,192,275993,1,0,0:0:0:0:
64,192,276080,1,0,0:0:0:0:
192,192,276166,1,0,0:0:0:0:
448,192,276166,1,0,0:0:0:0:
64,192,276340,1,0,0:0:0:0:
320,192,276383,1,0,0:0:0:0:
192,192,276426,1,0,0:0:0:0:
448,192,276426,1,0,0:0:0:0:
320,192,276513,1,0,0:0:0:0:
64,192,276600,1,0,0:0:0:0:
192,192,276687,1,0,0:0:0:0:
192,192,276773,1,0,0:0:0:0:
448,192,276773,1,0,0:0:0:0:
320,192,276860,1,0,0:0:0:0:
64,192,276860,128,0,277033:0:0:0:0:
192,192,276947,1,0,0:0:0:0:
320,192,276990,1,0,0:0:0:0:
448,192,277033,1,0,0:0:0:0:
448,192,277120,1,0,0:0:0:0:
448,192,277207,1,0,0:0:0:0:
192,192,277294,1,0,0:0:0:0:
320,192,277322,1,0,0:0:0:0:
64,192,277380,1,0,0:0:0:0:
448,192,277438,1,0,0:0:0:0:
192,192,277496,1,0,0:0:0:0:
64,192,277554,5,0,0:0:0:0:
320,192,277554,1,0,0:0:0:0:
64,192,277698,1,0,0:0:0:0:
448,192,277705,1,0,0:0:0:0:
192,192,277727,128,0,277814:0:0:0:0:
320,192,277756,1,0,0:0:0:0:
64,192,277900,1,0,0:0:0:0:
320,192,277900,1,0,0:0:0:0:
448,192,277987,1,0,0:0:0:0:
192,192,278074,128,0,278161:0:0:0:0:
64,192,278096,1,0,0:0:0:0:
320,192,278103,1,0,0:0:0:0:
448,192,278139,1,0,0:0:0:0:
320,192,278247,1,0,0:0:0:0:
192,192,278247,1,0,0:0:0:0:
64,192,278334,1,0,0:0:0:0:
192,192,278421,1,0,0:0:0:0:
448,192,278421,1,0,0:0:0:0:
320,192,278507,1,0,0:0:0:0:
64,192,278536,128,0,278623:0:0:0:0:
192,192,278572,128,0,278659:0:0:0:0:
448,192,278681,1,0,0:0:0:0:
320,192,278681,1,0,0:0:0:0:
64,192,278767,1,0,0:0:0:0:
448,192,278854,1,0,0:0:0:0:
192,192,278941,1,0,0:0:0:0:
64,192,278941,1,0,0:0:0:0:
448,192,279028,1,0,0:0:0:0:
192,192,279114,1,0,0:0:0:0:
320,192,279201,1,0,0:0:0:0:
64,192,279288,1,0,0:0:0:0:
320,192,279346,1,0,0:0:0:0:
448,192,279403,1,0,0:0:0:0:
64,192,279418,1,0,0:0:0:0:
192,192,279461,1,0,0:0:0:0:
320,192,279504,1,0,0:0:0:0:
448,192,279519,1,0,0:0:0:0:
64,192,279577,1,0,0:0:0:0:
320,192,279635,1,0,0:0:0:0:
192,192,279635,128,0,279808:0:0:0:0:
448,192,279721,1,0,0:0:0:0:
320,192,279750,1,0,0:0:0:0:
64,192,279779,1,0,0:0:0:0:
320,192,279895,128,0,280068:0:0:0:0:
64,192,279981,1,0,0:0:0:0:
192,192,280010,1,0,0:0:0:0:
448,192,280039,1,0,0:0:0:0:
192,192,280155,1,0,0:0:0:0:
64,192,280241,1,0,0:0:0:0:
448,192,280328,5,0,0:0:0:0:
192,192,280328,1,0,0:0:0:0:
64,192,280480,1,0,0:0:0:0:
320,192,280502,128,0,280588:0:0:0:0:
192,192,280530,1,0,0:0:0:0:
448,192,280675,1,0,0:0:0:0:
192,192,280675,1,0,0:0:0:0:
64,192,280762,1,0,0:0:0:0:
448,192,280820,1,0,0:0:0:0:
320,192,280848,128,0,280935:0:0:0:0:
192,192,280877,1,0,0:0:0:0:
320,192,281022,1,0,0:0:0:0:
192,192,281022,1,0,0:0:0:0:
448,192,281109,1,0,0:0:0:0:
320,192,281195,1,0,0:0:0:0:
192,192,281282,1,0,0:0:0:0:
64,192,281311,1,0,0:0:0:0:
448,192,281347,128,0,281434:0:0:0:0:
320,192,281455,1,0,0:0:0:0:
192,192,281542,1,0,0:0:0:0:
64,192,281629,1,0,0:0:0:0:
320,192,281715,1,0,0:0:0:0:
192,192,281715,1,0,0:0:0:0:
448,192,281889,1,0,0:0:0:0:
64,192,281932,1,0,0:0:0:0:
320,192,281976,1,0,0:0:0:0:
192,192,281976,1,0,0:0:0:0:
320,192,282236,1,0,0:0:0:0:
192,192,282236,1,0,0:0:0:0:
192,192,282322,1,0,0:0:0:0:
448,192,282409,1,0,0:0:0:0:
320,192,282409,1,0,0:0:0:0:
320,192,282496,1,0,0:0:0:0:
192,192,282496,1,0,0:0:0:0:
320,192,282669,1,0,0:0:0:0:
192,192,282669,1,0,0:0:0:0:
64,192,282756,1,0,0:0:0:0:
192,192,282843,1,0,0:0:0:0:
320,192,282843,1,0,0:0:0:0:
64,192,282929,1,0,0:0:0:0:
192,192,282987,1,0,0:0:0:0:
320,192,283045,1,0,0:0:0:0:
448,192,283103,1,0,0:0:0:0:
64,192,283103,1,0,0:0:0:0:
192,192,283189,1,0,0:0:0:0:
320,192,283276,128,0,283363:0:0:0:0:
192,192,283305,128,0,283392:0:0:0:0:
64,192,283320,1,0,0:0:0:0:
64,192,283450,1,0,0:0:0:0:
448,192,283450,1,0,0:0:0:0:
320,192,283536,1,0,0:0:0:0:
192,192,283623,128,0,283710:0:0:0:0:
320,192,283652,128,0,283739:0:0:0:0:
448,192,283666,1,0,0:0:0:0:
192,192,283796,1,0,0:0:0:0:
448,192,283796,1,0,0:0:0:0:
64,192,283883,1,0,0:0:0:0:
192,192,283970,1,0,0:0:0:0:
448,192,284057,128,0,284143:0:0:0:0:
320,192,284085,128,0,284172:0:0:0:0:
64,192,284100,1,0,0:0:0:0:
192,192,284230,1,0,0:0:0:0:
448,192,284317,1,0,0:0:0:0:
64,192,284403,1,0,0:0:0:0:
320,192,284490,1,0,0:0:0:0:
448,192,284490,1,0,0:0:0:0:
64,192,284577,1,0,0:0:0:0:
320,192,284663,1,0,0:0:0:0:
64,192,284750,1,0,0:0:0:0:
448,192,284837,1,0,0:0:0:0:
192,192,284895,1,0,0:0:0:0:
64,192,284952,1,0,0:0:0:0:
448,192,284967,1,0,0:0:0:0:
320,192,285010,1,0,0:0:0:0:
192,192,285054,1,0,0:0:0:0:
64,192,285068,1,0,0:0:0:0:
448,192,285126,1,0,0:0:0:0:
192,192,285184,1,0,0:0:0:0:
320,192,285184,128,0,285357:0:0:0:0:
64,192,285314,1,0,0:0:0:0:
192,192,285357,1,0,0:0:0:0:
448,192,285400,1,0,0:0:0:0:
320,192,285444,1,0,0:0:0:0:
192,192,285530,128,0,285791:0:0:0:0:
64,192,285617,1,0,0:0:0:0:
320,192,285704,1,0,0:0:0:0:
64,192,285791,1,0,0:0:0:0:
448,192,285877,5,0,0:0:0:0:
320,192,285877,1,0,0:0:0:0:
64,192,286022,1,0,0:0:0:0:
192,192,286051,128,0,286137:0:0:0:0:
320,192,286072,1,0,0:0:0:0:
320,192,286224,1,0,0:0:0:0:
448,192,286224,1,0,0:0:0:0:
64,192,286311,1,0,0:0:0:0:
192,192,286398,128,0,286484:0:0:0:0:
448,192,286419,1,0,0:0:0:0:
320,192,286426,1,0,0:0:0:0:
192,192,286571,1,0,0:0:0:0:
320,192,286571,1,0,0:0:0:0:
64,192,286658,1,0,0:0:0:0:
192,192,286744,1,0,0:0:0:0:
320,192,286831,1,0,0:0:0:0:
448,192,286860,1,0,0:0:0:0:
64,192,286896,128,0,286983:0:0:0:0:
192,192,286976,1,0,0:0:0:0:
448,192,287033,1,0,0:0:0:0:
320,192,287091,1,0,0:0:0:0:
192,192,287149,1,0,0:0:0:0:
64,192,287207,1,0,0:0:0:0:
320,192,287265,1,0,0:0:0:0:
448,192,287265,1,0,0:0:0:0:
192,192,287351,1,0,0:0:0:0:
448,192,287438,1,0,0:0:0:0:
320,192,287481,1,0,0:0:0:0:
192,192,287525,1,0,0:0:0:0:
64,192,287525,1,0,0:0:0:0:
448,192,287611,1,0,0:0:0:0:
320,192,287640,1,0,0:0:0:0:
64,192,287698,1,0,0:0:0:0:
192,192,287727,1,0,0:0:0:0:
448,192,287785,1,0,0:0:0:0:
320,192,287785,1,0,0:0:0:0:
320,192,287872,1,0,0:0:0:0:
448,192,287872,1,0,0:0:0:0:
64,192,287958,1,0,0:0:0:0:
448,192,288045,1,0,0:0:0:0:
320,192,288045,128,0,288132:0:0:0:0:
64,192,288132,128,0,288218:0:0:0:0:
448,192,288218,1,0,0:0:0:0:
320,192,288218,128,0,288305:0:0:0:0:
64,192,288305,128,0,288565:0:0:0:0:
192,192,288363,1,0,0:0:0:0:
448,192,288392,1,0,0:0:0:0:
320,192,288392,128,0,288565:0:0:0:0:
192,192,288652,128,0,288825:0:0:0:0:
64,192,288652,128,0,288739:0:0:0:0:
448,192,288652,128,0,288782:0:0:0:0:
320,192,288825,1,0,0:0:0:0:
448,192,288912,1,0,0:0:0:0:
64,192,288912,1,0,0:0:0:0:
192,192,288955,1,0,0:0:0:0:
320,192,288999,128,0,289085:0:0:0:0:
64,192,289172,1,0,0:0:0:0:
448,192,289172,1,0,0:0:0:0:
320,192,289194,1,0,0:0:0:0:
192,192,289259,1,0,0:0:0:0:
64,192,289346,1,0,0:0:0:0:
320,192,289346,128,0,289432:0:0:0:0:
448,192,289346,128,0,289432:0:0:0:0:
64,192,289519,128,0,289606:0:0:0:0:
192,192,289519,128,0,289606:0:0:0:0:
64,192,289779,128,0,289952:0:0:0:0:
192,192,289779,128,0,289952:0:0:0:0:
64,192,290039,1,0,0:0:0:0:
448,192,290039,1,0,0:0:0:0:
192,192,290039,128,0,290213:0:0:0:0:
320,192,290213,1,0,0:0:0:0:
448,192,290270,1,0,0:0:0:0:
192,192,290328,1,0,0:0:0:0:
64,192,290328,1,0,0:0:0:0:
320,192,290386,1,0,0:0:0:0:
64,192,290473,1,0,0:0:0:0:
448,192,290473,1,0,0:0:0:0:
192,192,290559,1,0,0:0:0:0:
320,192,290617,1,0,0:0:0:0:
64,192,290646,1,0,0:0:0:0:
448,192,290675,1,0,0:0:0:0:
192,192,290733,1,0,0:0:0:0:
320,192,290776,1,0,0:0:0:0:
64,192,290906,128,0,291080:0:0:0:0:
192,192,290906,1,0,0:0:0:0:
448,192,290950,1,0,0:0:0:0:
320,192,290993,1,0,0:0:0:0:
192,192,291080,1,0,0:0:0:0:
320,192,291166,1,0,0:0:0:0:
448,192,291166,1,0,0:0:0:0:
64,192,291166,1,0,0:0:0:0:
192,192,291253,1,0,0:0:0:0:
192,192,291340,1,0,0:0:0:0:
64,192,291426,1,0,0:0:0:0:
448,192,291426,1,0,0:0:0:0:
320,192,291426,1,0,0:0:0:0:
64,192,291600,1,0,0:0:0:0:
192,192,291600,1,0,0:0:0:0:
320,192,291643,1,0,0:0:0:0:
448,192,291687,1,0,0:0:0:0:
64,192,291773,1,0,0:0:0:0:
192,192,291773,1,0,0:0:0:0:
320,192,291860,1,0,0:0:0:0:
448,192,291947,1,0,0:0:0:0:
192,192,291990,1,0,0:0:0:0:
64,192,291990,1,0,0:0:0:0:
320,192,292033,1,0,0:0:0:0:
448,192,292120,1,0,0:0:0:0:
64,192,292120,1,0,0:0:0:0:
192,192,292207,1,0,0:0:0:0:
320,192,292207,1,0,0:0:0:0:
448,192,292294,1,0,0:0:0:0:
192,192,292294,1,0,0:0:0:0:
64,192,292294,1,0,0:0:0:0:
320,192,292380,1,0,0:0:0:0:
320,192,292467,1,0,0:0:0:0:
64,192,292554,1,0,0:0:0:0:
192,192,292554,1,0,0:0:0:0:
448,192,292554,1,0,0:0:0:0:
320,192,292640,1,0,0:0:0:0:
320,192,292727,1,0,0:0:0:0:
192,192,292814,1,0,0:0:0:0:
64,192,292814,1,0,0:0:0:0:
448,192,292814,1,0,0:0:0:0:
64,192,292987,1,0,0:0:0:0:
448,192,293030,1,0,0:0:0:0:
192,192,293074,1,0,0:0:0:0:
320,192,293074,1,0,0:0:0:0:
64,192,293161,1,0,0:0:0:0:
192,192,293247,1,0,0:0:0:0:
448,192,293334,1,0,0:0:0:0:
320,192,293334,1,0,0:0:0:0:
64,192,293334,1,0,0:0:0:0:
448,192,293421,1,0,0:0:0:0:
320,192,293421,1,0,0:0:0:0:
448,192,293507,1,0,0:0:0:0:
320,192,293507,1,0,0:0:0:0:
64,192,293594,1,0,0:0:0:0:
192,192,293594,1,0,0:0:0:0:
320,192,293681,1,0,0:0:0:0:
448,192,293739,1,0,0:0:0:0:
64,192,293767,1,0,0:0:0:0:
192,192,293767,1,0,0:0:0:0:
320,192,293854,1,0,0:0:0:0:
448,192,293898,1,0,0:0:0:0:
64,192,293941,1,0,0:0:0:0:
192,192,293941,1,0,0:0:0:0:
320,192,294028,1,0,0:0:0:0:
64,192,294071,1,0,0:0:0:0:
192,192,294114,1,0,0:0:0:0:
448,192,294158,1,0,0:0:0:0:
320,192,294201,1,0,0:0:0:0:
64,192,294201,1,0,0:0:0:0:
192,192,294288,1,0,0:0:0:0:
320,192,294331,1,0,0:0:0:0:
448,192,294374,1,0,0:0:0:0:
64,192,294374,1,0,0:0:0:0:
192,192,294432,1,0,0:0:0:0:
320,192,294461,1,0,0:0:0:0:
64,192,294490,1,0,0:0:0:0:
448,192,294548,1,0,0:0:0:0:
192,192,294635,1,0,0:0:0:0:
448,192,294721,1,0,0:0:0:0:
192,192,294808,1,0,0:0:0:0:
320,192,294895,1,0,0:0:0:0:
448,192,294895,1,0,0:0:0:0:
64,192,294981,1,0,0:0:0:0:
192,192,294981,1,0,0:0:0:0:
192,192,295068,1,0,0:0:0:0:
64,192,295068,1,0,0:0:0:0:
320,192,295155,1,0,0:0:0:0:
192,192,295241,1,0,0:0:0:0:
320,192,295328,1,0,0:0:0:0:
448,192,295328,1,0,0:0:0:0:
192,192,295415,1,0,0:0:0:0:
320,192,295502,1,0,0:0:0:0:
64,192,295588,1,0,0:0:0:0:
192,192,295588,1,0,0:0:0:0:
448,192,295646,1,0,0:0:0:0:
320,192,295704,1,0,0:0:0:0:
64,192,295762,1,0,0:0:0:0:
192,192,295805,1,0,0:0:0:0:
320,192,295848,1,0,0:0:0:0:
448,192,295892,1,0,0:0:0:0:
64,192,295935,1,0,0:0:0:0:
192,192,296022,1,0,0:0:0:0:
320,192,296022,1,0,0:0:0:0:
64,192,296109,1,0,0:0:0:0:
320,192,296195,1,0,0:0:0:0:
448,192,296195,1,0,0:0:0:0:
64,192,296282,1,0,0:0:0:0:
320,192,296282,1,0,0:0:0:0:
448,192,296282,1,0,0:0:0:0:
192,192,296455,1,0,0:0:0:0:
320,192,296477,1,0,0:0:0:0:
448,192,296499,1,0,0:0:0:0:
64,192,296542,1,0,0:0:0:0:
192,192,296629,1,0,0:0:0:0:
320,192,296715,1,0,0:0:0:0:
448,192,296737,1,0,0:0:0:0:
192,192,296802,1,0,0:0:0:0:
64,192,296802,1,0,0:0:0:0:
320,192,296889,1,0,0:0:0:0:
64,192,296976,1,0,0:0:0:0:
192,192,296976,1,0,0:0:0:0:
448,192,296976,1,0,0:0:0:0:
320,192,297149,1,0,0:0:0:0:
448,192,297171,1,0,0:0:0:0:
64,192,297236,1,0,0:0:0:0:
192,192,297322,1,0,0:0:0:0:
320,192,297322,1,0,0:0:0:0:
64,192,297409,1,0,0:0:0:0:
320,192,297496,1,0,0:0:0:0:
192,192,297539,1,0,0:0:0:0:
448,192,297583,1,0,0:0:0:0:
320,192,297669,1,0,0:0:0:0:
64,192,297669,1,0,0:0:0:0:
192,192,297756,1,0,0:0:0:0:
448,192,297756,1,0,0:0:0:0:
64,192,297843,1,0,0:0:0:0:
320,192,297843,1,0,0:0:0:0:
192,192,297929,1,0,0:0:0:0:
448,192,297951,1,0,0:0:0:0:
320,192,298016,1,0,0:0:0:0:
64,192,298103,1,0,0:0:0:0:
192,192,298103,1,0,0:0:0:0:
320,192,298189,1,0,0:0:0:0:
448,192,298233,1,0,0:0:0:0:
64,192,298276,1,0,0:0:0:0:
192,192,298320,1,0,0:0:0:0:
320,192,298363,1,0,0:0:0:0:
448,192,298363,1,0,0:0:0:0:
64,192,298421,1,0,0:0:0:0:
192,192,298478,1,0,0:0:0:0:
448,192,298536,1,0,0:0:0:0:
320,192,298565,1,0,0:0:0:0:
64,192,298623,1,0,0:0:0:0:
192,192,298623,1,0,0:0:0:0:
320,192,298710,1,0,0:0:0:0:
192,192,298796,1,0,0:0:0:0:
64,192,298818,1,0,0:0:0:0:
320,192,298883,1,0,0:0:0:0:
448,192,298883,1,0,0:0:0:0:
192,192,298970,1,0,0:0:0:0:
448,192,298970,1,0,0:0:0:0:
64,192,299057,1,0,0:0:0:0:
320,192,299057,1,0,0:0:0:0:
192,192,299143,1,0,0:0:0:0:
448,192,299143,1,0,0:0:0:0:
320,192,299230,1,0,0:0:0:0:
64,192,299317,1,0,0:0:0:0:
192,192,299317,1,0,0:0:0:0:
320,192,299403,1,0,0:0:0:0:
448,192,299447,1,0,0:0:0:0:
64,192,299490,1,0,0:0:0:0:
192,192,299490,1,0,0:0:0:0:
320,192,299533,1,0,0:0:0:0:
448,192,299577,1,0,0:0:0:0:
192,192,299663,1,0,0:0:0:0:
320,192,299750,128,0,299837:0:0:0:0:
448,192,299750,128,0,299837:0:0:0:0:
192,192,299924,1,0,0:0:0:0:
64,192,299981,1,0,0:0:0:0:
448,192,300032,1,0,0:0:0:0:
320,192,300054,1,0,0:0:0:0:
192,192,300075,1,0,0:0:0:0:
64,192,300097,1,0,0:0:0:0:
448,192,300155,1,0,0:0:0:0:
320,192,300213,1,0,0:0:0:0:
448,192,300270,1,0,0:0:0:0:
64,192,300314,1,0,0:0:0:0:
192,192,300335,1,0,0:0:0:0:
320,192,300357,1,0,0:0:0:0:
448,192,300379,1,0,0:0:0:0:
64,192,300444,1,0,0:0:0:0:
192,192,300444,1,0,0:0:0:0:
320,192,300530,1,0,0:0:0:0:
448,192,300530,1,0,0:0:0:0:
192,192,300617,1,0,0:0:0:0:
64,192,300617,1,0,0:0:0:0:
448,192,300704,1,0,0:0:0:0:
320,192,300733,1,0,0:0:0:0:
192,192,300791,1,0,0:0:0:0:
320,192,300877,1,0,0:0:0:0:
448,192,300877,1,0,0:0:0:0:
192,192,300964,1,0,0:0:0:0:
320,192,301051,1,0,0:0:0:0:
64,192,301137,1,0,0:0:0:0:
192,192,301137,1,0,0:0:0:0:
448,192,301224,1,0,0:0:0:0:
64,192,301311,1,0,0:0:0:0:
192,192,301354,1,0,0:0:0:0:
320,192,301398,1,0,0:0:0:0:
448,192,301419,1,0,0:0:0:0:
192,192,301484,1,0,0:0:0:0:
320,192,301571,1,0,0:0:0:0:
448,192,301571,1,0,0:0:0:0:
64,192,301658,1,0,0:0:0:0:
192,192,301679,1,0,0:0:0:0:
320,192,301744,1,0,0:0:0:0:
64,192,301831,1,0,0:0:0:0:
192,192,301831,1,0,0:0:0:0:
448,192,301831,1,0,0:0:0:0:
320,192,302004,1,0,0:0:0:0:
64,192,302026,1,0,0:0:0:0:
192,192,302091,1,0,0:0:0:0:
448,192,302091,1,0,0:0:0:0:
320,192,302178,1,0,0:0:0:0:
192,192,302265,1,0,0:0:0:0:
64,192,302265,1,0,0:0:0:0:
448,192,302265,1,0,0:0:0:0:
320,192,302351,1,0,0:0:0:0:
64,192,302395,1,0,0:0:0:0:
192,192,302438,1,0,0:0:0:0:
64,192,302525,1,0,0:0:0:0:
320,192,302525,1,0,0:0:0:0:
448,192,302525,1,0,0:0:0:0:
192,192,302698,1,0,0:0:0:0:
320,192,302720,1,0,0:0:0:0:
448,192,302741,1,0,0:0:0:0:
64,192,302785,1,0,0:0:0:0:
320,192,302872,1,0,0:0:0:0:
192,192,302872,1,0,0:0:0:0:
448,192,302958,1,0,0:0:0:0:
64,192,303002,1,0,0:0:0:0:
192,192,303045,1,0,0:0:0:0:
320,192,303088,1,0,0:0:0:0:
448,192,303088,1,0,0:0:0:0:
64,192,303132,1,0,0:0:0:0:
320,192,303218,1,0,0:0:0:0:
448,192,303218,1,0,0:0:0:0:
64,192,303305,1,0,0:0:0:0:
192,192,303305,1,0,0:0:0:0:
192,192,303392,1,0,0:0:0:0:
64,192,303392,1,0,0:0:0:0:
320,192,303478,1,0,0:0:0:0:
448,192,303500,1,0,0:0:0:0:
192,192,303565,1,0,0:0:0:0:
320,192,303652,1,0,0:0:0:0:
64,192,303652,1,0,0:0:0:0:
448,192,303652,1,0,0:0:0:0:
192,192,303739,1,0,0:0:0:0:
64,192,303782,1,0,0:0:0:0:
320,192,303825,1,0,0:0:0:0:
64,192,303912,1,0,0:0:0:0:
192,192,303912,1,0,0:0:0:0:
448,192,303912,1,0,0:0:0:0:
320,192,303999,1,0,0:0:0:0:
448,192,304042,1,0,0:0:0:0:
192,192,304085,1,0,0:0:0:0:
448,192,304172,1,0,0:0:0:0:
320,192,304172,1,0,0:0:0:0:
64,192,304172,1,0,0:0:0:0:
192,192,304259,1,0,0:0:0:0:
320,192,304324,1,0,0:0:0:0:
448,192,304346,1,0,0:0:0:0:
64,192,304432,1,0,0:0:0:0:
192,192,304432,1,0,0:0:0:0:
192,192,304519,1,0,0:0:0:0:
64,192,304519,1,0,0:0:0:0:
320,192,304606,1,0,0:0:0:0:
448,192,304606,1,0,0:0:0:0:
192,192,304692,1,0,0:0:0:0:
64,192,304692,1,0,0:0:0:0:
320,192,304757,1,0,0:0:0:0:
448,192,304779,1,0,0:0:0:0:
192,192,304866,1,0,0:0:0:0:
64,192,304866,1,0,0:0:0:0:
320,192,304952,1,0,0:0:0:0:
192,192,305010,1,0,0:0:0:0:
448,192,305039,1,0,0:0:0:0:
64,192,305068,1,0,0:0:0:0:
320,192,305083,1,0,0:0:0:0:
192,192,305126,1,0,0:0:0:0:
320,192,305213,1,0,0:0:0:0:
64,192,305299,1,0,0:0:0:0:
192,192,305299,1,0,0:0:0:0:
448,192,305299,1,0,0:0:0:0:
320,192,305386,1,0,0:0:0:0:
64,192,305451,1,0,0:0:0:0:
192,192,305473,1,0,0:0:0:0:
320,192,305516,1,0,0:0:0:0:
448,192,305559,1,0,0:0:0:0:
192,192,305646,1,0,0:0:0:0:
320,192,305733,1,0,0:0:0:0:
192,192,305820,1,0,0:0:0:0:
64,192,305906,1,0,0:0:0:0:
448,192,305993,1,0,0:0:0:0:
320,192,305993,1,0,0:0:0:0:
64,192,306080,1,0,0:0:0:0:
192,192,306080,1,0,0:0:0:0:
192,192,306166,1,0,0:0:0:0:
64,192,306166,1,0,0:0:0:0:
320,192,306253,1,0,0:0:0:0:
448,192,306296,1,0,0:0:0:0:
192,192,306340,1,0,0:0:0:0:
320,192,306426,1,0,0:0:0:0:
448,192,306426,1,0,0:0:0:0:
192,192,306513,1,0,0:0:0:0:
320,192,306600,1,0,0:0:0:0:
64,192,306687,1,0,0:0:0:0:
192,192,306687,1,0,0:0:0:0:
320,192,306773,1,0,0:0:0:0:
448,192,306817,1,0,0:0:0:0:
64,192,306860,1,0,0:0:0:0:
192,192,306882,1,0,0:0:0:0:
320,192,306947,1,0,0:0:0:0:
192,192,307033,1,0,0:0:0:0:
64,192,307120,1,0,0:0:0:0:
320,192,307120,1,0,0:0:0:0:
448,192,307120,1,0,0:0:0:0:
192,192,307207,1,0,0:0:0:0:
320,192,307294,1,0,0:0:0:0:
448,192,307294,1,0,0:0:0:0:
64,192,307294,1,0,0:0:0:0:
320,192,307380,1,0,0:0:0:0:
448,192,307380,1,0,0:0:0:0:
64,192,307532,1,0,0:0:0:0:
192,192,307554,1,0,0:0:0:0:
320,192,307597,1,0,0:0:0:0:
448,192,307640,1,0,0:0:0:0:
320,192,307727,1,0,0:0:0:0:
192,192,307814,1,0,0:0:0:0:
64,192,307814,1,0,0:0:0:0:
448,192,307814,1,0,0:0:0:0:
192,192,307900,1,0,0:0:0:0:
64,192,307900,1,0,0:0:0:0:
320,192,307987,1,0,0:0:0:0:
448,192,308074,1,0,0:0:0:0:
192,192,308074,1,0,0:0:0:0:
64,192,308074,1,0,0:0:0:0:
320,192,308204,1,0,0:0:0:0:
448,192,308247,1,0,0:0:0:0:
64,192,308269,1,0,0:0:0:0:
192,192,308291,1,0,0:0:0:0:
320,192,308334,1,0,0:0:0:0:
64,192,308421,1,0,0:0:0:0:
448,192,308421,1,0,0:0:0:0:
192,192,308507,1,0,0:0:0:0:
320,192,308594,1,0,0:0:0:0:
448,192,308594,1,0,0:0:0:0:
64,192,308681,1,0,0:0:0:0:
320,192,308767,1,0,0:0:0:0:
448,192,308767,1,0,0:0:0:0:
192,192,308854,1,0,0:0:0:0:
64,192,308854,1,0,0:0:0:0:
64,192,308941,1,0,0:0:0:0:
192,192,308941,1,0,0:0:0:0:
448,192,309028,1,0,0:0:0:0:
320,192,309049,1,0,0:0:0:0:
192,192,309114,1,0,0:0:0:0:
320,192,309201,1,0,0:0:0:0:
448,192,309201,1,0,0:0:0:0:
64,192,309201,1,0,0:0:0:0:
192,192,309288,1,0,0:0:0:0:
64,192,309374,1,0,0:0:0:0:
192,192,309461,1,0,0:0:0:0:
320,192,309461,1,0,0:0:0:0:
448,192,309461,1,0,0:0:0:0:
64,192,309548,1,0,0:0:0:0:
320,192,309577,1,0,0:0:0:0:
192,192,309635,1,0,0:0:0:0:
448,192,309692,1,0,0:0:0:0:
320,192,309692,1,0,0:0:0:0:
64,192,309750,1,0,0:0:0:0:
192,192,309808,1,0,0:0:0:0:
320,192,309851,1,0,0:0:0:0:
448,192,309895,1,0,0:0:0:0:
64,192,309938,1,0,0:0:0:0:
192,192,309981,1,0,0:0:0:0:
320,192,309981,1,0,0:0:0:0:
192,192,310068,1,0,0:0:0:0:
320,192,310068,1,0,0:0:0:0:
64,192,310155,1,0,0:0:0:0:
448,192,310155,1,0,0:0:0:0:
192,192,310241,1,0,0:0:0:0:
320,192,310241,1,0,0:0:0:0:
192,192,310415,5,0,0:0:0:0:
320,192,310415,1,0,0:0:0:0:
448,192,310502,1,0,0:0:0:0:
64,192,310588,1,0,0:0:0:0:
192,192,310610,1,0,0:0:0:0:
320,192,310675,1,0,0:0:0:0:
64,192,310762,1,0,0:0:0:0:
192,192,310783,1,0,0:0:0:0:
448,192,310848,1,0,0:0:0:0:
320,192,310892,1,0,0:0:0:0:
64,192,310957,1,0,0:0:0:0:
192,192,310978,1,0,0:0:0:0:
448,192,311022,1,0,0:0:0:0:
320,192,311080,1,0,0:0:0:0:
64,192,311109,1,0,0:0:0:0:
192,192,311130,1,0,0:0:0:0:
448,192,311195,1,0,0:0:0:0:
320,192,311253,1,0,0:0:0:0:
64,192,311282,1,0,0:0:0:0:
192,192,311304,1,0,0:0:0:0:
448,192,311311,1,0,0:0:0:0:
320,192,311369,1,0,0:0:0:0:
64,192,311412,1,0,0:0:0:0:
448,192,311426,1,0,0:0:0:0:
192,192,311434,1,0,0:0:0:0:
320,192,311484,1,0,0:0:0:0:
64,192,311542,5,0,0:0:0:0:
448,192,311542,128,0,311773:0:0:0:0:
192,192,311542,128,0,311715:0:0:0:0:
192,192,311773,128,0,311918:0:0:0:0:
320,192,311773,1,0,0:0:0:0:
64,192,311976,128,0,312178:0:0:0:0:
320,192,311976,1,0,0:0:0:0:
192,192,311976,128,0,312178:0:0:0:0:
320,192,312236,1,0,0:0:0:0:
64,192,312236,128,0,312409:0:0:0:0:
448,192,312236,128,0,312496:0:0:0:0:
192,192,312322,128,0,312409:0:0:0:0:
320,192,312409,128,0,312496:0:0:0:0:
64,192,312611,128,0,312785:0:0:0:0:
320,192,312669,1,0,0:0:0:0:
192,192,312669,128,0,312872:0:0:0:0:
448,192,312872,1,0,0:0:0:0:
320,192,312929,1,0,0:0:0:0:
192,192,312929,128,0,313189:0:0:0:0:
64,192,312929,128,0,313305:0:0:0:0:
192,192,313392,1,0,0:0:0:0:
448,192,313392,128,0,313565:0:0:0:0:
320,192,313392,128,0,313565:0:0:0:0:
64,192,313623,128,0,313970:0:0:0:0:
448,192,313623,1,0,0:0:0:0:
192,192,313796,128,0,313883:0:0:0:0:
320,192,313883,128,0,313970:0:0:0:0:
448,192,313970,128,0,313999:0:0:0:0:
64,192,314317,1,0,0:0:0:0:
448,192,314317,1,0,0:0:0:0:
192,192,314317,128,0,314490:0:0:0:0:
448,192,314432,128,0,314548:0:0:0:0:
192,192,314548,1,0,0:0:0:0:
320,192,314548,128,0,314692:0:0:0:0:
192,192,314750,1,0,0:0:0:0:
320,192,314750,128,0,314952:0:0:0:0:
448,192,314750,128,0,314837:0:0:0:0:
64,192,314895,1,0,0:0:0:0:
192,192,315010,1,0,0:0:0:0:
320,192,315010,128,0,315213:0:0:0:0:
448,192,315010,128,0,315068:0:0:0:0:
64,192,315184,128,0,315270:0:0:0:0:
320,192,315270,1,0,0:0:0:0:
192,192,315270,1,0,0:0:0:0:
448,192,315444,128,0,315530:0:0:0:0:
192,192,315530,1,0,0:0:0:0:
64,192,315530,1,0,0:0:0:0:
320,192,315617,1,0,0:0:0:0:
64,192,315617,1,0,0:0:0:0:
448,192,315704,1,0,0:0:0:0:
320,192,315704,1,0,0:0:0:0:
192,192,315704,128,0,315877:0:0:0:0:
64,192,315791,128,0,315906:0:0:0:0:
448,192,315964,128,0,316137:0:0:0:0:
320,192,315964,128,0,316080:0:0:0:0:
64,192,316051,128,0,316137:0:0:0:0:
192,192,316137,128,0,316340:0:0:0:0:
320,192,316137,1,0,0:0:0:0:
448,192,316311,128,0,316398:0:0:0:0:
64,192,316398,128,0,316571:0:0:0:0:
192,192,316398,128,0,316658:0:0:0:0:
320,192,316398,1,0,0:0:0:0:
320,192,316571,128,0,316658:0:0:0:0:
448,192,316658,1,0,0:0:0:0:
320,192,316802,1,0,0:0:0:0:
64,192,316860,128,0,316976:0:0:0:0:
192,192,316947,1,0,0:0:0:0:
320,192,317004,1,0,0:0:0:0:
192,192,317091,1,0,0:0:0:0:
64,192,317091,128,0,317322:0:0:0:0:
448,192,317091,128,0,317265:0:0:0:0:
320,192,317322,1,0,0:0:0:0:
448,192,317322,128,0,317467:0:0:0:0:
192,192,317322,1,0,0:0:0:0:
64,192,317525,128,0,317727:0:0:0:0:
448,192,317525,1,0,0:0:0:0:
320,192,317525,128,0,317727:0:0:0:0:
320,192,317785,1,0,0:0:0:0:
192,192,317785,128,0,317958:0:0:0:0:
64,192,317785,128,0,318045:0:0:0:0:
448,192,317872,128,0,318045:0:0:0:0:
448,192,318161,128,0,318218:0:0:0:0:
320,192,318218,1,0,0:0:0:0:
192,192,318218,128,0,318421:0:0:0:0:
448,192,318421,1,0,0:0:0:0:
320,192,318478,1,0,0:0:0:0:
192,192,318478,128,0,318739:0:0:0:0:
64,192,318478,128,0,318825:0:0:0:0:
320,192,318941,1,0,0:0:0:0:
448,192,318941,128,0,319114:0:0:0:0:
192,192,318941,128,0,319114:0:0:0:0:
64,192,319172,128,0,319346:0:0:0:0:
448,192,319172,1,0,0:0:0:0:
192,192,319346,1,0,0:0:0:0:
320,192,319374,1,0,0:0:0:0:
448,192,319403,128,0,319432:0:0:0:0:
64,192,319519,1,0,0:0:0:0:
320,192,319519,128,0,319663:0:0:0:0:
320,192,319721,1,0,0:0:0:0:
448,192,319721,1,0,0:0:0:0:
64,192,319866,1,0,0:0:0:0:
320,192,319866,1,0,0:0:0:0:
192,192,319866,128,0,320039:0:0:0:0:
448,192,319981,128,0,320097:0:0:0:0:
64,192,320097,1,0,0:0:0:0:
192,192,320097,128,0,320241:0:0:0:0:
192,192,320299,1,0,0:0:0:0:
64,192,320299,128,0,320502:0:0:0:0:
448,192,320299,128,0,320386:0:0:0:0:
320,192,320444,1,0,0:0:0:0:
320,192,320559,1,0,0:0:0:0:
192,192,320559,128,0,320841:0:0:0:0:
448,192,320559,128,0,320617:0:0:0:0:
320,192,320733,128,0,320791:0:0:0:0:
64,192,320841,128,0,320885:0:0:0:0:
192,192,320885,128,0,320928:0:0:0:0:
320,192,320928,128,0,320993:0:0:0:0:
448,192,320993,128,0,321195:0:0:0:0:
64,192,320993,128,0,321109:0:0:0:0:
192,192,321109,1,0,0:0:0:0:
320,192,321195,128,0,321253:0:0:0:0:
192,192,321253,128,0,321687:0:0:0:0:
448,192,321253,128,0,321687:0:0:0:0:
64,192,321253,128,0,321426:0:0:0:0:
320,192,321687,128,0,321860:0:0:0:0:
64,192,321687,128,0,321744:0:0:0:0:
448,192,321860,128,0,321918:0:0:0:0:
64,192,321947,128,0,322120:0:0:0:0:
192,192,321947,128,0,322207:0:0:0:0:
320,192,321947,1,0,0:0:0:0:
448,192,322120,128,0,322351:0:0:0:0:
320,192,322149,128,0,322380:0:0:0:0:
64,192,322409,128,0,322496:0:0:0:0:
320,192,322496,128,0,322640:0:0:0:0:
192,192,322640,128,0,322872:0:0:0:0:
64,192,322640,128,0,322814:0:0:0:0:
448,192,322640,1,0,0:0:0:0:
448,192,322872,128,0,323016:0:0:0:0:
320,192,322872,1,0,0:0:0:0:
192,192,323074,128,0,323276:0:0:0:0:
448,192,323074,1,0,0:0:0:0:
320,192,323074,128,0,323276:0:0:0:0:
64,192,323334,1,0,0:0:0:0:
448,192,323334,128,0,323507:0:0:0:0:
320,192,323334,128,0,323594:0:0:0:0:
192,192,323421,128,0,323507:0:0:0:0:
64,192,323507,128,0,323594:0:0:0:0:
448,192,323710,128,0,323883:0:0:0:0:
320,192,323767,1,0,0:0:0:0:
192,192,323767,128,0,323970:0:0:0:0:
448,192,323970,1,0,0:0:0:0:
320,192,324028,1,0,0:0:0:0:
64,192,324028,128,0,324288:0:0:0:0:
192,192,324028,128,0,324403:0:0:0:0:
320,192,324490,1,0,0:0:0:0:
448,192,324490,128,0,324663:0:0:0:0:
64,192,324490,128,0,324663:0:0:0:0:
192,192,324721,128,0,325068:0:0:0:0:
448,192,324721,1,0,0:0:0:0:
64,192,324895,128,0,324981:0:0:0:0:
320,192,324981,128,0,325068:0:0:0:0:
448,192,325068,128,0,325097:0:0:0:0:
64,192,325415,1,0,0:0:0:0:
448,192,325415,1,0,0:0:0:0:
192,192,325415,128,0,325588:0:0:0:0:
448,192,325530,128,0,325646:0:0:0:0:
192,192,325646,1,0,0:0:0:0:
320,192,325646,128,0,325791:0:0:0:0:
192,192,325848,1,0,0:0:0:0:
320,192,325848,128,0,326051:0:0:0:0:
448,192,325848,128,0,325935:0:0:0:0:
64,192,325993,1,0,0:0:0:0:
192,192,326109,1,0,0:0:0:0:
320,192,326109,128,0,326282:0:0:0:0:
448,192,326109,128,0,326166:0:0:0:0:
64,192,326282,128,0,326369:0:0:0:0:
192,192,326282,1,0,0:0:0:0:
448,192,326369,128,0,326571:0:0:0:0:
320,192,326369,128,0,326455:0:0:0:0:
64,192,326542,128,0,326629:0:0:0:0:
320,192,326629,1,0,0:0:0:0:
448,192,326629,1,0,0:0:0:0:
320,192,326715,1,0,0:0:0:0:
448,192,326715,1,0,0:0:0:0:
192,192,326802,1,0,0:0:0:0:
64,192,326802,128,0,326976:0:0:0:0:
192,192,326976,128,0,327149:0:0:0:0:
448,192,326976,128,0,327149:0:0:0:0:
320,192,327149,1,0,0:0:0:0:
448,192,327236,128,0,327409:0:0:0:0:
64,192,327236,128,0,327409:0:0:0:0:
320,192,327409,1,0,0:0:0:0:
64,192,327496,128,0,327756:0:0:0:0:
448,192,327496,128,0,327669:0:0:0:0:
192,192,327496,1,0,0:0:0:0:
192,192,327669,128,0,327756:0:0:0:0:
320,192,327756,1,0,0:0:0:0:
448,192,327900,1,0,0:0:0:0:
320,192,327958,128,0,328074:0:0:0:0:
192,192,328045,1,0,0:0:0:0:
64,192,328103,1,0,0:0:0:0:
320,192,328189,1,0,0:0:0:0:
448,192,328189,128,0,328421:0:0:0:0:
192,192,328189,128,0,328363:0:0:0:0:
192,192,328421,1,0,0:0:0:0:
64,192,328421,128,0,328565:0:0:0:0:
320,192,328421,1,0,0:0:0:0:
64,192,328623,128,0,328825:0:0:0:0:
448,192,328623,1,0,0:0:0:0:
320,192,328623,128,0,328825:0:0:0:0:
320,192,328883,1,0,0:0:0:0:
192,192,328883,128,0,329057:0:0:0:0:
64,192,328883,128,0,329143:0:0:0:0:
448,192,328970,128,0,329143:0:0:0:0:
448,192,329259,128,0,329317:0:0:0:0:
320,192,329317,1,0,0:0:0:0:
192,192,329317,128,0,329519:0:0:0:0:
448,192,329519,1,0,0:0:0:0:
320,192,329577,1,0,0:0:0:0:
192,192,329577,128,0,329837:0:0:0:0:
64,192,329577,128,0,329924:0:0:0:0:
320,192,330039,128,0,330213:0:0:0:0:
192,192,330039,128,0,330213:0:0:0:0:
448,192,330039,128,0,330097:0:0:0:0:
64,192,330270,128,0,330386:0:0:0:0:
320,192,330270,1,0,0:0:0:0:
192,192,330444,1,0,0:0:0:0:
64,192,330444,128,0,330502:0:0:0:0:
320,192,330473,1,0,0:0:0:0:
448,192,330502,128,0,330530:0:0:0:0:
320,192,330617,128,0,330762:0:0:0:0:
192,192,330617,1,0,0:0:0:0:
64,192,330704,128,0,330762:0:0:0:0:
320,192,330820,1,0,0:0:0:0:
448,192,330820,1,0,0:0:0:0:
64,192,330964,1,0,0:0:0:0:
192,192,330964,1,0,0:0:0:0:
320,192,330964,128,0,331137:0:0:0:0:
448,192,331080,128,0,331195:0:0:0:0:
64,192,331195,1,0,0:0:0:0:
192,192,331195,128,0,331340:0:0:0:0:
192,192,331398,1,0,0:0:0:0:
64,192,331398,128,0,331600:0:0:0:0:
448,192,331398,128,0,331484:0:0:0:0:
320,192,331542,1,0,0:0:0:0:
192,192,331658,1,0,0:0:0:0:
320,192,331658,128,0,331831:0:0:0:0:
448,192,331658,128,0,331715:0:0:0:0:
192,192,331831,128,0,331918:0:0:0:0:
448,192,331918,1,0,0:0:0:0:
320,192,331918,1,0,0:0:0:0:
64,192,331918,1,0,0:0:0:0:
320,192,332091,128,0,332178:0:0:0:0:
64,192,332178,1,0,0:0:0:0:
192,192,332178,1,0,0:0:0:0:
448,192,332178,1,0,0:0:0:0:
64,192,332265,1,0,0:0:0:0:
192,192,332265,1,0,0:0:0:0:
320,192,332351,1,0,0:0:0:0:
448,192,332351,1,0,0:0:0:0:
192,192,332525,128,0,332698:0:0:0:0:
448,192,332698,128,0,332785:0:0:0:0:
192,192,332785,128,0,332958:0:0:0:0:
320,192,332785,128,0,332843:0:0:0:0:
448,192,332958,128,0,333016:0:0:0:0:
320,192,332958,1,0,0:0:0:0:
64,192,333045,1,0,0:0:0:0:
320,192,333132,1,0,0:0:0:0:
448,192,333197,1,0,0:0:0:0:
320,192,333305,1,0,0:0:0:0:
192,192,333348,1,0,0:0:0:0:
448,192,333457,1,0,0:0:0:0:
64,192,333565,1,0,0:0:0:0:
320,192,333609,1,0,0:0:0:0:
448,192,333652,1,0,0:0:0:0:
192,192,333739,1,0,0:0:0:0:
320,192,333869,1,0,0:0:0:0:
448,192,333955,1,0,0:0:0:0:
64,192,334064,1,0,0:0:0:0:
320,192,334129,1,0,0:0:0:0:
192,192,334259,128,0,334346:0:0:0:0:
448,192,334288,128,0,334461:0:0:0:0:
