osu file format v14

[General]
AudioFilename: audio.mp3
AudioLeadIn: 0
PreviewTime: 113901
Countdown: 0
SampleSet: None
StackLeniency: 0.2
Mode: 0
LetterboxInBreaks: 0
EpilepsyWarning: 1
WidescreenStoryboard: 0

[Editor]
Bookmarks: 25994,48320,70645,92971,115296,137622,159948,182273,204599,226924,249250,271575,293901,314831,334868
DistanceSpacing: 0.3
BeatDivisor: 8
GridSize: 4
TimelineZoom: 3.299999

[Metadata]
Title:Metal Jaws
TitleUnicode:Metal Jaws
Artist:Billain
ArtistUnicode:Billain
Creator:Hysteria
Version:Ingemination/Contradistinction
Source:
Tags:Zer0-
BeatmapID:1424874
BeatmapSetID:673248

[Difficulty]
HPDrainRate:6.9
CircleSize:4
OverallDifficulty:9
ApproachRate:9.7
SliderMultiplier:2.1
SliderTickRate:1

[Events]
//Background and Video events
0,0,"BG_Metal_Jaws_Collab.jpg",0,0
Video,0,"Billain_-_Metal_Jaws_-_(Bad_Taste_Recordings).mp4"
//Break Periods
//Storyboard Layer 0 (Background)
//Storyboard Layer 1 (Fail)
//Storyboard Layer 2 (Pass)
//Storyboard Layer 3 (Foreground)
//Storyboard Sound Samples

[TimingPoints]
3669,348.837209302326,4,3,0,60,1,0
4017,-200,4,3,0,60,0,0
5064,-100,4,3,0,60,0,0
5413,-200,4,3,0,60,0,0
6459,-100,4,3,0,60,0,0
6808,-200,4,3,0,60,0,0
7506,-100,4,3,0,60,0,0
8203,-200,4,3,0,60,0,0
9250,-100,4,3,0,60,0,0
9599,-200,4,3,0,60,0,0
10645,-100,4,3,0,60,0,0
10994,-200,4,3,0,60,0,0
11692,-100,4,3,0,60,0,0
12389,-200,4,3,0,60,0,0
13436,-100,4,3,0,60,0,0
13785,-200,4,3,0,60,0,0
14483,-100,4,3,0,60,0,0
15529,-200,4,3,0,60,0,0
15878,-100,4,3,0,60,0,0
16924,-200,4,3,0,60,0,0
17273,-100,4,3,0,60,0,0
17622,-66.6666666666667,4,3,0,60,0,0
17971,-100,4,3,0,60,0,0
18320,-200,4,3,0,60,0,0
18669,-100,4,3,0,60,0,0
21110,-200,4,3,0,60,0,0
21459,-100,4,3,0,60,0,0
22506,-200,4,3,0,60,0,0
22855,-100,4,3,0,60,0,0
23901,-200,4,3,0,60,0,0
24250,-100,4,3,0,60,0,0
25296,-50,4,3,0,60,0,0
25645,-200,4,3,0,60,0,0
25994,-100,4,3,0,60,0,0
46924,-80,4,3,0,60,0,0
48669,-133.333333333333,4,3,0,60,0,0
48930,-50,4,3,0,60,0,0
49192,-133.333333333333,4,3,0,60,0,0
49453,-66.6666666666667,4,3,0,60,0,0
49715,-80,4,3,0,60,0,0
50064,-133.333333333333,4,3,0,60,0,0
50325,-50,4,3,0,60,0,0
50587,-133.333333333333,4,3,0,60,0,0
50936,-66.6666666666667,4,3,0,60,0,0
51110,-80,4,3,0,60,0,0
51459,-133.333333333333,4,3,0,60,0,0
51721,-50,4,3,0,60,0,0
51982,-133.333333333333,4,3,0,60,0,0
52244,-66.6666666666667,4,3,0,60,0,0
52506,-80,4,3,0,60,0,0
52855,-133.333333333333,4,3,0,60,0,0
53116,-50,4,3,0,60,0,0
53378,-133.333333333333,4,3,0,60,0,0
53727,-66.6666666666667,4,3,0,60,0,0
53901,-80,4,3,0,60,0,0
54250,-133.333333333333,4,3,0,60,0,0
54512,-50,4,3,0,60,0,0
54773,-133.333333333333,4,3,0,60,0,0
55035,-66.6666666666667,4,3,0,60,0,0
55296,-80,4,3,0,60,0,0
55645,-133.333333333333,4,3,0,60,0,0
55907,-50,4,3,0,60,0,0
56169,-133.333333333333,4,3,0,60,0,0
56430,-66.6666666666667,4,3,0,60,0,0
56692,-80,4,3,0,60,0,0
57041,-133.333333333333,4,3,0,60,0,0
57302,-50,4,3,0,60,0,0
57564,-133.333333333333,4,3,0,60,0,0
57913,-66.6666666666667,4,3,0,60,0,0
58087,-80,4,3,0,60,0,0
58436,-133.333333333333,4,3,0,60,0,0
58698,-50,4,3,0,60,0,0
58959,-133.333333333333,4,3,0,60,0,0
59308,-66.6666666666667,4,3,0,60,0,0
59482,-50,4,3,0,60,0,1
59570,-50,4,3,0,60,0,0
59831,-200,4,3,0,60,0,0
60093,-50,4,3,0,60,0,0
60355,-200,4,3,0,60,0,0
60616,-66.6666666666667,4,3,0,60,0,0
60878,-50,4,3,0,60,0,0
61227,-200,4,3,0,60,0,0
61488,-50,4,3,0,60,0,0
61750,-200,4,3,0,60,0,0
62012,-66.6666666666667,4,3,0,60,0,0
62273,-50,4,3,0,60,0,0
62622,-200,4,3,0,60,0,0
62884,-50,4,3,0,60,0,0
63145,-200,4,3,0,60,0,0
63407,-66.6666666666667,4,3,0,60,0,0
63669,-50,4,3,0,60,0,0
64017,-200,4,3,0,60,0,0
64279,-50,4,3,0,60,0,0
64541,-200,4,3,0,60,0,0
64802,-66.6666666666667,4,3,0,60,0,0
65064,-50,4,3,0,60,0,0
69250,-100,4,3,0,60,0,0
69599,-66.6666666666667,4,3,0,60,0,0
70645,-200,4,3,0,60,0,0
70994,-66.6666666666667,4,3,0,60,0,0
71256,-50,4,3,0,60,0,0
71387,-57.1428571428571,4,3,0,60,0,0
71517,-66.6666666666667,4,3,0,60,0,0
71690,-50,4,3,0,60,0,0
71779,-100,4,3,0,60,0,0
72041,-200,4,3,0,60,0,0
72389,-66.6666666666667,4,3,0,60,0,0
72651,-50,4,3,0,60,0,0
72825,-57.1428571428571,4,3,0,60,0,0
73000,-66.6666666666667,4,3,0,60,0,0
73087,-50,4,3,0,60,0,0
73262,-66.6666666666667,4,3,0,60,0,0
73436,-200,4,3,0,60,0,0
73785,-66.6666666666667,4,3,0,60,0,0
74046,-50,4,3,0,60,0,0
74308,-57.1428571428571,4,3,0,60,0,0
74482,-66.6666666666667,4,3,0,60,0,0
74570,-100,4,3,0,60,0,0
74831,-200,4,3,0,60,0,0
75180,-66.6666666666667,4,3,0,60,0,0
75442,-50,4,3,0,60,0,0
75703,-57.1428571428571,4,3,0,60,0,0
75878,-50,4,3,0,60,0,0
76052,-66.6666666666667,4,3,0,60,0,0
76227,-200,4,3,0,60,0,0
76575,-66.6666666666667,4,3,0,60,0,0
76837,-50,4,3,0,60,0,0
76968,-57.1428571428571,4,3,0,60,0,0
77099,-66.6666666666667,4,3,0,60,0,0
77230,-50,4,3,0,60,0,0
77317,-100,4,3,0,60,0,0
77622,-200,4,3,0,60,0,0
77971,-66.6666666666667,4,3,0,60,0,0
78232,-50,4,3,0,60,0,0
78407,-57.1428571428571,4,3,0,60,0,0
78581,-66.6666666666667,4,3,0,60,0,0
78669,-50,4,3,0,60,0,0
78843,-66.6666666666667,4,3,0,60,0,0
79017,-200,4,3,0,60,0,0
79366,-66.6666666666667,4,3,0,60,0,0
79628,-50,4,3,0,60,0,0
79889,-57.1428571428571,4,3,0,60,0,0
80064,-50,4,3,0,60,0,0
80151,-100,4,3,0,60,0,0
80413,-200,4,3,0,60,0,0
80762,-66.6666666666667,4,3,0,60,0,0
81198,-62.5,4,3,0,60,0,0
81328,-58.8235294117647,4,3,0,60,0,0
81503,-55.5555555555556,4,3,0,60,0,0
81634,-66.6666666666667,4,3,0,60,0,0
81808,-200,4,3,0,60,0,0
82157,-66.6666666666667,4,3,0,60,0,0
82419,-50,4,3,0,60,0,0
82549,-57.1428571428571,4,3,0,60,0,0
82680,-66.6666666666667,4,3,0,60,0,0
82855,-50,4,3,0,60,0,0
82942,-100,4,3,0,60,0,0
83203,-200,4,3,0,60,0,0
83552,-66.6666666666667,4,3,0,60,0,0
83814,-50,4,3,0,60,0,0
83945,-57.1428571428571,4,3,0,60,0,0
84119,-66.6666666666667,4,3,0,60,0,0
84250,-50,4,3,0,60,0,0
84424,-66.6666666666667,4,3,0,60,0,0
84599,-200,4,3,0,60,0,0
84948,-66.6666666666667,4,3,0,60,0,0
85209,-50,4,3,0,60,0,0
85471,-57.1428571428571,4,3,0,60,0,0
85645,-50,4,3,0,60,0,0
85732,-100,4,3,0,60,0,0
85994,-200,4,3,0,60,0,0
86343,-66.6666666666667,4,3,0,60,0,0
86605,-50,4,3,0,60,0,0
87215,-66.6666666666667,4,3,0,60,0,0
87389,-200,4,3,0,60,0,0
87738,-66.6666666666667,4,3,0,60,0,0
88000,-50,4,3,0,60,0,0
88131,-57.1428571428571,4,3,0,60,0,0
88262,-66.6666666666667,4,3,0,60,0,0
88436,-50,4,3,0,60,0,0
88523,-100,4,3,0,60,0,0
88785,-200,4,3,0,60,0,0
89134,-66.6666666666667,4,3,0,60,0,0
89395,-50,4,3,0,60,0,0
89570,-57.1428571428571,4,3,0,60,0,0
89744,-66.6666666666667,4,3,0,60,0,0
89831,-50,4,3,0,60,0,0
90006,-66.6666666666667,4,3,0,60,0,0
90180,-200,4,3,0,60,0,0
90529,-66.6666666666667,4,3,0,60,0,0
90791,-50,4,3,0,60,0,0
91052,-57.1428571428571,4,3,0,60,0,0
91227,-50,4,3,0,60,0,0
91314,-100,4,3,0,60,0,0
91575,-200,4,3,0,60,0,0
91924,-66.6666666666667,4,3,0,60,0,0
92971,-200,4,3,0,60,0,0
93320,-66.6666666666667,4,3,0,60,0,0
94105,-200,4,3,0,60,0,0
94715,-66.6666666666667,4,3,0,60,0,0
95413,-50,4,3,0,60,0,0
95587,-200,4,3,0,60,0,0
96110,-66.6666666666667,4,3,0,60,0,0
96895,-200,4,3,0,60,0,0
97506,-66.6666666666667,4,3,0,60,0,0
97767,-50,4,3,0,60,0,0
98203,-66.6666666666667,4,3,0,60,0,0
98378,-200,4,3,0,60,0,0
98901,-66.6666666666667,4,3,0,60,0,0
99686,-200,4,3,0,60,0,0
100296,-66.6666666666667,4,3,0,60,0,0
100994,-50,4,3,0,60,0,0
101169,-200,4,3,0,60,0,0
101692,-66.6666666666667,4,3,0,60,0,0
101953,-50,4,3,0,60,0,0
102477,-200,4,3,0,60,0,0
103087,-66.6666666666667,4,3,0,60,0,0
103785,-100,4,3,0,60,0,0
104134,-66.6666666666667,4,3,0,60,0,0
105267,-200,4,3,0,60,0,0
105878,-66.6666666666667,4,3,0,60,0,0
106575,-50,4,3,0,60,0,0
106750,-200,4,3,0,60,0,0
107273,-66.6666666666667,4,3,0,60,0,0
108058,-200,4,3,0,60,0,0
108669,-66.6666666666667,4,3,0,60,0,0
108930,-50,4,3,0,60,0,0
109541,-200,4,3,0,60,0,0
110064,-66.6666666666667,4,3,0,60,0,0
110849,-200,4,3,0,60,0,0
111459,-66.6666666666667,4,3,0,60,0,0
112157,-50,4,3,0,60,0,0
112331,-200,4,3,0,60,0,0
112855,-66.6666666666667,4,3,0,60,0,0
114075,-200,4,3,0,60,0,0
114250,-50,4,3,0,60,0,0
114424,-100,4,3,0,60,0,0
114686,-200,4,3,0,60,0,0
115035,-133.333333333333,4,3,0,60,0,0
115296,-200,4,3,0,60,0,0

[Colours]
Combo1 : 159,199,120
Combo2 : 120,159,199
Combo3 : 140,120,199
Combo4 : 199,120,140
Combo5 : 199,180,120

[HitObjects]
256,192,355,12,0,3581,0:0:0:0:
48,4,3669,6,0,L|65:161,1,157.5
81,177,4017,1,0,0:0:0:0:
81,177,4366,2,0,L|72:98,1,78.75
97,193,4715,2,0,L|90:273,1,78.75
100,366,5064,6,0,L|114:198,1,157.5
236,141,5413,2,0,B|174:148|174:148|118:132|118:132|55:140,1,183.75
252,157,6110,2,0,L|173:166,1,78.75
255,16,6459,6,0,L|268:172,1,157.5
284,188,6808,1,0,0:0:0:0:
284,188,7157,2,0,L|275:267,1,78.75
218,312,7505,2,0,L|290:280,1,78.75
425,351,7855,6,0,L|296:261,1,157.5
173,192,8203,2,0,B|235:199|235:199|291:183|291:183|354:191,1,183.75
157,208,8901,2,0,L|236:217,1,78.75
128,381,9250,6,0,L|142:213,1,157.5
136,203,9598,1,0,0:0:0:0:
136,203,9947,2,0,L|57:212,1,78.75
157,208,10296,2,0,L|188:135,1,78.75
142,223,10645,6,0,L|232:353,1,157.5
351,345,10994,2,0,B|288:337|288:337|232:353|232:353|170:346,1,183.75
367,329,11691,2,0,L|288:320,1,78.75
396,156,12040,6,0,L|382:312,1,157.5
390,335,12389,1,0,0:0:0:0:
390,335,12738,2,0,L|469:326,1,78.75
304,322,13087,2,0,L|383:313,1,78.75
220,309,13436,5,0,0:0:0:0:
475,348,13610,1,0,0:0:0:0:
382,108,13784,1,0,0:0:0:0:
358,255,13959,1,0,0:0:0:0:
234,84,14133,2,0,L|235:63,7,13.125
236,58,14482,1,0,0:0:0:0:
236,58,14831,6,0,L|222:214,1,157.5
220,309,15180,2,0,L|210:204,1,105
210,204,15529,2,0,L|192:187,4,13.125
232,319,15878,2,0,L|222:214,1,105
242,328,16226,6,0,L|398:314,1,157.5
493,311,16575,2,0,L|388:301,1,105
388,301,16924,2,0,L|371:283,4,13.125
504,324,17273,2,0,L|399:314,1,105
445,71,17622,6,0,B|459:227|459:227|456:172|420:164,1,236.250009012223
275,234,17971,2,0,L|380:224,1,105
379,224,18320,2,0,L|380:239,4,13.125
273,220,18669,2,0,L|378:210,1,105
271,206,19017,6,0,L|115:192,1,157.5
122,310,19366,2,0,L|111:205,1,105
67,327,19715,6,0,P|93:328|118:322,1,52.5
62,339,19889,2,0,P|89:340|114:334,1,52.5
166,188,20064,2,0,P|139:186|114:192,1,52.5
170,173,20238,2,0,P|143:171|118:177,1,52.5
109,346,20412,6,0,L|265:332,1,157.5
360,329,20761,2,0,L|255:319,1,105
255,319,21110,2,0,L|238:301,4,13.125
371,342,21459,2,0,L|266:332,1,105
368,198,21808,6,0,L|382:354,1,157.5
379,185,22157,2,0,L|274:195,1,105
274,195,22506,2,0,L|257:213,4,13.125
390,172,22855,2,0,L|285:182,1,105
140,155,23203,6,0,L|296:169,1,157.5
127,166,23552,2,0,L|137:61,1,105
137,61,23901,2,0,L|155:44,4,13.125
114,177,24250,2,0,L|124:72,1,105
101,188,24598,6,0,L|115:344,1,157.5
128,356,24947,1,0,0:0:0:0:
411,174,25296,6,0,B|336:116|268:176|256:176|192:232|114:177,1,315
108,110,25645,6,0,L|101:188,1,78.75
86,199,25994,6,0,L|99:42,1,157.5
84,31,26343,1,0,0:0:0:0:
222,129,26517,1,0,0:0:0:0:
232,140,26605,2,0,L|225:218,2,78.75
212,311,26997,1,0,0:0:0:0:
286,361,27128,2,0,P|301:311|287:261,1,105
60,308,27389,6,0,B|98:328|98:328|211:310,1,157.5
207,325,27738,1,0,0:0:0:0:
421,214,27913,1,0,0:0:0:0:
408,205,28000,2,0,L|329:199,2,78.75
247,192,28392,1,0,0:0:0:0:
193,129,28523,2,0,P|240:108|290:122,1,105
79,269,28785,6,0,B|92:301|92:301|115:249|115:249|102:179,1,157.5
96,169,29134,1,0,0:0:0:0:
252,302,29308,1,0,0:0:0:0:
264,308,29395,2,0,P|302:312|341:305,2,78.75
397,242,29788,1,0,0:0:0:0:
320,208,29919,2,0,P|315:260|342:305,1,105
450,305,30180,6,0,P|479:235|438:170,1,157.5
453,165,30529,1,0,0:0:0:0:
371,16,30703,1,0,0:0:0:0:
383,25,30791,2,0,L|383:65,1,26.25
310,84,30936,2,0,L|309:47,2,35
313,242,31183,1,0,0:0:0:0:
333,320,31314,2,0,P|376:292|392:244,1,105
157,241,31575,6,0,B|217:237|217:237|251:247|251:247|312:241,1,157.5
211,317,31924,1,0,0:0:0:0:
349,153,32099,1,0,0:0:0:0:
361,147,32186,2,0,P|399:143|438:150,2,78.75
312,240,32622,1,0,0:0:0:0:
228,250,32709,2,0,P|237:199|274:164,1,105
451,272,32971,6,0,P|387:228|311:239,1,157.5
364,330,33320,1,0,0:0:0:0:
157,211,33494,1,0,0:0:0:0:
151,195,33581,2,0,P|166:158|190:128,2,78.75
165,321,34017,1,0,0:0:0:0:
246,337,34105,2,0,P|241:285|207:247,1,105
12,313,34366,6,0,B|52:333|52:333|164:320,1,157.5
333,300,34715,1,0,0:0:0:0:
97,165,34889,1,0,0:0:0:0:
91,180,34976,2,0,P|105:216|129:246,2,78.75
184,94,35413,1,0,0:0:0:0:
271,119,35500,2,0,P|244:163|197:184,1,105
78,0,35762,6,0,P|111:69|183:93,1,157.5
179,0,36110,1,0,0:0:0:0:
391,112,36285,1,0,0:0:0:0:
382,124,36373,2,0,L|342:124,1,26.25
323,51,36518,2,0,L|360:50,2,35
418,201,36765,1,0,0:0:0:0:
491,237,36895,2,0,P|497:185|473:140,1,105
276,187,37157,6,0,P|344:222|418:201,1,157.5
512,65,37506,1,0,0:0:0:0:
353,117,37767,1,0,0:0:0:0:
310,49,37898,1,0,0:0:0:0:
389,46,38029,1,0,0:0:0:0:
205,95,38203,1,0,0:0:0:0:
193,105,38291,2,0,L|191:209,1,105
246,283,38552,6,0,P|228:246|216:285,1,105
316,310,38901,1,0,0:0:0:0:
327,319,38988,2,0,P|366:311|405:315,4,78.75
257,354,39599,1,0,0:0:0:0:
244,275,39686,2,0,P|252:223|230:177,1,105
9,237,39948,6,0,B|39:254|76:236|76:236|117:217|160:236,1,157.5
327,319,40296,1,0,0:0:0:0:
152,147,40558,1,0,0:0:0:0:
109,79,40689,1,0,0:0:0:0:
188,76,40820,1,0,0:0:0:0:
174,351,40994,1,0,0:0:0:0:
162,341,41082,2,0,L|160:237,1,105
348,297,41343,6,0,P|298:312|249:298,1,105
105,145,41692,1,0,0:0:0:0:
116,154,41779,2,0,P|155:146|194:150,4,78.75
35,129,42389,1,0,0:0:0:0:
57,212,42476,2,0,P|65:264|43:310,1,105
282,329,42738,6,0,P|219:286|143:300,1,157.5
320,225,43087,1,0,0:0:0:0:
320,225,43349,1,0,0:0:0:0:
363,157,43480,1,0,0:0:0:0:
284,154,43611,1,0,0:0:0:0:
390,340,43785,1,0,0:0:0:0:
402,330,43873,2,0,L|404:226,1,105
478,67,44134,6,0,L|476:171,1,105
390,340,44482,1,0,0:0:0:0:
402,330,44570,2,0,P|362:333|324:325,4,78.75
461,275,45180,1,0,0:0:0:0:
367,204,45267,2,0,P|381:242|343:225,1,105
246,170,45529,6,0,L|237:327,1,157.5
154,239,45878,1,0,0:0:0:0:
331,170,46139,1,0,0:0:0:0:
374,102,46270,1,0,0:0:0:0:
295,99,46401,1,0,0:0:0:0:
512,226,46575,1,0,0:0:0:0:
502,238,46663,2,0,L|398:240,1,105
237,318,46924,6,0,P|300:249|263:164,1,196.875
156,295,47273,6,0,P|246:314|301:239,1,196.875
134,212,47622,5,0,0:0:0:0:
136,263,47709,1,0,0:0:0:0:
167,304,47796,1,0,0:0:0:0:
216,319,47883,1,0,0:0:0:0:
265,304,47971,2,0,B|287:287|287:287|247:273|204:292|204:292|161:308|122:297,1,196.875
132,161,48320,6,0,B|200:168|200:168|256:152|256:152|328:160,1,196.875
342,144,48669,2,0,L|260:135,1,78.7500030040742
419,208,48930,6,0,P|441:157|396:60,1,105
435,25,49061,6,0,P|413:76|458:173,1,105
452,95,49192,6,0,L|360:86,1,78.7500030040742
224,148,49453,1,0,0:0:0:0:
224,148,49541,2,0,L|315:139,1,78.7500030040742
167,233,49715,6,0,P|123:148|164:63,1,196.875
148,47,50064,2,0,P|129:67|105:118,1,78.7500030040742
183,249,50325,6,0,P|234:227|331:272,1,105
366,233,50456,6,0,P|315:255|218:210,1,105
296,216,50587,6,0,L|304:307,1,78.7500030040742
330,148,50849,1,0,0:0:0:0:
336,69,50936,2,0,L|330:148,1,78.7500030040742
468,1,51110,6,0,B|400:8|400:8|344:-8|344:-8|274:0,1,196.875
258,15,51459,2,0,L|343:3,1,78.7500030040742
183,50,51721,6,0,P|161:101|206:197,1,105
167,233,51852,6,0,P|189:182|144:85,1,105
150,163,51983,6,0,L|241:171,1,78.7500030040742
184,303,52244,1,0,0:0:0:0:
184,303,52331,2,0,L|92:311,1,78.7500030040742
66,214,52506,6,0,P|106:299|62:384,1,196.875
41,384,52855,2,0,P|71:351|84:317,1,78.7500030040742
30,120,53116,6,0,P|77:141|128:136,1,105
214,137,53247,6,0,P|166:115|115:120,1,105
143,153,53378,6,0,L|149:74,1,78.7500030040742
191,246,53639,1,0,0:0:0:0:
198,325,53727,2,0,L|191:246,1,78.7500030040742
408,342,53901,6,0,B|340:349|340:349|284:333|284:333|214:340,1,196.875
198,325,54250,2,0,L|282:317,1,78.7500030040742
424,326,54512,6,0,P|402:278|407:227,1,105
407,142,54642,6,0,P|428:189|423:240,1,105
391,213,54773,6,0,L|469:206,1,78.7500030040742
423,71,55035,1,0,0:0:0:0:
423,71,55122,2,0,L|344:64,1,78.7500030040742
160,44,55296,6,0,P|244:87|330:47,1,196.875
316,30,55645,2,0,P|300:46|245:61,1,78.7500030040742
423,71,55908,6,0,P|444:118|439:169,1,105
440,255,56038,6,0,P|418:207|423:156,1,105
456,184,56169,6,0,L|377:190,1,78.7500030040742
502,332,56430,1,0,0:0:0:0:
424,326,56517,2,0,L|502:332,1,78.7500030040742
407,340,56692,6,0,B|338:334|338:334|283:351|283:351|213:344,1,196.875
197,360,57041,2,0,L|278:367,1,78.7500030040742
277,267,57303,6,0,P|229:245|178:250,1,105
93,250,57433,6,0,P|140:271|191:266,1,105
164,234,57564,6,0,L|157:312,1,78.7500030040742
115,181,57825,1,0,0:0:0:0:
115,181,57913,2,0,L|108:102,1,78.7500030040742
191,41,58087,6,0,P|105:1|21:45,1,196.875
36,62,58436,2,0,P|61:33|101:21,1,78.7500030040742
207,57,58698,6,0,P|228:104|223:155,1,105
224,241,58828,6,0,P|202:193|207:142,1,105
240,170,58959,6,0,L|161:176,1,78.7500030040742
14,243,59221,1,0,0:0:0:0:
92,249,59308,2,0,L|14:243,1,78.7500030040742
75,267,59482,6,0,B|153:212|217:268|229:268|297:328|372:270,1,315
311,178,59831,2,0,L|308:204,1,26.25
467,314,60006,1,0,0:0:0:0:
467,314,60093,6,0,L|457:209,1,105
473,194,60224,6,0,L|483:90,1,105
499,75,60355,6,0,L|496:102,1,26.25
451,329,60529,1,0,0:0:0:0:
435,344,60616,2,0,B|381:351|381:351|333:335|333:335|281:343,1,157.500006008148
268,61,60878,6,0,B|323:138|267:202|267:214|207:283|265:358,1,315
451,329,61227,2,0,L|424:331,1,26.25
146,371,61401,1,0,0:0:0:0:
146,371,61488,6,0,B|196:382|196:382|248:370,1,105
265,358,61619,6,0,B|317:346|317:346|368:358,1,105
383,372,61750,6,0,L|357:370,1,26.25
130,357,61924,1,0,0:0:0:0:
114,343,62012,2,0,B|106:289|106:289|122:241|122:241|114:189,1,157.500006008148
345,108,62273,6,0,B|267:163|203:107|191:107|123:47|48:105,1,315
97,329,62622,2,0,L|99:302,1,26.25
31,118,62796,1,0,0:0:0:0:
31,118,62884,6,0,B|35:154|35:154|27:186|27:186|30:221,1,105
17,237,63014,6,0,B|14:273|14:273|22:305|22:305|18:341,1,105
1,353,63145,6,0,L|3:327,1,26.25
48,105,63320,1,0,0:0:0:0:
65,92,63407,2,0,B|118:84|118:84|166:100|166:100|218:92,1,157.500006008148
499,76,63669,6,0,B|421:21|357:77|345:77|277:137|202:79,1,315
431,166,64017,2,0,L|428:192,1,26.25
260,252,64192,1,0,0:0:0:0:
260,252,64279,6,0,B|288:256|288:256|312:248|312:248|332:256|332:256|376:252,1,105
378,267,64410,6,0,B|406:263|406:263|430:271|430:271|450:263|450:263|480:266,1,105
497,256,64541,6,0,L|471:254,1,26.25
243,264,64715,1,0,0:0:0:0:
225,276,64802,2,0,B|173:268|173:268|125:284|125:284|72:277,1,157.500006008148
55,2,65064,6,0,B|74:60|35:122|35:122|75:170|75:170|34:232|55:290,1,315
64,280,65413,1,0,0:0:0:0:
31,18,65587,1,0,0:0:0:0:
167,272,65762,5,0,0:0:0:0:
201,10,65936,1,0,0:0:0:0:
345,272,66110,5,0,0:0:0:0:
311,10,66285,1,0,0:0:0:0:
448,280,66459,5,0,0:0:0:0:
482,18,66634,1,0,0:0:0:0:
389,365,66808,5,0,0:0:0:0:
256,105,66982,1,0,0:0:0:0:
122,364,67157,5,0,0:0:0:0:
448,280,67331,1,0,0:0:0:0:
65,280,67506,5,0,0:0:0:0:
389,365,67680,1,0,0:0:0:0:
110,188,67855,5,0,0:0:0:0:
86,142,67942,1,0,0:0:0:0:
117,100,68029,1,0,0:0:0:0:
166,116,68116,1,0,0:0:0:0:
166,168,68203,1,0,0:0:0:0:
98,192,68291,5,0,0:0:0:0:
72,125,68378,1,0,0:0:0:0:
127,82,68465,1,0,0:0:0:0:
184,120,68552,1,0,0:0:0:0:
166,187,68639,1,0,0:0:0:0:
71,196,68727,5,0,0:0:0:0:
62,102,68814,1,0,0:0:0:0:
146,65,68901,1,0,0:0:0:0:
208,133,68988,1,0,0:0:0:0:
162,213,69075,1,0,0:0:0:0:
37,190,69163,5,0,3:0:0:0:
57,70,69250,2,0,B|46:121|46:121|59:170|59:170|49:222,1,157.500006008148
26,294,69599,2,0,P|69:295|101:276,1,78.7500030040742
80,0,69773,2,0,P|37:-1|5:18,1,78.7500030040742
59,170,69948,5,0,0:0:0:0:
46,121,70035,1,0,0:0:0:0:
57,70,70122,5,0,0:0:0:0:
187,153,70209,1,0,0:0:0:0:
49,224,70296,1,0,0:0:0:0:
35,237,70514,5,0,0:0:0:0:
202,167,70645,6,0,B|239:179|239:179|264:209,1,78.75
282,375,70994,2,0,B|245:274|245:274|266:229,1,157.500006008148
441,57,71256,2,0,P|457:105|442:155,1,105
453,258,71387,2,0,P|443:213|456:169,1,91.8750008761883
462,64,71517,2,0,P|476:100|471:140,1,78.7500030040742
372,109,71692,6,0,L|319:103,1,52.5
205,136,71779,6,0,L|309:124,1,105
85,60,72041,6,0,B|92:98|92:98|82:137,1,78.75
89,237,72389,6,0,B|82:199|82:199|92:160,1,78.75
352,49,72564,1,0,0:0:0:0:
309,124,72651,2,0,B|274:192|274:192|305:267,1,157.5
308,348,72825,2,0,B|333:297|333:297|303:222,1,137.812501314282
299,102,73000,2,0,L|281:137,1,39.3750015020371
184,252,73087,2,0,B|216:268|216:268|172:155,1,157.5
116,85,73262,6,0,P|90:114|80:151,1,78.7500030040742
207,70,73436,6,0,P|168:62|131:72,1,78.7500030040742
0,38,73785,6,0,P|45:77|119:56,1,157.500006008148
310,48,74046,2,0,B|298:85|298:85|306:150,1,105
345,330,74221,1,0,0:0:0:0:
394,273,74308,2,0,B|405:235|405:235|398:183,1,91.8750008761883
215,152,74482,6,0,L|175:154,1,39.3750015020371
62,123,74570,6,0,L|166:130,1,105
306,150,74831,6,0,L|315:228,1,78.75
281,377,75180,6,0,L|300:220,1,157.500006008148
84,13,75442,2,0,P|121:79|93:149,1,157.5
197,290,75616,1,0,0:0:0:0:
114,265,75703,2,0,P|157:213|224:208,1,137.812501314282
466,244,75878,2,0,B|406:259|406:259|315:228,1,157.5
301,73,76052,6,0,P|283:107|284:146,1,78.7500030040742
379,36,76227,6,0,P|340:37|306:57,1,78.7500030040742
143,65,76575,6,0,P|216:89|288:37,1,157.500006008148
92,150,76837,2,0,P|103:200|94:252,1,105
98,330,76968,2,0,P|86:285|91:240,1,91.8750008761883
79,153,77099,2,0,P|89:190|87:229,1,78.7500030040742
98,351,77230,6,0,P|123:355|149:352,1,52.5,0|0,2:0|2:0,2:0:0:0:
271,364,77317,2,0,P|208:347|145:364,1,131.25,0|0,2:0|2:0,2:0:0:0:
317,264,77622,6,0,L|325:185,1,78.75
298,93,77971,6,0,L|306:171,1,78.75
385,308,78145,1,0,0:0:0:0:
317,264,78232,2,0,B|267:260|267:260|229:273|229:273|160:267,1,157.5
107,186,78407,2,0,B|155:235|155:235|223:240,1,137.812501314282
335,298,78581,2,0,L|295:295,1,39.3750015020371
87,79,78669,2,0,B|116:53|116:53|103:170,1,157.5
87,309,78843,6,0,P|125:314|161:299,1,78.7500030040742
23,261,79017,6,0,P|37:297|68:320,1,78.7500030040742
210,366,79366,6,0,P|140:333|67:359,1,157.500006008148
247,283,79628,2,0,P|267:207|220:139,1,157.5
400,270,79846,1,0,0:0:0:0:
409,280,79889,2,0,P|474:267|511:211,1,137.812501314282
490,101,80064,6,0,L|437:106,1,52.5
318,108,80151,6,0,L|422:119,1,105
337,314,80413,6,0,P|329:275|341:237,1,78.75
215,286,80762,2,0,B|232:296|244:315|244:315|235:242|259:201,1,157.500006008148
127,53,81023,2,0,P|136:91|134:130,1,78.7500030040742
161,220,81198,2,0,P|150:179|152:137,1,84
143,48,81328,2,0,P|112:79|72:97,1,89.2500017023087
0,56,81459,1,0,0:0:0:0:
1,66,81503,2,0,P|18:82|40:91,1,47.2499985580445
211,91,81634,6,0,P|248:78|287:84,1,78.7500030040742
389,82,81808,6,0,P|350:86|313:73,1,78.7500030040742
295,224,82157,6,0,P|338:161|319:88,1,157.500006008148
168,211,82419,2,0,P|152:260|168:309,1,105
159,203,82549,2,0,P|129:168|86:154,1,91.8750008761883
168,198,82680,2,0,P|207:193|239:171,1,78.7500030040742
203,58,82855,6,0,L|150:64,1,52.5
36,31,82942,6,0,L|140:43,1,105
300,47,83203,6,0,L|309:125,1,78.75
318,220,83552,6,0,L|327:142,1,78.75
431,29,83727,1,0,0:0:0:0:
453,104,83814,2,0,L|440:208,1,105
441,360,83945,2,0,L|422:203,1,137.812501314282
484,100,84119,2,0,L|477:152,1,39.3750015020371
318,220,84250,2,0,B|338:182|338:182|350:295,1,157.5
336,375,84424,6,0,P|300:358|276:327,1,78.7500030040742
197,366,84599,6,0,P|232:349|256:318,1,78.7500030040742
233,170,84948,6,0,P|223:246|271:306,1,157.500006008148
466,234,85209,6,0,P|394:204|318:220,1,157.5
353,66,85427,1,0,0:0:0:0:
363,76,85471,2,0,P|428:93|494:74,1,137.812501314282
471,182,85645,6,0,L|466:235,1,52.5
464,354,85732,6,0,L|453:250,1,105
247,252,85994,6,0,L|318:220,1,78.75
348,83,86343,6,0,L|331:239,1,157.500006008148
171,302,86605,2,0,P|158:226|205:165,1,157.5
331,239,86779,1,0,0:0:0:0:
416,281,86866,2,0,P|356:329|280:319,1,157.5
41,319,87041,2,0,B|100:268|100:268|171:302,1,157.5
271,252,87215,6,0,L|265:331,1,78.7500030040742
282,152,87389,6,0,L|288:230,1,78.7500030040742
460,180,87738,6,0,L|305:208,1,157.500006008148
125,262,88000,2,0,B|113:211|113:211|124:159,1,105
116,271,88131,2,0,B|82:304|82:304|39:318,1,91.8750008761883
125,276,88262,2,0,B|161:286|161:286|194:309,1,78.7500030040742
296,359,88436,6,0,L|302:306,1,52.5
269,192,88523,6,0,L|281:296,1,105
298,95,88785,6,0,L|289:174,1,78.75
310,276,89134,6,0,L|300:197,1,78.75
351,40,89308,1,0,0:0:0:0:
273,20,89395,2,0,P|199:40|171:110,1,157.5
179,258,89570,2,0,P|198:184|151:124,1,137.812501314282
66,201,89744,2,0,L|117:202,1,39.3750015020371
413,148,89831,2,0,L|262:106,1,157.5
485,207,90006,6,0,P|503:172|501:133,1,78.7500030040742
406,238,90180,6,0,P|444:236|477:215,1,78.7500030040742
467,360,90529,6,0,P|447:286|495:227,1,157.500006008148
212,297,90791,2,0,P|287:285|341:339,1,157.500006008148
326,203,91009,1,0,0:0:0:0:
334,190,91052,2,0,L|319:52,1,137.812501314282
244,124,91227,6,0,L|192:116,1,52.5
72,157,91314,6,0,L|175:142,1,105
82,245,91575,6,0,P|84:207|64:173,1,78.75
15,37,91924,6,0,P|10:112|72:156,1,157.500006008148
230,310,92186,1,0,0:0:0:0:
236,272,92273,1,0,0:0:0:0:
225,234,92360,1,0,0:0:0:0:
199,206,92448,2,0,B|269:240|345:190|345:190|432:137|496:177,1,315.000012016297
173,178,92971,6,0,L|176:138,1,26.25
258,81,93145,5,0,0:0:0:0:
255,54,93232,1,0,0:0:0:0:
98,27,93320,2,0,B|152:35|152:35|200:19|200:19|252:27,1,157.500006008148
171,204,93581,2,0,P|135:216|95:204,1,78.7500030040742
21,232,93756,2,0,P|57:220|97:232,1,78.7500030040742
58,294,93930,1,0,0:0:0:0:
133,141,94017,1,0,0:0:0:0:
229,282,94105,6,0,L|234:344,1,52.5
133,141,94366,6,0,L|137:88,1,52.5
288,61,94628,6,0,L|310:58,1,13.125
288,61,94715,2,0,B|234:69|234:69|186:53|186:53|134:61,1,157.500006008148
135,302,94977,1,0,0:0:0:0:
138,275,95064,1,0,0:0:0:0:
133,141,95151,1,0,0:0:0:0:
136,168,95238,1,0,0:0:0:0:
229,219,95325,1,0,0:0:0:0:
319,163,95413,2,0,P|333:199|323:267,1,105
306,87,95587,6,0,L|332:84,1,26.25
428,189,95762,6,0,L|412:167,1,26.25
465,8,95936,5,0,0:0:0:0:
454,32,96023,1,0,0:0:0:0:
443,210,96110,2,0,B|451:156|451:156|435:108|435:108|443:56,1,157.500006008148
481,273,96372,2,0,P|445:285|405:273,1,78.7500030040742
331,301,96547,2,0,P|367:289|407:301,1,78.7500030040742
369,364,96721,1,0,0:0:0:0:
293,238,96808,1,0,0:0:0:0:
170,363,96895,6,0,L|232:368,1,52.5
146,241,97157,6,0,L|93:245,1,52.5
1,356,97419,6,0,L|-2:378,1,13.125
1,356,97506,2,0,B|9:302|9:302|-7:254|-7:254|1:202,1,157.500006008148
76,42,97767,2,0,P|90:78|80:146,1,105
0,97,97942,1,0,0:0:0:0:
106,138,98029,2,0,P|116:87|101:38,1,105
1,202,98203,1,0,0:0:0:0:
4,229,98291,1,0,0:0:0:0:
91,272,98378,6,0,L|88:298,1,26.25
178,368,98552,6,0,L|175:342,1,26.25
94,245,98727,5,0,0:0:0:0:
91,272,98814,1,0,0:0:0:0:
251,218,98901,2,0,B|199:226|199:226|151:210|151:210|97:218,1,157.500006008148
313,255,99163,2,0,P|325:219|313:179,1,78.7500030040742
341,105,99337,2,0,P|329:141|341:181,1,78.7500030040742
404,143,99512,1,0,0:0:0:0:
251,218,99599,1,0,0:0:0:0:
394,314,99686,6,0,L|446:309,1,52.5
251,291,99948,6,0,L|198:287,1,52.5
42,303,100209,6,0,L|19:304,1,13.125
42,303,100296,2,0,B|96:298|96:298|143:318|143:318|195:313,1,157.500006008148
193,95,100558,1,0,0:0:0:0:
196,122,100645,1,0,0:0:0:0:
195,260,100732,1,0,0:0:0:0:
198,233,100819,1,0,0:0:0:0:
100,179,100907,1,0,2:0:0:0:
5,236,100994,2,0,P|-9:200|1:132,1,105
126,182,101169,6,0,L|100:179,1,26.25
222,118,101343,6,0,L|248:115,1,26.25
358,179,101517,5,0,0:0:0:0:
355,206,101604,1,0,0:0:0:0:
198,233,101692,2,0,B|252:225|252:225|300:241|300:241|352:233,1,157.500006008148
94,279,101953,2,0,P|84:228|100:179,1,105
196,122,102128,1,0,0:0:0:0:
75,174,102215,2,0,P|60:223|70:275,1,105
188,346,102389,1,0,0:0:0:0:
293,299,102477,6,0,L|288:246,1,52.5
196,122,102738,6,0,L|192:175,1,52.5
308,29,103000,6,0,L|330:26,1,13.125
308,29,103087,2,0,B|254:37|254:37|206:21|206:21|154:29,1,157.500006008148
95,112,103349,5,0,0:0:0:0:
92,139,103436,1,0,0:0:0:0:
192,174,103523,1,0,0:0:0:0:
195,201,103610,1,0,0:0:0:0:
295,236,103698,1,0,0:0:0:0:
292,263,103785,6,0,P|313:214|287:262,1,157.5
392,298,104134,6,0,P|409:216|348:134,1,157.500006008148
265,125,104395,1,0,0:0:0:0:
100,149,104482,2,0,B|154:157|154:157|202:141|202:141|254:149,1,157.500006008148
38,186,104744,2,0,P|26:150|38:110,1,78.7500030040742
10,36,104918,2,0,P|22:72|10:112,1,78.7500030040742
27,210,105093,1,0,0:0:0:0:
21,12,105180,1,0,0:0:0:0:
195,105,105267,6,0,L|257:100,1,52.5
202,302,105529,6,0,L|149:298,1,52.5
285,348,105791,6,0,L|282:370,1,13.125
285,348,105878,2,0,B|293:294|293:294|277:246|277:246|285:194,1,157.500006008148
414,241,106139,1,0,0:0:0:0:
387,238,106226,1,0,0:0:0:0:
364,103,106314,1,0,0:0:0:0:
374,127,106401,1,0,0:0:0:0:
269,216,106488,1,0,0:0:0:0:
139,169,106575,2,0,P|129:220|145:270,1,105
134,69,106750,6,0,L|108:66,1,26.25
224,115,106924,6,0,L|250:112,1,26.25
108,66,107099,5,0,0:0:0:0:
81,62,107186,1,0,0:0:0:0:
54,212,107273,2,0,B|62:158|62:158|46:110|46:110|54:58,1,157.500006008148
18,274,107535,2,0,P|53:286|94:274,1,78.7500030040742
167,302,107709,2,0,P|131:290|91:302,1,78.7500030040742
129,365,107884,1,0,0:0:0:0:
54,212,107971,1,0,0:0:0:0:
224,223,108058,6,0,L|286:218,1,52.5
149,71,108320,6,0,L|96:67,1,52.5
2,177,108581,6,0,L|0:190,1,13.125
2,177,108669,2,0,B|10:123|10:123|-6:75|-6:75|2:23,1,157.500006008148
225,16,108930,2,0,P|239:52|229:120,1,105
149,71,109105,1,0,0:0:0:0:
255,112,109192,2,0,P|265:61|250:12,1,105
150,165,109366,1,0,0:0:0:0:
153,192,109454,1,0,0:0:0:0:
234,241,109541,6,0,L|231:267,1,26.25
153,343,109715,6,0,L|150:317,1,26.25
261,244,109889,1,0,0:0:0:0:
288,247,109977,1,0,0:0:0:0:
444,220,110064,2,0,B|390:228|390:228|342:212|342:212|290:220,1,157.500006008148
507,258,110325,2,0,P|519:222|507:182,1,78.7500030040742
512,82,110500,2,0,P|500:118|513:157,1,78.7500030040742
511,286,110674,1,0,0:0:0:0:
509,55,110762,1,0,0:0:0:0:
310,173,110849,6,0,L|248:168,1,52.5
454,32,111110,6,0,L|507:28,1,52.5
393,282,111372,6,0,L|394:295,1,13.125
393,282,111460,2,0,B|385:228|385:228|401:180|401:180|393:128,1,157.500006008148
313,79,111721,1,0,0:0:0:0:
231,124,111808,1,0,0:0:0:0:
228,217,111895,1,0,0:0:0:0:
310,173,111982,1,0,0:0:0:0:
234,30,112070,1,0,0:0:0:0:
149,168,112157,2,0,P|137:222|152:268,1,105
152,75,112331,6,0,L|126:72,1,26.25,0|0,3:0|3:0,3:0:0:0:
37,160,112506,6,0,L|52:138,1,26.25,0|0,3:0|3:0,3:0:0:0:
20,17,112680,5,0,0:0:0:0:
30,41,112767,1,0,0:0:0:0:
194,62,112855,2,0,B|139:54|139:54|92:71|92:71|40:64,1,157.500006008148
258,25,113116,2,0,P|269:63|257:100,1,78.7500030040742
191,209,113291,2,0,P|180:171|192:134,1,78.7500030040742,0|0,3:0|3:0,3:0:0:0:
256,173,113465,1,0,0:0:0:0:
126,245,113552,1,0,0:0:0:0:
99,242,113639,1,0,0:0:0:0:
72,239,113727,1,0,0:0:0:0:
45,236,113814,1,0,0:0:0:0:
190,284,113901,5,0,0:0:0:0:
190,284,114075,2,0,L|187:311,1,26.25
190,284,114250,2,0,B|226:288|226:288|258:280|258:280|293:283,1,105,0|0,3:0|3:0,3:0:0:0:
381,231,114424,6,0,B|378:260|378:260|386:280|386:280|378:304|378:304|382:332,1,105
419,167,114686,2,0,P|382:155|345:166,1,78.7500030040742,0|0,3:0|3:0,3:0:0:0:
345,166,115035,2,0,P|381:178|419:167,1,78.7500030040742,0|0,3:0|3:0,3:0:0:0:
