osu file format v14

[General]
AudioFilename: audio.mp3
AudioLeadIn: 0
PreviewTime: 87939
Countdown: 0
SampleSet: Soft
StackLeniency: 0.7
Mode: 2
LetterboxInBreaks: 0
WidescreenStoryboard: 0

[Editor]
Bookmarks: 88283,110352,132421,154490,176559,198628,220697,242766,264835,286904,308973,331042,353111
DistanceSpacing: 1
BeatDivisor: 8
GridSize: 32
TimelineZoom: 2.799999

[Metadata]
Title:Boogie
TitleUnicode:Boogie
Artist:Billain
ArtistUnicode:Billain
Creator:Spectator
Version:Overdrive
Source:
Tags:neurofunk drum and bass dnb turbofolk
BeatmapID:1208243
BeatmapSetID:569985

[Difficulty]
HPDrainRate:6
CircleSize:4
OverallDifficulty:9.6
ApproachRate:9.6
SliderMultiplier:2
SliderTickRate:2

[Events]
//Background and Video events
0,0,"give_me_some_space_by_nanomortis-d7x9l1z_.jpg",0,0
//Break Periods
//Storyboard Layer 0 (Background)
//Storyboard Layer 1 (Fail)
//Storyboard Layer 2 (Pass)
//Storyboard Layer 3 (Foreground)
//Storyboard Sound Samples

[TimingPoints]
8,344.827586206897,4,2,1,70,1,0
20697,-111.111111111111,4,2,1,70,0,0
22076,-100,4,2,1,70,0,0
33111,-100,4,2,1,70,0,0
42766,-95.2380952380952,4,3,1,80,0,0
43283,-100,4,2,1,70,0,0
44835,-100,4,2,1,80,0,0
54490,-100,4,2,1,50,0,0
55180,-100,4,1,1,60,0,0
56559,-100,4,1,1,50,0,0
59404,-100,4,2,1,55,0,0
59835,-100,4,1,1,55,0,0
60352,-100,4,2,40,55,0,0
60697,-100,4,1,1,60,0,0
62421,-100,4,2,1,70,0,0
65525,-100,4,1,4,70,0,0
65611,-100,4,2,2,5,0,0
65870,-100,4,1,4,80,0,0
65956,-100,4,2,1,5,0,0
66214,-100,4,1,1,70,0,0
68628,-100,4,2,40,70,0,0
68973,-100,4,1,1,70,0,0
71214,-100,4,2,41,70,0,0
71387,-100,4,2,40,70,0,0
71732,-100,4,1,1,70,0,0
74145,-100,4,2,40,70,0,0
74490,-100,4,2,1,70,0,0
76732,-100,4,2,41,70,0,0
76904,-100,4,2,40,75,0,0
77249,-100,4,1,1,80,0,0
79490,-100,4,2,40,80,0,0
80008,-100,4,1,1,80,0,0
80525,-100,4,1,1,83,0,0
83456,-100,4,2,40,85,0,0
85525,-100,4,2,1,85,0,0
85870,-100,4,2,40,85,0,0
86214,-100,4,2,40,75,0,0
87249,-100,4,2,1,75,0,0
87421,-100,4,2,40,80,0,0
87939,-100,4,2,1,30,0,1
88111,-100,4,2,1,30,0,0
88283,-90.9090909090909,4,1,2,80,0,0
99318,-90.9090909090909,4,2,1,80,0,0
99404,-90.9090909090909,4,1,2,80,0,0
108628,-90.9090909090909,4,2,40,80,0,0
110352,-90.9090909090909,4,1,40,80,0,0
110439,-90.9090909090909,4,1,2,80,0,0
120740,-90.9090909090909,4,1,2,50,0,0
121387,-90.9090909090909,4,1,1,80,0,0
121473,-90.9090909090909,4,1,2,80,0,0
131214,-90.9090909090909,4,1,1,80,0,0
131301,-90.9090909090909,4,1,2,80,0,0
131775,-90.9090909090909,4,1,2,50,0,0
132421,-83.3333333333333,4,1,40,70,0,0
132508,-83.3333333333333,4,1,2,80,0,0
135008,-83.3333333333333,4,2,40,50,0,0
135180,-83.3333333333333,4,1,2,80,0,0
140697,-83.3333333333333,4,1,3,80,0,0
140870,-83.3333333333333,4,1,2,80,0,0
141473,-83.3333333333333,4,1,3,80,0,0
141645,-83.3333333333333,4,1,2,80,0,0
142076,-83.3333333333333,4,1,3,80,0,0
142120,-83.3333333333333,4,1,2,80,0,0
143111,-76.9230769230769,4,1,2,80,0,0
143456,-83.3333333333333,4,1,2,80,0,0
146214,-83.3333333333333,4,1,3,80,0,0
146301,-83.3333333333333,4,1,2,80,0,0
151645,-83.3333333333333,4,1,3,80,0,0
151732,-83.3333333333333,4,1,2,80,0,0
152076,-83.3333333333333,4,2,40,80,0,0
153714,-100,4,2,1,80,0,0
154490,-90.9090909090909,4,1,40,60,0,1
154576,-90.9090909090909,4,2,1,80,0,0
165352,-90.9090909090909,4,2,3,80,0,0
165439,-90.9090909090909,4,2,1,80,0,0
167939,-90.9090909090909,4,2,40,80,0,0
168283,-90.9090909090909,4,2,1,80,0,0
170697,-90.9090909090909,4,2,40,80,0,0
171042,-90.9090909090909,4,2,1,80,0,0
171214,-83.3333333333333,4,2,1,80,0,0
172421,-83.3333333333333,4,2,1,80,0,0
175180,-83.3333333333333,4,2,40,80,0,0
175525,-83.3333333333333,4,2,40,80,0,1
175611,-83.3333333333333,4,1,1,80,0,0
190008,-83.3333333333333,4,2,40,80,0,0
190352,-83.3333333333333,4,1,1,80,0,0
195525,-90.9090909090909,4,1,1,80,0,0
195870,-83.3333333333333,4,1,1,80,0,0
197249,-83.3333333333333,4,1,1,80,0,1
197270,-83.3333333333333,4,1,1,80,0,0
198973,-83.3333333333333,4,2,1,80,0,0
199490,-83.3333333333333,4,2,40,80,0,0
199663,-83.3333333333333,4,1,1,80,0,0
206904,-83.3333333333333,4,1,2,80,0,0
206990,-83.3333333333333,4,2,40,80,0,0
207249,-83.3333333333333,4,1,1,80,0,0
208628,-83.3333333333333,4,2,40,80,0,0
209663,-83.3333333333333,4,1,1,80,0,0
218197,-83.3333333333333,4,2,43,80,0,0
220697,-400,4,1,42,80,0,0
221732,-400,4,1,42,5,0,0
226214,-400,4,1,42,80,0,0
227249,-400,4,1,42,5,0,0
231732,-400,4,1,42,80,0,0
232766,-400,4,1,42,5,0,0
237249,-400,4,1,42,80,0,0
237335,-100,4,1,1,30,0,0
242766,-111.111111111111,4,1,40,70,0,0
242852,-111.111111111111,4,2,40,70,0,0
244145,-100,4,2,40,70,0,0
244232,-111.111111111111,4,2,40,70,0,0
248283,-111.111111111111,4,2,40,80,0,0
253801,-100,4,2,40,85,0,0
259318,-90.9090909090909,4,2,40,85,0,0
259921,-90.9090909090909,4,2,40,90,0,0
260697,-83.3333333333333,4,2,40,90,0,0
263456,-66.6666666666667,4,2,40,90,0,0
264490,-100,4,2,1,70,0,1
264663,-100,4,2,1,70,0,0
264835,-83.3333333333333,4,1,40,70,0,0
264921,-83.3333333333333,4,1,2,90,0,0
275870,-83.3333333333333,4,1,40,90,0,0
275956,-83.3333333333333,4,1,2,90,0,0
286904,-83.3333333333333,4,1,40,90,0,0
286990,-83.3333333333333,4,1,2,90,0,0
295180,-83.3333333333333,4,1,40,90,0,0
295525,-83.3333333333333,4,1,2,90,0,0
296559,-83.3333333333333,4,1,40,90,0,0
296732,-83.3333333333333,4,1,2,90,0,0
297163,-83.3333333333333,4,2,50,90,0,0
297680,-83.3333333333333,4,1,2,90,0,0
306128,-83.3333333333333,4,2,40,90,0,0
308197,-100,4,2,1,90,0,0
308973,-100,4,1,40,90,0,1
309059,-90.9090909090909,4,1,1,90,0,0
322421,-90.9090909090909,4,1,40,90,0,0
322766,-90.9090909090909,4,1,1,90,0,0
325180,-90.9090909090909,4,1,40,90,0,0
325525,-90.9090909090909,4,1,1,90,0,0
330008,-90.9090909090909,4,1,1,90,0,1
330094,-83.3333333333333,4,1,1,90,0,0
331042,-83.3333333333333,4,1,40,90,0,0
331128,-83.3333333333333,4,1,1,90,0,0
341387,-83.3333333333333,4,1,1,90,0,1
342076,-83.3333333333333,4,1,1,90,0,0
353456,-76.9230769230769,4,1,1,90,0,0
353714,-83.3333333333333,4,1,1,90,0,0
361387,-83.3333333333333,4,1,40,90,0,0
361732,-83.3333333333333,4,1,1,90,0,0
363111,-83.3333333333333,4,2,40,90,0,0
364145,-83.3333333333333,4,1,1,90,0,0
372766,-83.3333333333333,4,2,50,90,0,0
372852,-83.3333333333333,4,2,40,90,0,0
372939,-83.3333333333333,4,2,50,90,0,0
373197,-83.3333333333333,4,2,1,90,0,0
373283,-83.3333333333333,4,2,40,90,0,0
373370,-83.3333333333333,4,2,50,90,0,0
373542,-83.3333333333333,4,2,40,90,0,0
373801,-83.3333333333333,4,2,50,90,0,0
374318,-83.3333333333333,4,2,1,90,0,0
374835,-83.3333333333333,4,2,40,90,0,0
374921,-83.3333333333333,4,2,1,90,0,0
375094,-83.3333333333333,4,2,50,90,0,0
375266,-83.3333333333333,4,2,1,90,0,0
375439,-83.3333333333333,4,2,50,90,0,0
376387,-83.3333333333333,4,2,1,90,0,0
376473,-83.3333333333333,4,2,50,90,0,0
376904,-83.3333333333333,4,2,40,90,0,0
378025,-83.3333333333333,4,2,40,90,0,0
379663,-83.3333333333333,4,2,50,90,0,0
379749,-83.3333333333333,4,2,40,90,0,0
380094,-83.3333333333333,4,2,50,90,0,0
380439,-83.3333333333333,4,2,40,90,0,0
380611,-83.3333333333333,4,2,50,90,0,0
381042,-83.3333333333333,4,2,40,90,0,0
381214,-83.3333333333333,4,2,50,90,0,0
381387,-83.3333333333333,4,2,40,90,0,0
381559,-83.3333333333333,4,2,1,90,0,0
381645,-83.3333333333333,4,2,40,90,0,0
381732,-83.3333333333333,4,2,1,90,0,0

[Colours]
Combo1 : 90,105,211
Combo2 : 231,126,197
Combo3 : 238,209,123
Combo4 : 86,158,224

[HitObjects]
8,288,20697,6,0,L|76:284,1,44.999998626709
240,190,20870,2,0,L|167:183,1,44.999998626709
37,173,21042,2,0,L|33:109,1,44.999998626709
128,99,21214,2,0,L|131:47,1,44.999998626709
290,282,21387,6,0,L|358:278,1,44.999998626709
509,161,21560,2,0,L|436:154,1,44.999998626709
203,152,21732,1,0,0:0:0:0:
77,229,22076,6,0,L|189:224,1,100,4|0,0:0|0:0,0:0:0:0:
324,222,22421,1,8,0:0:0:0:
171,357,22594,1,0,0:0:0:0:
133,333,22680,1,0,0:0:0:0:
111,293,22766,1,0,0:0:0:0:
105,248,22852,1,0,0:0:0:0:
125,207,22939,1,4,0:0:0:0:
166,189,23025,1,0,0:0:0:0:
225,172,23111,2,0,L|151:172,1,50,8|0,0:0|0:0,0:0:0:0:
109,103,23283,2,0,L|189:100,1,50
405,310,23456,5,4,0:0:0:0:
441,284,23542,1,0,0:0:0:0:
458,242,23628,1,0,0:0:0:0:
442,199,23714,1,0,0:0:0:0:
179,350,23801,1,8,0:0:0:0:
140,326,23887,1,0,0:0:0:0:
114,289,23973,1,0,0:0:0:0:
123,245,24059,1,0,0:0:0:0:
158,218,24145,1,0,0:0:0:0:
183,180,24232,1,0,0:0:0:0:
193,136,24318,1,4,0:0:0:0:
168,98,24404,1,0,0:0:0:0:
89,143,24490,2,0,L|152:136,1,50,8|0,0:0|0:0,0:0:0:0:
68,53,24663,2,0,L|16:63,1,50
349,282,24835,5,4,0:0:0:0:
391,266,24921,1,0,0:0:0:0:
419,230,25008,1,0,0:0:0:0:
431,186,25094,1,0,0:0:0:0:
183,352,25180,1,8,0:0:0:0:
140,337,25266,1,0,0:0:0:0:
108,304,25352,1,0,0:0:0:0:
90,261,25439,1,0,0:0:0:0:
90,216,25525,1,0,0:0:0:0:
111,176,25611,1,0,0:0:0:0:
144,146,25697,1,4,0:0:0:0:
187,135,25783,1,0,0:0:0:0:
260,228,25870,2,0,L|197:228,1,50,8|0,0:0|0:0,0:0:0:0:
302,141,26042,2,0,L|376:143,1,50
56,315,26214,5,4,0:0:0:0:
27,279,26301,1,0,0:0:0:0:
25,234,26387,1,0,0:0:0:0:
55,200,26473,1,0,0:0:0:0:
278,349,26559,1,8,0:0:0:0:
317,327,26645,1,0,0:0:0:0:
344,291,26732,1,4,0:0:0:0:
357,248,26818,1,0,0:0:0:0:
348,203,26904,1,0,0:0:0:0:
313,173,26990,1,0,0:0:0:0:
261,150,27076,2,0,L|243:69,1,50,4|0,0:0|0:0,0:0:0:0:
323,51,27249,2,0,L|387:50,1,50,8|4,0:0|0:0,0:0:0:0:
289,126,27421,2,0,L|230:127,1,50
61,225,27594,5,0,1:0:0:0:
206,340,27766,2,0,P|248:303|226:233,1,100
168,236,28025,2,0,P|126:199|148:129,1,100
292,163,28283,1,0,0:0:0:0:
166,270,28542,1,0,0:0:0:0:
316,328,28628,2,0,P|350:286|360:217,1,100,8|0,0:0|0:0,0:0:0:0:
95,256,28973,5,4,0:0:0:0:
64,223,29059,1,0,0:0:0:0:
69,178,29145,1,0,0:0:0:0:
107,154,29232,1,0,0:0:0:0:
272,283,29318,1,8,0:0:0:0:
313,265,29404,1,0,0:0:0:0:
338,227,29490,1,0,0:0:0:0:
344,182,29576,1,0,0:0:0:0:
323,141,29663,1,0,0:0:0:0:
287,113,29749,1,0,0:0:0:0:
228,112,29835,2,0,L|214:33,1,50,4|0,0:0|0:0,0:0:0:0:
302,148,30008,2,0,L|310:197,1,50,8|0,0:0|0:0,0:0:0:0:
228,112,30180,2,0,L|214:33,1,50
447,170,30352,5,4,0:0:0:0:
476,130,30439,1,0,0:0:0:0:
461,84,30525,1,0,0:0:0:0:
415,66,30611,1,0,0:0:0:0:
162,295,30697,1,8,0:0:0:0:
120,281,30783,1,0,0:0:0:0:
96,243,30870,1,0,0:0:0:0:
89,198,30956,1,0,0:0:0:0:
103,155,31042,1,0,0:0:0:0:
143,133,31128,1,0,0:0:0:0:
199,123,31214,2,0,L|282:127,1,50,4|0,0:0|0:0,0:0:0:0:
341,230,31387,2,0,L|330:157,1,50,8|0,0:0|0:0,0:0:0:0:
248,125,31559,2,0,L|238:54,1,50
459,305,31732,5,0,0:0:0:0:
325,222,31904,2,8,L|295:156,2,50,4|0|0,0:0|0:0|0:0,0:0:0:0:
474,157,32249,1,0,0:0:0:0:
236,122,32421,6,0,L|174:121,1,50,2|0,0:0|0:0,0:0:0:0:
351,35,32594,2,0,L|416:32,1,50,2|4,0:0|0:0,0:0:0:0:
208,267,32766,2,4,L|149:269,1,50,12|4,0:0|0:0,0:0:0:0:
376,168,32939,1,6,0:0:0:0:
128,352,33111,6,0,L|23:361,1,100,4|0,0:2|0:0,0:0:0:0:
172,260,33456,1,8,0:0:0:0:
331,331,33542,2,0,P|366:285|346:221,1,100
145,175,33801,1,4,0:0:0:0:
277,171,33973,1,0,0:0:0:0:
277,171,34059,1,0,0:0:0:0:
277,171,34145,1,8,0:0:0:0:
134,174,34318,1,0,0:0:0:0:
370,317,34490,5,0,0:0:0:0:
408,289,34576,1,0,0:0:0:0:
429,246,34663,1,0,0:0:0:0:
421,199,34749,1,0,0:0:0:0:
385,167,34835,1,8,0:0:0:0:
341,147,34921,1,0,0:0:0:0:
116,321,35008,2,0,L|101:248,1,50,4|0,0:0|0:0,0:0:0:0:
196,243,35180,2,0,L|204:179,1,50
106,166,35352,2,0,L|91:93,1,50,4|0,0:0|0:0,0:0:0:0:
359,356,35525,1,8,0:0:0:0:
392,326,35611,1,4,0:0:0:0:
396,281,35697,1,0,0:0:0:0:
367,246,35783,1,0,0:0:0:0:
173,187,35870,5,4,0:0:0:0:
139,157,35956,1,0,0:0:0:0:
122,115,36042,1,0,0:0:0:0:
134,72,36128,1,0,0:0:0:0:
186,39,36214,2,0,L|242:34,1,50,8|0,0:0|0:0,0:0:0:0:
457,335,36387,2,0,L|469:273,1,50,4|0,0:0|0:0,0:0:0:0:
391,241,36559,2,0,L|378:174,1,50
464,157,36732,2,0,L|476:95,1,50,4|0,0:0|0:0,0:0:0:0:
193,300,36904,1,8,0:0:0:0:
152,271,36990,1,0,0:0:0:0:
149,221,37076,1,0,0:0:0:0:
187,188,37163,1,0,0:0:0:0:
341,252,37249,5,4,0:0:0:0:
379,219,37335,1,0,0:0:0:0:
392,170,37421,1,0,0:0:0:0:
368,125,37508,1,0,0:0:0:0:
326,98,37594,2,0,L|256:90,1,50,8|0,0:0|0:0,0:0:0:0:
110,289,37766,1,4,0:0:0:0:
72,260,37852,1,0,0:0:0:0:
61,213,37939,1,0,0:0:0:0:
91,169,38025,1,0,0:0:0:0:
141,154,38111,2,0,L|215:150,1,50,4|0,0:0|0:0,0:0:0:0:
379,229,38283,1,8,0:0:0:0:
441,192,38370,2,0,P|426:134|367:99,1,100,2|0,0:0|0:0,0:0:0:0:
175,331,38628,6,0,L|311:329,1,100,4|0,0:0|0:0,0:0:0:0:
151,226,38973,1,8,0:0:0:0:
78,215,39059,2,0,P|70:157|133:113,1,100
280,132,39318,1,4,0:0:0:0:
136,127,39576,1,0,0:0:0:0:
311,196,39663,2,0,P|269:142|233:116,1,100
409,157,40008,6,0,L|418:92,2,50,4|0|0,0:0|0:0|0:0,0:0:0:0:
263,162,40352,1,8,0:0:0:0:
129,317,40525,2,0,L|117:256,1,50,4|0,0:0|0:0,0:0:0:0:
285,166,40697,1,0,0:0:0:0:
156,227,40870,1,4,0:0:0:0:
405,141,41042,2,0,L|469:140,2,50,8|8|0,0:0|0:0|0:0,0:0:0:0:
256,192,41387,12,0,42594,0:0:0:0:
308,153,42766,6,0,L|437:148,1,104.999996795654,0|0,1:0|0:0,0:0:0:0:
202,271,43025,2,0,L|73:266,1,104.999996795654
312,340,43283,2,0,P|367:358|297:277,1,300
83,300,44145,6,0,P|66:246|91:196,1,100,0|2,1:0|0:0,0:0:0:0:
206,136,44490,2,0,P|214:166|201:192,1,50,8|0,0:0|0:0,0:0:0:0:
66,360,44835,2,0,L|234:339,1,150
427,266,45180,2,0,L|327:254,1,100,8|0,0:0|0:0,0:0:0:0:
184,258,45525,5,4,0:0:0:0:
150,221,45611,1,0,0:0:0:0:
162,172,45697,1,0,0:0:0:0:
210,154,45783,1,0,0:0:0:0:
409,248,45870,1,8,0:0:0:0:
424,208,45956,1,0,0:0:0:0:
246,189,46042,1,0,0:0:0:0:
210,154,46128,1,0,0:0:0:0:
197,105,46214,1,0,0:0:0:0:
228,65,46301,1,0,0:0:0:0:
277,57,46387,2,0,L|354:61,1,50,4|0,0:0|0:0,0:0:0:0:
257,149,46559,2,4,L|199:145,1,50,8|4,0:0|0:0,0:0:0:0:
415,328,46732,2,0,L|487:322,1,50
151,251,46904,5,4,0:0:0:0:
113,217,46990,1,0,0:0:0:0:
125,168,47076,1,0,0:0:0:0:
174,156,47163,1,0,0:0:0:0:
392,329,47249,1,8,0:0:0:0:
432,299,47335,1,0,0:0:0:0:
446,251,47421,1,4,0:0:0:0:
422,206,47508,1,0,0:0:0:0:
382,175,47594,1,0,0:0:0:0:
334,160,47680,1,0,0:0:0:0:
284,162,47766,2,0,L|234:161,1,50,4|0,0:0|0:0,0:0:0:0:
285,298,47939,2,0,L|299:246,1,50,8|4,0:0|0:0,0:0:0:0:
221,96,48111,2,0,L|207:20,1,50
433,151,48283,6,0,L|499:147,1,50,4|0,0:0|0:0,0:0:0:0:
309,165,48456,2,0,L|305:115,1,50,2|0,0:0|0:0,0:0:0:0:
218,231,48628,2,0,L|222:180,1,50,10|0,0:0|0:0,0:0:0:0:
138,300,48801,2,0,L|151:250,1,50,2|0,0:0|0:0,0:0:0:0:
373,192,48973,1,0,0:0:0:0:
409,157,49059,1,0,0:0:0:0:
418,108,49145,1,4,0:0:0:0:
390,66,49232,1,0,0:0:0:0:
340,57,49318,2,0,L|255:49,3,50,8|4|0|0,0:0|0:0|0:0|0:0,0:0:0:0:
103,327,49663,6,0,L|84:211,1,100,4|0,0:0|0:0,0:0:0:0:
231,189,50008,2,0,P|240:167|231:139,1,50,8|0,0:0|0:0,0:0:0:0:
58,62,50352,2,0,L|183:49,1,100,2|0,0:0|0:0,0:0:0:0:
237,138,50611,2,0,L|124:127,1,100,2|0,0:0|0:0,0:0:0:0:
71,184,50870,1,2,0:0:0:0:
421,341,51042,5,4,0:0:0:0:
455,311,51128,1,0,0:0:0:0:
461,266,51214,1,0,0:0:0:0:
433,229,51301,1,0,0:0:0:0:
179,322,51387,1,8,0:0:0:0:
136,296,51473,1,0,0:0:0:0:
113,251,51559,1,0,0:0:0:0:
122,202,51645,1,0,0:0:0:0:
155,164,51732,1,0,0:0:0:0:
204,156,51818,1,0,0:0:0:0:
253,159,51904,2,0,L|246:84,1,50,4|0,0:0|0:0,0:0:0:0:
177,77,52076,2,0,L|180:19,1,50,8|4,0:0|0:0,0:0:0:0:
389,69,52249,2,0,L|329:61,1,50
145,354,52421,5,4,0:0:0:0:
109,317,52508,1,0,0:0:0:0:
129,271,52594,1,0,0:0:0:0:
177,258,52680,1,0,0:0:0:0:
363,334,52766,1,8,0:0:0:0:
401,302,52852,1,0,0:0:0:0:
416,253,52939,1,4,0:0:0:0:
404,204,53025,1,0,0:0:0:0:
372,165,53111,1,0,0:0:0:0:
325,146,53197,1,0,0:0:0:0:
500,85,53283,2,0,L|518:24,1,50,4|0,0:0|0:0,0:0:0:0:
308,63,53456,2,0,L|235:65,1,50,8|4,0:0|0:0,0:0:0:0:
339,153,53628,2,0,L|390:152,1,50
155,294,53801,5,4,0:0:0:0:
117,260,53887,1,0,0:0:0:0:
120,210,53973,1,0,0:0:0:0:
164,186,54059,1,0,0:0:0:0:
212,173,54145,2,0,L|95:185,1,100,8|0,0:2|0:1,0:1:0:0:
287,267,54490,5,4,0:1:0:0:
457,284,54576,2,0,P|452:233|387:184,1,100,8|0,0:1|0:1,0:1:0:0:
261,172,54835,2,0,L|344:166,1,50,4|4,0:1|0:1,0:1:0:0:
464,159,55008,1,8,0:1:0:0:
141,302,55180,6,0,L|31:281,1,100,2|0,0:1|0:0,0:0:0:0:
185,205,55525,2,0,L|196:150,2,50,8|0|0,0:0|0:0|0:0,0:0:0:0:
36,181,55870,5,4,0:0:0:0:
171,77,56042,2,0,L|241:73,2,50,0|4|8,0:0|0:0|0:0,0:0:0:0:
16,13,56387,1,4,0:0:0:0:
348,264,56559,5,2,0:0:0:0:
410,297,56645,2,0,L|419:186,1,100
252,155,56904,2,0,L|182:147,1,50,8|0,0:0|0:0,0:0:0:0:
390,57,57076,2,0,L|449:52,1,50,4|0,0:0|0:0,0:0:0:0:
152,311,57249,1,0,0:0:0:0:
115,277,57335,1,0,0:0:0:0:
106,227,57421,1,4,0:2:0:0:
141,191,57508,1,0,0:0:0:0:
203,175,57594,2,0,L|213:108,1,50,8|4,0:0|0:0,0:0:0:0:
58,85,57766,2,0,L|47:21,1,50
310,300,57939,5,4,0:2:0:0:
353,274,58025,1,0,0:0:0:0:
363,225,58111,1,0,0:0:0:0:
340,180,58197,1,0,0:0:0:0:
179,145,58283,2,0,L|123:133,1,50,8|0,0:0|0:0,0:0:0:0:
310,60,58456,1,4,0:2:0:0:
353,86,58542,1,0,0:0:0:0:
363,135,58628,1,0,0:0:0:0:
340,180,58714,1,0,0:0:0:0:
182,313,58801,2,0,L|172:247,1,50,4|0,0:2|0:0,0:0:0:0:
351,280,58973,1,8,0:0:0:0:
401,324,59059,2,0,L|418:197,1,100,4|0,0:0|0:0,0:0:0:0:
200,137,59318,6,0,L|96:125,1,100,4|0,0:0|0:0,0:0:0:0:
57,151,59576,1,0,0:0:0:0:
44,199,59663,1,8,0:0:0:0:
80,232,59749,1,0,0:0:0:0:
253,305,59835,2,0,L|395:297,1,100,4|0,0:0|0:0,0:0:0:0:
212,197,60180,1,4,0:2:0:0:
384,133,60352,2,2,L|296:119,1,50,2|0,0:0|0:0,0:0:0:0:
165,269,60525,2,2,L|100:258,1,50
325,334,60697,6,0,L|452:320,1,100,6|0,0:0|0:0,0:0:0:0:
284,249,61042,2,0,L|222:234,2,50,8|0|0,0:0|0:0|0:0,0:0:0:0:
476,135,61387,1,4,0:0:0:0:
160,293,61645,2,0,L|95:274,1,50,4|8,0:0|0:0,0:0:0:0:
261,184,61904,1,4,0:0:0:0:
256,192,62076,12,0,65352,0:0:0:0:
384,360,65525,6,0,L|393:252,1,100,2|0,0:0|0:0,0:0:0:0:
96,164,65870,2,0,L|87:56,1,100,2|0,0:0|0:0,0:0:0:0:
455,123,66214,6,0,L|349:119,1,100,4|0,0:3|0:0,0:0:0:0:
213,259,66559,2,0,L|286:253,1,50,8|0,0:2|0:0,0:0:0:0:
32,273,66904,1,6,0:2:0:0:
192,153,67163,1,2,0:2:0:0:
25,66,67421,1,2,0:2:0:0:
301,253,67594,6,0,L|374:253,1,50,4|0,1:3|0:0,0:0:0:0:
101,320,67939,1,2,0:2:0:0:
253,373,68197,1,2,0:2:0:0:
403,319,68456,1,2,0:2:0:0:
166,176,68628,2,0,L|101:170,1,50,2|0,0:0|0:0,0:0:0:0:
346,176,68801,2,0,L|411:170,1,50,2|0,0:0|0:0,0:0:0:0:
179,293,68973,6,0,L|60:284,1,100,4|0,0:3|0:0,0:0:0:0:
230,212,69318,2,0,L|238:142,1,50,2|0,0:2|0:0,0:0:0:0:
22,352,69663,1,2,0:2:0:0:
215,211,69921,1,2,0:2:0:0:
18,120,70180,1,2,0:2:0:0:
313,307,70352,5,4,0:3:0:0:
383,342,70439,2,0,L|399:223,1,100
327,182,70697,1,2,0:2:0:0:
174,116,70956,2,2,L|290:104,1,100,2|0,0:2|0:2,0:2:0:0:
205,33,71214,1,2,0:2:0:0:
320,240,71387,2,0,L|384:249,1,50,2|0,0:0|0:0,0:0:0:0:
186,320,71559,2,0,L|136:335,1,50,2|0,0:0|0:0,0:0:0:0:
420,348,71732,6,0,L|436:216,1,100,4|0,0:3|0:0,0:0:0:0:
299,174,72076,2,0,L|291:104,1,50,2|0,0:2|0:0,0:0:0:0:
457,324,72421,2,0,L|321:313,1,100,2|0,0:2|0:0,0:0:0:0:
282,249,72680,2,0,L|406:237,1,100,2|0,0:2|0:0,0:0:0:0:
232,177,72939,2,0,L|224:120,1,50,2|0,0:2|0:0,0:0:0:0:
407,138,73111,5,4,0:3:0:0:
479,172,73197,2,0,P|486:120|452:68,1,100,2|0,0:2|0:0,0:0:0:0:
253,331,73456,2,0,L|386:313,1,100,2|0,0:2|0:0,0:0:0:0:
285,234,73714,1,0,0:0:0:0:
431,221,73973,2,0,L|440:160,1,50,4|0,3:0|0:0,0:0:0:0:
240,124,74145,2,0,L|160:112,1,50,2|0,0:0|0:0,0:0:0:0:
372,56,74318,2,0,L|424:44,1,50,2|0,0:0|0:0,0:0:0:0:
177,325,74490,6,0,L|294:313,1,100,4|0,0:3|0:0,0:0:0:0:
120,236,74835,2,0,L|104:168,1,50,2|0,0:2|0:0,0:0:0:0:
302,207,75180,1,2,0:2:0:0:
159,101,75439,1,2,0:2:0:0:
316,37,75697,1,2,0:2:0:0:
147,330,75870,5,4,0:3:0:0:
224,316,75956,2,0,L|240:194,1,100
160,180,76214,1,2,0:0:0:0:
317,102,76473,2,0,L|190:78,1,100,0|0,3:0|3:0,0:0:0:0:
287,20,76731,1,2,2:2:0:0:
428,254,76904,2,0,L|504:252,1,50,2|0,0:0|0:0,0:0:0:0:
279,353,77076,2,0,L|206:350,1,50,2|0,0:0|0:0,0:0:0:0:
29,250,77249,6,0,P|26:197|75:146,1,100,4|0,1:3|0:0,0:0:0:0:
127,136,77508,1,0,3:0:0:0:
282,102,77594,2,0,L|274:39,1,50,8|0,3:1|3:0,0:0:0:0:
180,278,77766,2,0,L|191:207,1,50,4|0,1:0|0:0,0:0:0:0:
445,196,77939,1,4,0:1:0:0:
311,323,78111,2,0,L|306:258,1,50,2|0,0:2|0:0,0:0:0:0:
372,231,78283,1,8,0:0:0:0:
501,284,78456,2,0,L|496:207,1,50
307,153,78628,6,0,L|171:131,1,100,2|0,0:0|0:0,0:0:0:0:
273,73,78887,1,0,3:0:0:0:
81,325,78973,2,0,L|95:244,1,50,8|0,0:0|0:0,0:0:0:0:
171,264,79145,2,0,L|183:200,1,50,4|0,0:0|0:0,0:0:0:0:
27,117,79318,2,0,L|163:100,1,100,2|4,0:2|0:0,0:0:0:0:
276,199,79663,2,0,L|209:192,1,50,2|0,0:0|0:0,0:0:0:0:
63,281,79835,2,0,L|8:274,1,50,2|0,0:0|0:0,0:0:0:0:
208,332,80008,6,0,L|336:312,1,100,2|0,0:0|0:0,0:0:0:0:
436,221,80352,2,0,L|446:162,1,50,8|0,0:0|0:0,0:0:0:0:
385,118,80525,1,0,3:0:0:0:
232,205,80697,1,0,3:0:0:0:
393,325,80870,2,0,L|478:321,2,50,0|4|8,0:0|0:0|0:0,0:0:0:0:
217,191,81214,1,8,0:0:0:0:
477,212,81387,6,0,L|487:95,1,100,2|0,0:0|0:0,0:0:0:0:
423,68,81645,1,0,0:0:0:0:
262,326,81732,2,0,L|340:317,1,50,8|0,0:0|0:0,0:0:0:0:
377,309,81904,1,0,3:0:0:0:
65,286,82076,2,0,L|46:191,1,50,2|0,0:2|0:0,0:0:0:0:
225,213,82249,2,0,L|236:133,1,50,0|4,0:0|0:0,0:0:0:0:
170,116,82421,1,8,0:0:0:0:
407,191,82594,1,8,0:0:0:0:
146,328,82766,6,0,L|24:312,1,100,2|0,0:0|0:0,0:0:0:0:
200,216,83111,1,8,0:0:0:0:
15,132,83283,1,0,0:0:0:0:
182,98,83456,2,0,L|246:88,1,50,8|8,0:0|0:0,0:0:0:0:
385,180,83628,2,0,L|335:188,1,50,0|8,0:0|0:0,0:0:0:0:
254,222,83801,1,8,0:0:0:0:
413,297,83973,1,0,3:0:0:0:
104,316,84145,6,0,L|92:230,1,50,8|8,0:0|0:0,0:0:0:0:
263,206,84318,2,0,L|253:134,1,50,0|8,0:0|0:0,0:0:0:0:
180,89,84490,2,0,L|290:69,1,100,8|0,0:0|3:0,0:0:0:0:
47,343,84835,6,8,L|35:274,1,50
216,312,85008,2,8,L|298:297,1,50
442,220,85180,1,8,0:0:0:0:
462,174,85266,1,0,3:0:0:0:
444,127,85352,1,0,3:0:0:0:
398,105,85439,1,0,3:0:0:0:
136,220,85525,6,0,L|208:220,1,50,2|0,0:2|3:0,0:0:0:0:
360,308,85697,2,0,L|424:304,1,50,0|0,3:0|3:0,3:0:0:0:
169,122,85870,2,8,L|239:121,1,50
299,172,86042,2,8,L|357:172,1,50
194,316,86214,6,8,L|103:317,1,50
300,318,86387,2,0,L|378:314,1,50,0|0,3:0|3:0,3:0:0:0:
156,227,86559,2,0,L|94:227,1,50,0|0,0:3|0:0,0:0:0:0:
331,226,86732,2,0,L|395:223,1,50,2|0,0:0|0:0,0:0:0:0:
157,103,86904,6,0,L|288:93,1,100,2|0,0:3|0:0,0:0:0:0:
99,321,87163,2,0,L|-16:309,1,100,0|4,3:0|1:1,0:0:0:0:
280,236,87421,2,2,L|296:172,1,50
45,155,87594,6,0,L|33:87,1,50,2|2,2:0|2:0,3:0:0:0:
226,93,87766,2,6,L|297:82,1,50
467,159,87939,2,0,P|475:106|485:40,1,100,2|0,0:0|0:0,0:0:0:0:
247,324,88283,6,0,L|114:304,1,110.000003356934,2|0,0:0|0:0,0:0:0:0:
202,227,88542,1,0,0:0:0:0:
45,189,88628,2,0,L|31:120,1,55.0000016784668,8|0,0:0|0:0,0:0:0:0:
100,84,88801,1,0,0:0:0:0:
326,46,88887,2,0,L|193:31,1,110.000003356934,4|4,0:0|0:0,0:0:0:0:
400,274,89145,2,4,L|418:196,1,55.0000016784668,0|0,0:0|0:0,0:0:0:0:
257,142,89318,2,0,L|248:78,1,55.0000016784668,8|0,0:0|0:0,0:0:0:0:
316,50,89490,1,4,0:0:0:0:
44,321,89663,6,0,L|177:312,1,110.000003356934,4|0,0:0|0:0,0:0:0:0:
97,242,89921,1,0,0:0:0:0:
278,228,90008,2,0,L|293:143,1,55.0000016784668,8|0,0:0|0:0,0:0:0:0:
224,122,90180,1,0,0:0:0:0:
54,70,90266,2,0,L|177:62,1,110.000003356934,4|0,0:0|0:0,0:0:0:0:
242,282,90525,2,0,L|256:210,1,55.0000016784668,4|0,0:0|0:0,0:0:0:0:
24,187,90697,2,0,L|13:118,1,55.0000016784668,8|0,0:0|0:0,0:0:0:0:
79,74,90870,1,0,0:0:0:0:
328,323,91042,6,0,L|184:294,1,110.000003356934,4|0,0:0|0:0,0:0:0:0:
295,224,91301,2,0,L|310:153,1,55.0000016784668,0|8,0:0|0:0,0:0:0:0:
133,127,91474,2,0,L|120:48,1,55.0000016784668
203,239,91645,2,0,L|75:222,1,110.000003356934
300,131,91904,2,0,L|368:123,1,55.0000016784668,4|0,0:0|0:0,0:0:0:0:
118,124,92076,2,0,L|98:51,1,55.0000016784668,8|0,1:0|0:0,0:0:0:0:
180,71,92249,1,0,0:0:0:0:
311,309,92421,6,0,L|441:328,1,110.000003356934,4|0,0:0|0:0,0:0:0:0:
373,184,92680,2,0,L|362:237,1,55.0000016784668,0|8,0:0|0:0,0:0:0:0:
447,85,92852,2,0,L|456:139,1,55.0000016784668
269,154,93025,2,0,L|388:146,1,110.000003356934,4|0,0:0|0:0,0:0:0:0:
303,67,93283,2,0,L|297:2,1,55.0000016784668,4|0,0:0|0:0,0:0:0:0:
486,277,93456,2,0,L|417:268,1,55.0000016784668,8|0,0:0|0:0,0:0:0:0:
253,248,93628,1,0,0:0:0:0:
101,346,93801,6,0,L|238:327,1,110.000003356934,4|0,0:0|0:0,0:0:0:0:
288,320,94059,1,0,0:0:0:0:
473,228,94145,2,0,L|485:156,1,55.0000016784668,8|0,0:0|0:0,0:0:0:0:
415,111,94318,1,0,0:0:0:0:
164,46,94404,2,0,L|298:63,1,110.000003356934,4|0,0:0|0:0,0:0:0:0:
190,135,94663,2,0,L|122:141,1,55.0000016784668,4|0,0:0|0:0,0:0:0:0:
340,288,94835,2,0,L|426:298,2,55.0000016784668,8|0|0,0:0|0:0|0:0,0:0:0:0:
38,338,95180,6,0,L|26:213,1,110.000003356934,4|0,0:0|0:0,0:0:0:0:
91,170,95439,1,0,0:0:0:0:
243,105,95525,2,0,L|122:82,1,110.000003356934,8|0,0:0|0:0,0:0:0:0:
303,297,95783,2,0,L|447:275,1,110.000003356934,4|0,0:0|0:0,0:0:0:0:
225,181,96042,2,0,L|206:118,1,55.0000016784668,4|0,0:0|0:0,0:0:0:0:
475,123,96214,2,0,L|481:63,1,55.0000016784668,8|0,0:0|0:0,0:0:0:0:
411,17,96387,1,0,0:0:0:0:
123,343,96559,6,0,P|59:279|132:227,1,165.000005035401,4|0,0:0|0:0,0:0:0:0:
310,282,96904,2,0,P|351:246|382:173,1,110.000003356934,8|0,0:0|0:0,0:0:0:0:
284,154,97163,2,0,L|153:134,1,110.000003356934,4|0,0:0|0:0,0:0:0:0:
423,91,97421,2,0,L|503:85,1,55.0000016784668,4|0,0:0|0:0,0:0:0:0:
293,19,97594,2,0,L|227:12,2,55.0000016784668,8|0|0,0:0|0:0|0:0,0:0:0:0:
27,342,97939,6,0,L|16:204,1,110.000003356934,4|0,0:0|0:0,0:0:0:0:
80,171,98197,1,0,0:0:0:0:
232,169,98283,2,0,L|111:147,1,110.000003356934,8|0,0:0|0:0,0:0:0:0:
295,303,98542,2,0,L|425:286,1,110.000003356934,4|0,0:0|0:0,0:0:0:0:
318,205,98801,2,0,L|308:131,1,55.0000016784668,4|0,0:0|0:0,0:0:0:0:
481,62,98973,2,0,L|422:52,1,55.0000016784668,8|0,0:0|0:0,0:0:0:0:
269,75,99145,1,0,0:0:0:0:
88,234,99318,6,0,P|33:174|120:136,1,165.000005035401,2|0,0:1|0:0,0:0:0:0:
288,269,99663,2,0,L|428:269,1,110.000003356934,8|0,0:0|0:0,0:0:0:0:
339,174,99921,2,0,L|213:172,1,110.000003356934,4|0,0:0|0:0,0:0:0:0:
425,169,100180,2,0,L|441:98,1,55.0000016784668,4|0,0:0|0:0,0:0:0:0:
206,103,100352,2,0,L|192:26,1,55.0000016784668,8|0,0:0|0:0,0:0:0:0:
265,18,100525,1,0,0:0:0:0:
89,292,100697,6,0,L|234:307,1,110.000003356934,4|0,0:0|0:0,0:0:0:0:
274,255,100956,1,0,0:0:0:0:
19,228,101042,2,0,L|11:98,1,110.000003356934,8|0,0:0|0:0,0:0:0:0:
194,190,101301,2,0,P|256:183|343:198,1,110.000003356934,4|0,0:0|0:0,0:0:0:0:
55,328,101559,2,0,L|45:255,1,55.0000016784668,4|0,0:0|0:0,0:0:0:0:
276,328,101732,2,0,L|287:257,1,55.0000016784668,8|0,0:0|0:0,0:0:0:0:
218,206,101904,1,0,0:0:0:0:
391,141,102076,6,0,L|500:150,1,110.000003356934,4|0,0:0|0:0,0:0:0:0:
440,211,102335,1,0,0:0:0:0:
216,336,102421,2,0,L|75:351,1,110.000003356934,8|0,0:0|0:0,0:0:0:0:
171,249,102680,2,0,L|318:237,1,110.000003356934,4|0,0:0|0:0,0:0:0:0:
211,163,102939,2,0,L|197:95,1,55.0000016784668,4|0,0:0|0:0,0:0:0:0:
389,133,103111,2,0,L|400:66,1,55.0000016784668,8|0,0:0|0:0,0:0:0:0:
329,30,103283,1,0,0:0:0:0:
77,337,103456,6,0,L|63:215,1,110.000003356934,4|0,0:0|0:0,0:0:0:0:
135,197,103714,1,0,0:0:0:0:
302,133,103801,2,0,L|152:103,1,110.000003356934,8|0,0:0|0:0,0:0:0:0:
401,282,104059,2,0,P|453:246|467:182,1,110.000003356934,4|0,0:0|0:0,0:0:0:0:
281,280,104318,2,0,L|210:272,1,55.0000016784668,4|0,0:0|0:0,0:0:0:0:
79,193,104490,2,0,L|159:183,1,55.0000016784668,8|0,0:0|0:0,0:0:0:0:
320,248,104663,1,0,0:0:0:0:
440,168,104835,6,0,P|455:103|366:48,1,165.000005035401,4|0,0:0|0:0,0:0:0:0:
195,310,105180,2,0,L|318:296,1,110.000003356934,8|0,0:0|0:0,0:0:0:0:
231,222,105439,2,0,L|217:101,1,110.000003356934,4|0,0:0|0:0,0:0:0:0:
395,147,105697,2,0,L|407:64,1,55.0000016784668,4|0,0:0|0:0,0:0:0:0:
240,38,105870,2,0,L|163:29,1,55.0000016784668,8|0,0:0|0:0,0:0:0:0:
16,113,106042,1,0,0:0:0:0:
173,223,106214,6,0,L|44:254,1,110.000003356934,4|0,0:0|0:0,0:0:0:0:
224,352,106559,2,0,P|246:291|204:225,1,110.000003356934,8|0,0:0|0:0,0:0:0:0:
148,167,106818,2,0,L|279:136,1,110.000003356934,4|0,0:0|0:0,0:0:0:0:
109,367,107076,2,0,L|80:280,1,55.0000016784668,4|0,0:0|0:0,0:0:0:0:
293,281,107249,2,0,L|313:206,1,55.0000016784668,8|0,0:0|0:0,0:0:0:0:
245,172,107421,1,0,0:0:0:0:
64,181,107594,6,0,P|52:98|139:66,1,165.000005035401,4|0,0:0|0:0,0:0:0:0:
319,237,107939,2,0,L|447:228,1,110.000003356934,8|0,0:0|0:0,0:0:0:0:
495,141,108197,2,0,L|357:130,1,110.000003356934,4|0,0:0|0:0,0:0:0:0:
209,341,108456,2,0,L|203:267,1,55.0000016784668,4|0,0:0|0:0,0:0:0:0:
366,212,108628,6,0,L|442:206,2,55.0000016784668,2|8|8,3:2|3:2|3:2,3:2:0:0:
181,95,108887,2,0,L|314:109,1,110.000003356934,2|8,3:2|3:2,3:2:0:0:
108,197,109145,2,0,L|28:206,1,55.0000016784668,2|2,3:2|3:2,3:2:0:0:
257,306,109318,6,0,L|131:328,1,110.000003356934,2|0,3:2|3:2,3:2:0:0:
305,215,109576,2,0,L|447:234,1,110.000003356934,2|0,3:2|3:2,3:2:0:0:
239,284,109835,2,0,L|218:226,1,55.0000016784668,2|0,3:2|3:2,3:2:0:0:
460,121,110008,2,2,L|480:51,1,55.0000016784668,2|0,3:2|3:2,3:2:0:0:
192,106,110180,1,4,3:2:0:0:
423,342,110352,6,0,P|461:326|391:252,1,165.000005035401,2|0,0:0|0:0,0:0:0:0:
174,292,110697,2,0,L|37:273,1,110.000003356934,8|0,0:0|0:0,0:0:0:0:
134,190,110956,2,0,L|252:177,1,110.000003356934,4|0,0:0|0:0,0:0:0:0:
23,92,111214,2,0,L|18:21,1,55.0000016784668,4|0,0:0|0:0,0:0:0:0:
242,208,111387,2,0,L|104:185,1,110.000003356934,8|0,0:0|0:0,0:0:0:0:
444,321,111732,6,0,P|465:252|363:224,1,165.000005035401,2|0,0:3|0:0,0:0:0:0:
131,313,112076,2,0,L|264:305,1,110.000003356934,8|0,0:0|0:0,0:0:0:0:
92,200,112335,2,0,L|20:192,2,55.0000016784668,4|0|0,0:0|0:0|0:0,0:0:0:0:
280,172,112594,2,0,L|272:100,1,55.0000016784668,4|0,0:0|0:0,0:0:0:0:
177,37,112766,2,0,L|184:92,1,55.0000016784668,8|0,0:0|0:0,0:0:0:0:
423,169,112939,2,0,L|486:159,1,55.0000016784668
262,336,113111,6,0,L|77:358,1,165.000005035401,2|0,0:3|0:0,0:0:0:0:
406,235,113456,2,0,P|400:166|323:138,1,110.000003356934,8|0,0:0|0:0,0:0:0:0:
290,74,113714,2,4,L|429:61,1,110.000003356934
222,249,113973,2,0,L|209:169,1,55.0000016784668,4|0,0:0|0:0,0:0:0:0:
388,156,114145,2,0,L|394:97,1,55.0000016784668,8|0,0:0|0:0,0:0:0:0:
130,124,114318,2,0,L|117:44,1,55.0000016784668,4|0,0:0|0:0,0:0:0:0:
424,297,114490,6,0,P|453:187|422:175,1,165.000005035401,2|0,0:3|0:0,0:0:0:0:
261,229,114835,2,0,L|128:215,1,110.000003356934,8|0,0:0|0:0,0:0:0:0:
223,140,115094,1,4,0:0:0:0:
56,136,115180,2,0,L|120:124,1,55.0000016784668,8|0,0:0|0:0,0:0:0:0:
283,348,115352,2,0,L|219:336,1,55.0000016784668,2|0,2:0|2:0,2:0:0:0:
79,334,115525,2,0,L|6:322,1,55.0000016784668,8|0,0:0|0:0,0:0:0:0:
236,251,115697,2,4,L|307:237,1,55.0000016784668
40,132,115870,6,0,L|237:104,1,165.000005035401,2|0,0:3|0:0,0:0:0:0:
378,177,116214,2,0,L|456:188,2,55.0000016784668,8|0|0,0:0|0:0|0:0,0:0:0:0:
188,335,116473,2,0,L|174:200,1,110.000003356934,4|0,0:0|0:0,0:0:0:0:
381,253,116732,2,0,L|404:177,1,55.0000016784668
242,148,116904,2,0,L|352:139,1,110.000003356934,8|0,0:0|0:0,0:0:0:0:
61,337,117249,6,0,L|43:200,1,110.000003356934,2|0,0:3|0:0,0:0:0:0:
185,201,117594,2,0,L|271:199,2,55.0000016784668,8|0|0,0:0|0:0|0:0,0:0:0:0:
371,323,117852,2,0,P|416:289|429:206,1,110.000003356934,4|0,0:0|0:0,0:0:0:0:
276,135,118111,2,0,L|210:107,1,55.0000016784668,4|0,0:0|0:0,0:0:0:0:
421,70,118283,2,0,L|481:47,1,55.0000016784668,8|0,0:0|0:0,0:0:0:0:
286,244,118456,1,0,0:0:0:0:
128,321,118628,6,0,P|119:254|216:204,1,165.000005035401,2|0,0:3|0:0,0:0:0:0:
382,194,118973,2,0,L|452:196,2,55.0000016784668,8|0|0,0:0|0:0|0:0,0:0:0:0:
142,303,119232,2,0,L|278:285,1,110.000003356934,4|0,0:0|0:0,0:0:0:0:
164,216,119490,2,0,L|149:143,1,55.0000016784668,4|0,0:0|0:0,0:0:0:0:
336,225,119663,2,0,L|406:217,1,55.0000016784668,8|0,0:0|0:0,0:0:0:0:
185,71,119835,2,4,L|119:62,1,55.0000016784668
416,336,120008,6,0,L|436:184,1,110.000003356934,2|0,0:3|0:0,0:0:0:0:
244,191,120352,2,0,L|399:158,1,110.000003356934,8|0,0:1|0:0,0:0:0:0:
284,95,120611,1,0,0:0:0:0:
92,315,120697,5,0,0:0:0:0:
69,303,120740,1,0,0:0:0:0:
50,285,120783,1,0,0:0:0:0:
36,264,120826,1,0,0:0:0:0:
24,241,120870,1,0,0:0:0:0:
16,218,120913,1,0,0:0:0:0:
11,193,120956,1,0,0:0:0:0:
11,168,120999,1,0,0:0:0:0:
19,144,121042,5,0,0:0:0:0:
32,122,121085,1,0,0:0:0:0:
47,102,121128,1,0,0:0:0:0:
66,87,121171,1,0,0:0:0:0:
87,74,121214,1,0,0:0:0:0:
109,63,121258,1,0,0:0:0:0:
133,57,121301,1,0,0:0:0:0:
282,326,121387,6,0,L|296:265,1,55.0000016784668,4|0,3:0|0:0,0:0:0:0:
108,252,121559,2,0,L|96:183,1,55.0000016784668
292,143,121732,2,0,L|368:127,2,55.0000016784668,8|0|0,0:0|0:0|0:0,0:0:0:0:
13,330,121990,2,0,L|138:351,1,110.000003356934,4|0,0:0|0:0,0:0:0:0:
340,321,122249,2,0,L|415:307,1,55.0000016784668,4|0,0:0|0:0,0:0:0:0:
231,196,122421,2,0,L|162:174,1,55.0000016784668,8|0,0:0|0:0,0:0:0:0:
383,84,122594,1,0,0:0:0:0:
123,296,122766,6,0,P|97:239|124:187,1,110.000003356934,2|0,0:3|0:0,0:0:0:0:
349,257,123111,2,0,L|220:232,1,110.000003356934,8|0,0:0|0:0,0:0:0:0:
317,163,123370,2,0,L|334:45,1,110.000003356934,4|0,0:0|0:0,0:0:0:0:
232,99,123628,2,0,L|221:27,1,55.0000016784668,4|0,0:0|0:0,0:0:0:0:
422,332,123801,2,0,L|486:321,1,55.0000016784668,8|0,0:0|0:0,0:0:0:0:
307,242,123973,2,0,L|232:227,1,55.0000016784668,4|0,0:0|0:0,0:0:0:0:
46,327,124145,6,0,L|21:185,1,110.000003356934,4|0,0:0|0:0,0:0:0:0:
198,249,124404,2,0,L|262:228,1,55.0000016784668,0|8,0:0|0:0,0:0:0:0:
418,142,124576,2,0,L|332:109,1,55.0000016784668
176,59,124749,2,0,L|301:24,1,110.000003356934,4|0,0:0|0:0,0:0:0:0:
222,127,125008,2,0,L|210:192,1,55.0000016784668,4|0,0:0|0:0,0:0:0:0:
383,275,125180,2,0,L|311:287,1,55.0000016784668,8|0,0:0|0:0,0:0:0:0:
173,303,125352,2,0,L|108:315,1,55.0000016784668
337,161,125525,6,0,L|478:180,1,110.000003356934,2|0,0:3|0:0,0:0:0:0:
287,312,125870,2,0,L|141:334,1,110.000003356934,8|0,0:0|0:0,0:0:0:0:
231,237,126128,1,0,0:0:0:0:
73,166,126214,2,0,L|16:158,1,55.0000016784668,4|0,0:0|0:0,0:0:0:0:
194,72,126387,2,0,L|251:64,1,55.0000016784668,2|0,2:0|0:0,0:0:0:0:
412,248,126559,2,0,L|480:240,2,55.0000016784668,8|0|0,0:0|0:0|0:0,0:0:0:0:
76,344,126904,6,0,P|61:286|160:242,1,165.000005035401,4|0,0:0|0:0,0:0:0:0:
321,236,127249,2,0,L|397:229,2,55.0000016784668,8|0|0,0:0|0:0|0:0,0:0:0:0:
160,119,127508,2,0,L|291:135,1,110.000003356934
201,343,127766,2,0,L|190:255,1,55.0000016784668,4|0,0:0|0:0,0:0:0:0:
386,214,127939,2,0,L|266:201,1,110.000003356934,8|0,0:0|0:0,0:0:0:0:
16,169,128283,6,0,L|171:154,1,110.000003356934,2|0,0:3|0:0,0:0:0:0:
432,324,128628,2,0,L|295:308,1,110.000003356934,8|0,0:0|0:0,0:0:0:0:
403,233,128887,2,0,P|456:190|474:113,1,110.000003356934,4|0,0:3|0:0,0:0:0:0:
283,143,129145,2,0,L|272:62,1,55.0000016784668,4|0,0:0|0:0,0:0:0:0:
360,93,129318,2,0,L|369:25,1,55.0000016784668,8|0,0:0|0:0,0:0:0:0:
186,197,129490,1,0,0:0:0:0:
17,338,129663,6,0,L|221:316,1,165.000005035401
104,241,130008,2,0,P|63:196|44:126,1,110.000003356934,8|0,0:0|0:0,0:0:0:0:
251,165,130266,2,0,P|299:103|306:51,1,110.000003356934,4|0,0:0|0:0,0:0:0:0:
147,46,130525,2,0,L|223:37,1,55.0000016784668,4|0,0:0|0:0,0:0:0:0:
445,244,130697,2,0,L|296:233,1,110.000003356934,8|0,0:0|0:0,0:0:0:0:
152,316,130956,2,0,L|35:307,1,110.000003356934,4|0,0:0|0:0,0:0:0:0:
204,204,131214,2,0,L|218:130,1,55.0000016784668,2|0,0:3|0:0,0:0:0:0:
40,168,131387,6,0,P|32:96|144:80,1,165.000005035401,2|0,0:3|0:0,0:0:0:0:
420,315,131732,5,0,0:0:0:0:
443,303,131775,1,0,0:0:0:0:
462,285,131818,1,0,0:0:0:0:
476,264,131861,1,0,0:0:0:0:
488,241,131905,1,0,0:0:0:0:
496,218,131948,1,0,0:0:0:0:
501,193,131991,1,0,0:0:0:0:
501,168,132034,1,0,0:0:0:0:
493,144,132077,5,0,0:0:0:0:
480,122,132120,1,0,0:0:0:0:
465,102,132163,1,0,0:0:0:0:
446,87,132206,1,0,0:0:0:0:
425,74,132249,1,0,0:0:0:0:
403,63,132293,1,0,0:0:0:0:
379,57,132336,1,0,0:0:0:0:
204,348,132421,6,0,L|189:278,1,59.9999981689454,4|0,0:3|2:0,0:0:0:0:
409,299,132594,2,0,L|413:240,1,59.9999981689454,0|0,2:0|0:0,0:0:0:0:
224,213,132766,2,0,L|202:140,1,59.9999981689454,12|0,0:0|0:0,0:0:0:0:
287,110,132938,1,4,0:0:0:0:
120,340,133025,2,0,L|196:332,1,59.9999981689454,4|0,0:0|0:0,0:0:0:0:
324,248,133197,2,0,L|392:240,1,59.9999981689454,4|0,0:0|0:0,0:0:0:0:
196,208,133370,2,0,L|176:131,1,59.9999981689454,4|8,0:0|0:0,0:0:0:0:
364,145,133542,2,0,L|382:80,1,59.9999981689454,4|0,0:0|0:0,0:0:0:0:
78,329,133801,6,0,P|62:271|161:233,1,179.999994506836,2|0,0:3|0:0,0:0:0:0:
240,143,134145,2,0,L|173:130,2,59.9999981689454,8|0|0,0:0|0:0|0:0,0:0:0:0:
334,289,134404,2,0,L|337:210,1,59.9999981689454,4|0,0:0|0:0,0:0:0:0:
231,350,134576,2,0,L|228:271,1,59.9999981689454,4|0,0:0|0:0,0:0:0:0:
420,138,134749,2,0,L|487:129,2,59.9999981689454,0|8|0,0:0|0:0|0:0,0:0:0:0:
237,69,135008,2,2,L|153:58,1,59.9999981689454
387,363,135180,6,0,L|509:355,1,119.999996337891,2|0,0:3|0:0,0:0:0:0:
441,282,135439,1,0,0:0:0:0:
248,307,135525,2,0,L|180:293,2,59.9999981689454,8|0|0,0:0|0:0|0:0,0:0:0:0:
56,333,135783,2,0,L|41:246,1,59.9999981689454,4|0,0:0|0:0,0:0:0:0:
145,253,135956,2,0,L|155:186,1,59.9999981689454,4|0,0:0|0:0,0:0:0:0:
65,123,136128,2,0,L|133:113,2,59.9999981689454,0|8|0,0:0|0:0|0:0,0:0:0:0:
241,194,136387,2,0,L|306:185,1,59.9999981689454
481,77,136559,6,0,L|359:57,1,119.999996337891,2|0,3:0|0:0,0:0:0:0:
425,143,136818,1,0,0:0:0:0:
261,220,136904,2,0,L|239:299,1,59.9999981689454,8|0,0:0|0:0,0:0:0:0:
338,293,137076,2,4,L|349:351,1,59.9999981689454
163,330,137249,2,0,L|85:317,1,59.9999981689454,2|0,2:0|0:0,0:0:0:0:
276,163,137421,2,0,L|205:151,1,59.9999981689454,2|0,2:0|0:0,0:0:0:0:
52,202,137594,1,8,0:0:0:0:
28,146,137680,1,0,0:0:0:0:
56,93,137766,1,4,0:0:0:0:
113,74,137852,1,4,0:0:0:0:
325,274,137939,6,0,L|189:276,1,119.999996337891,2|0,0:3|0:0,0:0:0:0:
279,188,138197,1,0,0:0:0:0:
122,85,138283,2,0,L|54:80,2,59.9999981689454,8|0|0,0:0|0:0|0:0,0:0:0:0:
203,303,138542,2,0,L|213:223,1,59.9999981689454,4|0,0:0|0:0,0:0:0:0:
303,234,138714,2,0,L|314:157,1,59.9999981689454,4|0,0:0|0:0,0:0:0:0:
225,102,138887,2,0,L|131:90,2,59.9999981689454,0|8|0,0:0|0:0|0:0,0:0:0:0:
421,172,139145,2,0,L|491:163,1,59.9999981689454
259,355,139318,6,0,L|411:339,1,119.999996337891,2|0,3:0|0:0,0:0:0:0:
294,256,139576,1,0,0:0:0:0:
117,204,139663,2,0,L|50:196,2,59.9999981689454,8|0|0,0:0|0:0|0:0,0:0:0:0:
199,270,139921,2,0,L|214:186,1,59.9999981689454
108,108,140094,2,0,L|97:35,1,59.9999981689454,4|0,0:0|0:0,0:0:0:0:
188,67,140266,1,0,0:0:0:0:
357,141,140352,2,0,L|288:144,1,59.9999981689454,8|0,0:0|0:0,0:0:0:0:
136,264,140525,2,0,L|45:260,1,59.9999981689454
243,182,140697,5,2,0:3:0:0:
396,250,140870,2,0,L|403:309,1,59.9999981689454,4|0,0:0|0:0,0:0:0:0:
213,273,141042,1,8,0:0:0:0:
147,233,141128,2,0,L|139:160,1,59.9999981689454,4|0,0:0|0:0,0:0:0:0:
301,164,141301,2,0,L|310:91,1,59.9999981689454
237,26,141473,2,0,L|376:40,1,119.999996337891,2|0,2:3|0:0,0:0:0:0:
126,318,141732,1,0,0:0:0:0:
84,273,141818,1,0,0:0:0:0:
96,213,141904,1,0,0:0:0:0:
150,187,141990,1,0,0:0:0:0:
357,182,142076,6,0,L|392:178,1,29.9999990844727,2|0,0:3|0:0,0:0:0:0:
276,304,142249,2,0,L|399:318,1,119.999996337891,4|8,0:0|0:0,0:0:0:0:
226,207,142508,2,0,L|144:194,2,59.9999981689454
430,226,142766,6,0,P|446:165|339:112,1,179.999994506836,2|0,0:2|0:0,0:0:0:0:
177,347,143111,2,0,L|388:320,1,194.999991073609,2|0,0:2|0:0,0:0:0:0:
175,233,143456,6,0,L|29:215,1,119.999996337891,6|0,0:3|0:0,0:0:0:0:
123,144,143714,1,0,0:0:0:0:
309,167,143801,2,0,L|380:162,2,59.9999981689454,8|0|0,0:0|0:0|0:0,0:0:0:0:
203,358,144059,2,0,L|219:281,1,59.9999981689454
413,286,144232,2,0,L|427:222,1,59.9999981689454,4|0,0:0|0:0,0:0:0:0:
252,141,144404,2,0,L|191:135,2,59.9999981689454,0|8|0,0:0|0:0|0:0,0:0:0:0:
412,128,144663,1,0,0:0:0:0:
74,328,144835,6,0,L|55:175,1,119.999996337891,2|0,3:0|0:0,0:0:0:0:
317,194,145180,2,0,L|244:183,1,59.9999981689454,8|0,0:0|0:0,0:0:0:0:
85,99,145352,2,0,L|12:88,1,59.9999981689454,4|0,0:0|0:0,0:0:0:0:
225,340,145525,1,0,0:0:0:0:
258,296,145611,1,0,0:0:0:0:
246,242,145697,1,4,0:0:0:0:
200,211,145783,1,0,0:0:0:0:
43,222,145870,2,0,L|29:130,1,59.9999981689454,8|0,0:0|0:0,0:0:0:0:
239,143,146042,2,0,L|251:57,1,59.9999981689454
77,59,146214,1,2,0:3:0:0:
352,238,146387,6,0,L|482:229,1,119.999996337891,0|8,0:0|0:0,0:0:0:0:
391,151,146645,2,0,L|322:146,2,59.9999981689454
201,306,146904,2,0,L|129:295,1,59.9999981689454,4|0,0:0|0:0,0:0:0:0:
293,218,147076,2,0,L|304:136,1,59.9999981689454,4|0,0:0|0:0,0:0:0:0:
148,88,147249,2,0,L|220:77,1,59.9999981689454,8|0,0:0|0:0,0:0:0:0:
405,341,147421,2,0,L|414:265,1,59.9999981689454
224,276,147594,6,0,L|64:296,1,119.999996337891,2|0,0:3|0:0,0:0:0:0:
177,189,147852,1,0,0:0:0:0:
84,126,147939,2,0,L|19:94,3,59.9999981689454,8|0|0|0,0:0|0:0|0:0|0:0,0:0:0:0:
279,234,148283,2,0,L|351:227,1,59.9999981689454,2|0,2:0|0:0,0:0:0:0:
162,341,148456,2,0,L|76:351,1,59.9999981689454,2|0,2:0|0:0,0:0:0:0:
358,341,148628,1,8,0:0:0:0:
399,305,148714,1,0,0:0:0:0:
396,249,148801,1,0,0:0:0:0:
362,205,148887,1,0,0:0:0:0:
151,288,148973,6,0,L|136:156,1,119.999996337891,2|0,0:3|0:0,0:0:0:0:
208,135,149232,1,0,0:0:0:0:
23,271,149318,2,0,L|19:331,1,59.9999981689454,8|0,0:0|0:0,0:0:0:0:
102,250,149490,2,0,L|168:235,1,59.9999981689454
94,102,149663,2,0,L|86:162,1,59.9999981689454,4|0,0:0|0:0,0:0:0:0:
298,268,149835,2,0,L|358:255,1,59.9999981689454,4|0,0:0|0:0,0:0:0:0:
157,221,150008,2,0,L|152:148,1,59.9999981689454,8|0,0:0|0:0,0:0:0:0:
247,97,150180,2,0,L|172:85,1,59.9999981689454
386,338,150352,6,0,L|514:323,1,119.999996337891,2|0,3:0|0:0,0:0:0:0:
364,250,150697,2,0,L|356:166,1,59.9999981689454,8|0,0:0|0:0,0:0:0:0:
430,132,150870,1,0,0:0:0:0:
261,77,150956,2,0,L|120:58,1,119.999996337891
226,153,151214,2,0,L|232:224,1,59.9999981689454
126,337,151387,2,0,L|207:324,1,59.9999981689454,8|0,0:0|0:0,0:0:0:0:
351,329,151559,2,0,L|416:318,1,59.9999981689454,4|2,0:0|2:3,0:0:0:0:
165,201,151732,6,0,P|145:140|240:102,1,179.999994506836,2|0,3:0|0:0,0:0:0:0:
318,255,152076,2,0,L|257:258,1,59.9999981689454,2|0,0:0|0:0,0:0:0:0:
186,316,152249,2,0,L|115:319,1,59.9999981689454,2|0,0:0|0:0,0:0:0:0:
321,169,152421,2,0,L|331:93,1,59.9999981689454,2|0,0:0|0:0,0:0:0:0:
245,87,152594,2,0,L|232:7,1,59.9999981689454,2|2,0:0|0:0,0:0:0:0:
407,255,152766,2,0,L|439:195,1,59.9999981689454,2|2,0:0|0:0,0:0:0:0:
211,246,152939,1,12,0:0:0:0:
481,336,153111,6,0,L|329:342,1,119.999996337891,0|4,1:0|0:0,0:0:0:0:
304,246,153456,2,2,L|399:242,1,59.9999981689454
134,293,153714,6,0,P|25:177|177:75,1,350,2|0,0:0|0:0,0:0:0:0:
298,207,154490,6,0,L|177:198,1,110.000003356934,4|2,1:3|0:0,0:0:0:0:
339,363,154835,2,0,L|418:356,2,55.0000016784668,8|0|0,0:1|0:0|0:0,0:0:0:0:
147,270,155180,1,4,0:0:0:0:
114,232,155266,1,0,0:0:0:0:
109,182,155352,1,4,0:0:0:0:
143,144,155439,1,4,0:0:0:0:
191,134,155525,1,8,0:1:0:0:
91,318,155697,2,0,L|28:308,2,55.0000016784668,0|0|2,1:0|0:0|2:3,0:0:0:0:
288,320,155956,6,0,L|413:314,1,110.000003356934,2|0,0:0|0:0,0:0:0:0:
463,233,156214,2,0,L|337:224,1,110.000003356934,8|0,0:1|0:0,0:0:0:0:
267,153,156473,1,0,0:0:0:0:
430,134,156645,2,0,L|451:62,1,55.0000016784668
311,39,156904,2,0,L|244:51,1,55.0000016784668,8|0,0:1|0:0,0:0:0:0:
165,142,157076,2,0,L|236:126,1,55.0000016784668
390,345,157249,6,0,L|411:216,1,110.000003356934,2|0,1:3|0:0,0:0:0:0:
247,266,157594,2,0,L|235:202,1,55.0000016784668,8|0,0:1|0:0,0:0:0:0:
395,201,157939,1,4,0:0:0:0:
435,167,158025,1,0,0:0:0:0:
445,116,158111,1,4,0:0:0:0:
415,73,158197,1,4,0:0:0:0:
366,52,158283,1,8,0:1:0:0:
182,159,158456,2,0,L|175:87,2,55.0000016784668,0|0|2,0:0|0:0|0:3,0:0:0:0:
346,301,158714,6,0,L|494:312,1,110.000003356934
365,206,158973,2,0,L|255:210,1,110.000003356934,8|0,1:0|0:0,0:0:0:0:
320,120,159232,1,4,0:1:0:0:
182,112,159404,2,0,L|164:47,1,55.0000016784668,0|4,0:0|0:1,0:0:0:0:
408,264,159663,2,0,L|491:243,1,55.0000016784668,8|0,0:1|0:0,0:0:0:0:
246,343,159835,2,0,L|193:328,1,55.0000016784668,8|0,0:1|0:0,0:0:0:0:
40,250,160008,6,0,L|168:251,1,110.000003356934,2|0,1:3|0:0,0:0:0:0:
326,289,160352,2,0,L|329:226,1,55.0000016784668,8|0,0:1|0:0,0:0:0:0:
136,206,160697,1,4,1:0:0:0:
92,174,160783,1,0,1:0:0:0:
78,122,160870,1,4,1:0:0:0:
108,78,160956,1,4,1:0:0:0:
156,55,161042,1,8,1:1:0:0:
304,160,161214,2,0,L|360:147,2,55.0000016784668,0|0|2,0:0|0:0|0:3,0:0:0:0:
49,314,161473,6,0,L|169:318,1,110.000003356934,0|0,0:3|0:0,0:0:0:0:
243,230,161732,2,0,L|121:225,1,110.000003356934,8|0,0:1|0:0,0:0:0:0:
59,178,161990,1,4,0:1:0:0:
182,103,162163,2,0,L|193:40,1,55.0000016784668,0|4,0:0|0:1,0:0:0:0:
72,229,162421,1,8,1:0:0:0:
29,198,162508,1,0,0:0:0:0:
20,148,162594,1,0,0:0:0:0:
61,108,162680,1,0,0:0:0:0:
292,343,162766,6,0,L|416:329,1,110.000003356934,2|0,0:3|0:0,0:0:0:0:
276,233,163111,2,0,L|215:224,2,55.0000016784668,8|0|0,0:1|0:0|0:0,0:0:0:0:
436,181,163456,1,4,0:1:0:0:
475,151,163542,1,0,0:0:0:0:
485,98,163628,1,0,0:0:0:0:
456,57,163714,1,4,0:0:0:0:
407,36,163801,1,8,0:1:0:0:
265,132,163973,2,4,L|203:132,1,55.0000016784668,4|4,0:1|0:1,0:1:0:0:
264,215,164145,5,2,0:3:0:0:
475,334,164232,2,0,P|471:271|407:233,1,110.000003356934,2|0,0:0|0:0,0:0:0:0:
273,226,164490,2,0,P|256:182|306:149,1,110.000003356934,8|0,0:1|0:0,0:0:0:0:
374,151,164749,1,4,1:0:0:0:
484,76,164921,2,0,L|479:16,1,55.0000016784668,0|4,0:0|1:0,0:0:0:0:
230,279,165180,2,0,L|175:270,1,55.0000016784668,2|0,0:3|0:0,0:0:0:0:
366,108,165352,2,0,L|420:117,1,55.0000016784668,2|0,0:3|0:0,0:0:0:0:
145,333,165525,6,0,L|131:210,1,110.000003356934,2|0,0:3|0:0,0:0:0:0:
299,165,165870,2,0,L|378:153,2,55.0000016784668,8|0|0,0:1|0:0|0:0,0:0:0:0:
57,332,166214,1,4,0:0:0:0:
38,284,166301,1,0,0:0:0:0:
50,235,166387,1,4,0:0:0:0:
93,210,166473,1,4,0:0:0:0:
142,210,166559,1,8,0:1:0:0:
298,209,166732,1,4,1:0:0:0:
57,359,166904,6,0,L|40:278,1,55.0000016784668,2|0,0:3|0:0,0:0:0:0:
221,292,167249,2,0,L|360:272,1,110.000003356934,8|0,0:1|0:0,0:0:0:0:
404,202,167508,2,4,L|267:185,1,110.000003356934,4|4,0:1|0:1,0:1:0:0:
196,116,167766,1,4,0:0:0:0:
325,362,167939,2,2,L|401:354,1,55.0000016784668
187,264,168111,2,2,L|132:249,1,55.0000016784668
320,163,168283,6,0,L|433:131,1,110.000003356934,2|0,0:3|0:0,0:0:0:0:
275,56,168628,2,0,L|198:66,1,55.0000016784668,8|0,0:1|0:0,0:0:0:0:
360,336,168973,1,4,0:0:0:0:
399,305,169059,1,0,0:0:0:0:
408,256,169145,1,4,0:0:0:0:
386,210,169232,1,4,0:0:0:0:
340,188,169318,1,8,0:1:0:0:
150,212,169490,2,0,L|140:144,1,55.0000016784668,4|0,0:1|0:0,0:0:0:0:
205,98,169663,5,2,0:3:0:0:
375,318,169749,2,0,L|512:307,1,110.000003356934
322,172,170008,2,0,L|204:157,1,110.000003356934,8|0,0:1|0:0,0:0:0:0:
291,96,170266,1,0,0:0:0:0:
442,286,170352,1,4,0:0:0:0:
486,247,170439,1,4,0:0:0:0:
478,197,170525,1,4,0:0:0:0:
423,173,170611,1,4,0:0:0:0:
206,275,170697,2,2,L|152:280,1,55.0000016784668
316,79,170870,2,2,L|370:89,1,55.0000016784668
301,54,171042,5,2,0:3:0:0:
165,244,171214,2,0,L|289:228,1,119.999996337891,4|8,0:0|0:1,0:0:0:0:
448,128,171473,2,0,L|296:104,1,119.999996337891,4|0,0:1|0:0,0:0:0:0:
107,352,171732,2,4,L|76:287,1,59.9999981689454,6|4,0:0|0:0,0:0:0:0:
265,309,171904,2,4,L|291:243,1,59.9999981689454
74,199,172076,1,8,0:1:0:0:
144,176,172163,2,0,L|294:150,1,119.999996337891,2|0,0:0|0:0,0:0:0:0:
465,217,172421,6,0,P|482:157|374:120,1,179.999994506836,4|0,0:1|0:1,0:1:0:0:
181,313,172766,2,0,L|160:244,1,59.9999981689454,8|0,0:1|0:1,0:1:0:0:
351,279,172939,2,0,L|472:265,1,119.999996337891,4|0,0:1|0:1,0:1:0:0:
226,106,173197,2,0,L|88:84,1,119.999996337891,4|0,0:1|0:1,0:1:0:0:
285,193,173456,1,8,1:0:0:0:
105,310,173542,2,0,P|48:268|35:214,1,119.999996337891,4|4,0:1|0:1,0:1:0:0:
264,292,173801,6,0,L|394:283,1,119.999996337891,6|0,0:1|0:1,0:1:0:0:
292,204,174059,1,0,0:1:0:0:
460,160,174145,2,0,L|471:86,1,59.9999981689454,8|0,0:1|0:1,0:1:0:0:
398,61,174318,1,0,0:0:0:0:
176,97,174404,2,0,L|330:98,1,119.999996337891,4|0,1:0|0:0,0:0:0:0:
498,167,174663,6,0,L|518:235,1,59.9999981689454,0|4,0:1|0:1,0:1:0:0:
288,328,174835,2,0,L|224:336,1,59.9999981689454,0|4,0:1|0:1,0:1:0:0:
44,248,175008,2,0,L|28:160,1,59.9999981689454,0|4,0:1|0:1,0:1:0:0:
321,197,175180,1,2,0:2:0:0:
445,149,175352,1,0,0:0:0:0:
215,320,175525,6,0,B|128:320|128:320|384:320|384:320|256:320|256:320|256:128,1,659.999979858399
32,320,176559,6,0,L|25:189,1,119.999996337891,2|0,0:3|0:0,0:0:0:0:
96,192,176818,1,0,0:0:0:0:
287,197,176904,2,0,L|285:118,1,59.9999981689454,8|0,0:0|0:0,0:0:0:0:
122,58,177076,1,0,0:0:0:0:
194,90,177163,2,0,L|337:73,1,119.999996337891,4|0,0:0|0:0,0:0:0:0:
143,332,177421,2,0,L|133:239,1,59.9999981689454,4|0,0:0|0:0,0:0:0:0:
216,210,177594,1,8,0:1:0:0:
71,157,177766,1,0,0:0:0:0:
434,119,177939,6,0,L|292:105,1,119.999996337891,2|0,0:3|0:0,0:0:0:0:
168,182,178283,2,0,L|178:255,1,59.9999981689454,8|0,0:0|0:0,0:0:0:0:
246,291,178456,1,0,0:0:0:0:
443,230,178542,2,0,L|454:95,1,119.999996337891,4|0,0:0|0:0,0:0:0:0:
257,176,178801,1,4,0:0:0:0:
248,124,178887,1,0,0:0:0:0:
469,131,178973,2,0,L|388:124,1,59.9999981689454,8|0,0:0|0:0,0:0:0:0:
231,31,179145,2,0,L|144:27,1,59.9999981689454,4|0,0:0|0:0,0:0:0:0:
386,331,179318,6,0,P|397:269|369:212,1,119.999996337891,2|0,0:3|0:0,0:0:0:0:
301,186,179576,1,0,0:0:0:0:
118,310,179663,2,0,L|251:298,1,119.999996337891,8|0,0:0|0:0,0:0:0:0:
164,219,179921,2,0,L|24:206,1,119.999996337891,4|0,0:0|0:0,0:0:0:0:
132,137,180180,2,0,L|138:66,1,59.9999981689454,4|0,0:0|0:0,0:0:0:0:
36,334,180352,2,0,L|27:258,1,59.9999981689454,8|0,0:0|0:0,0:0:0:0:
220,338,180525,2,0,L|306:329,1,59.9999981689454
132,242,180697,6,0,L|256:231,1,119.999996337891,2|0,3:0|0:0,0:0:0:0:
415,151,181042,2,0,L|289:137,1,119.999996337891,8|0,0:0|0:0,0:0:0:0:
365,68,181301,1,0,0:0:0:0:
181,327,181387,2,0,L|174:235,1,59.9999981689454,2|0,2:0|0:0,0:0:0:0:
343,243,181559,2,0,L|348:183,1,59.9999981689454,2|0,2:0|0:0,0:0:0:0:
169,180,181732,2,0,L|265:171,1,59.9999981689454,8|4,0:0|0:0,0:0:0:0:
405,80,181904,2,4,L|469:70,1,59.9999981689454
300,333,182076,6,0,L|166:309,1,119.999996337891,4|0,0:0|0:0,0:0:0:0:
255,244,182335,1,0,0:0:0:0:
79,227,182421,2,0,P|63:166|90:97,1,119.999996337891,8|0,0:0|0:0,0:0:0:0:
287,89,182680,2,0,L|151:71,1,119.999996337891,4|0,0:0|0:0,0:0:0:0:
63,193,182939,2,0,L|149:184,1,59.9999981689454,4|0,0:0|0:0,0:0:0:0:
463,184,183111,1,8,0:0:0:0:
349,181,183283,1,0,0:0:0:0:
115,297,183456,6,0,L|88:138,1,119.999996337891,2|0,3:0|0:0,0:0:0:0:
257,284,183801,2,0,L|384:272,1,119.999996337891,8|0,0:0|0:0,0:0:0:0:
197,191,184059,2,0,P|143:151|134:75,1,119.999996337891,4|0,0:0|0:0,0:0:0:0:
304,197,184318,2,0,L|385:197,1,59.9999981689454,4|0,0:0|0:0,0:0:0:0:
264,118,184490,2,0,L|178:119,1,59.9999981689454,8|0,0:0|0:0,0:0:0:0:
417,102,184663,2,4,L|427:15,1,59.9999981689454
111,200,184835,6,0,P|85:138|195:90,1,179.999994506836,2|0,0:3|0:0,0:0:0:0:
319,179,185180,2,0,L|180:160,1,119.999996337891,8|0,0:0|0:0,0:0:0:0:
284,354,185439,2,0,L|298:205,1,119.999996337891,4|0,0:0|0:0,0:0:0:0:
133,233,185697,2,0,L|117:150,1,59.9999981689454,4|0,0:0|0:0,0:0:0:0:
302,213,185870,2,0,L|382:209,1,59.9999981689454,8|0,0:0|0:0,0:0:0:0:
511,62,186042,2,0,L|417:64,1,59.9999981689454,4|0,0:0|0:0,0:0:0:0:
232,312,186214,6,0,L|380:328,1,119.999996337891,2|0,0:3|0:0,0:0:0:0:
58,214,186559,2,0,P|42:145|115:111,1,119.999996337891,8|0,0:0|0:0,0:0:0:0:
308,126,186818,2,0,L|418:115,1,59.9999981689454
193,300,186990,2,0,P|164:266|161:208,1,89.9999972534181
319,300,187163,2,0,P|348:266|351:208,1,89.9999972534181
157,222,187335,2,0,P|128:188|38:180,1,119.999996337891
336,63,187594,6,0,L|171:48,1,119.999996337891,2|0,0:3|0:0,0:0:0:0:
282,128,187852,1,0,0:0:0:0:
90,190,187939,2,0,L|80:278,1,59.9999981689454,8|0,0:0|0:0,0:0:0:0:
147,301,188111,1,4,0:0:0:0:
314,221,188197,2,0,L|181:236,1,119.999996337891
262,145,188456,2,0,L|274:62,1,59.9999981689454,4|0,0:0|0:0,0:0:0:0:
68,174,188628,2,0,L|46:48,1,119.999996337891,8|0,0:0|0:0,0:0:0:0:
363,305,188973,6,0,L|492:297,1,119.999996337891,2|0,0:3|0:0,0:0:0:0:
423,217,189232,1,0,0:0:0:0:
255,166,189318,2,0,L|248:87,1,59.9999981689454,8|0,0:0|0:0,0:0:0:0:
321,66,189490,1,0,0:0:0:0:
153,327,189576,2,0,L|303:328,1,119.999996337891,4|0,0:0|0:0,0:0:0:0:
112,227,189835,2,0,L|37:223,1,59.9999981689454,4|0,0:0|0:0,0:0:0:0:
236,192,190008,2,2,L|246:132,1,59.9999981689454
92,112,190180,2,2,L|85:48,1,59.9999981689454
243,314,190352,6,0,L|381:306,1,119.999996337891,4|0,0:0|0:0,0:0:0:0:
290,231,190611,1,0,0:0:0:0:
477,201,190697,2,0,P|475:142|404:101,1,119.999996337891,8|0,0:0|0:0,0:0:0:0:
242,51,190956,2,0,L|378:37,1,119.999996337891,4|0,0:0|0:0,0:0:0:0:
291,128,191214,2,4,L|282:206,1,59.9999981689454
372,283,191387,2,0,L|301:270,1,59.9999981689454,8|0,0:0|0:0,0:0:0:0:
145,193,191559,2,0,L|232:183,1,59.9999981689454
466,322,191732,6,0,L|269:350,1,179.999994506836,2|0,0:3|0:0,0:0:0:0:
434,265,192076,2,0,P|446:197|384:142,1,119.999996337891,8|0,0:0|0:0,0:0:0:0:
344,127,192335,1,0,0:0:0:0:
161,230,192421,2,2,L|96:220,1,59.9999981689454,2|2,2:0|2:0,2:0:0:0:
270,58,192594,2,2,L|352:44,1,59.9999981689454,2|2,2:0|2:0,2:0:0:0:
89,356,192766,2,0,L|73:282,1,59.9999981689454,8|0,0:0|0:0,0:0:0:0:
146,263,192939,1,4,0:0:0:0:
297,180,193111,6,0,L|166:160,1,119.999996337891,4|0,0:0|0:0,0:0:0:0:
253,91,193370,1,0,0:0:0:0:
101,310,193456,2,0,L|81:163,1,119.999996337891,8|0,0:0|0:0,0:0:0:0:
313,289,193714,2,0,L|182:269,1,119.999996337891,4|0,0:0|0:0,0:0:0:0:
282,210,193973,2,0,L|304:138,1,59.9999981689454,4|0,0:0|0:0,0:0:0:0:
204,122,194145,2,0,L|189:43,1,59.9999981689454,8|0,0:0|0:0,0:0:0:0:
357,92,194318,1,4,0:0:0:0:
219,362,194490,6,0,L|356:342,1,119.999996337891,4|0,0:0|0:0,0:0:0:0:
61,277,194835,2,0,L|43:180,1,59.9999981689454,8|0,0:0|0:0,0:0:0:0:
224,202,195008,2,0,L|238:122,1,59.9999981689454,4|0,0:0|0:0,0:0:0:0:
65,134,195180,1,0,0:0:0:0:
30,85,195266,1,0,0:0:0:0:
43,26,195352,1,4,0:0:0:0:
100,8,195439,1,0,0:0:0:0:
307,300,195525,2,0,L|214:305,1,55.0000016784668,8|0,0:0|0:0,0:0:0:0:
145,233,195697,2,0,L|222:229,1,55.0000016784668
416,246,195870,6,0,P|436:188|324:130,1,179.999994506836,4|0,0:1|0:0,0:0:0:0:
171,351,196214,2,0,L|305:338,1,119.999996337891,8|0,0:0|0:0,0:0:0:0:
94,273,196473,2,0,L|82:154,1,119.999996337891,4|0,0:0|0:0,0:0:0:0:
252,160,196732,2,0,L|320:154,1,59.9999981689454,4|0,0:0|0:0,0:0:0:0:
89,277,196904,2,0,L|18:272,1,59.9999981689454,8|0,0:0|0:0,0:0:0:0:
231,47,197076,2,0,L|307:35,1,59.9999981689454
77,297,197249,6,0,P|58:235|144:199,1,149.999995422363,2|0,3:0|0:0,0:0:0:0:
306,250,197508,2,0,P|323:182|246:156,1,149.999995422363,2|0,3:0|0:0,0:0:0:0:
81,313,197766,1,2,3:0:0:0:
361,201,198111,5,2,0:2:0:0:
44,184,198283,1,2,0:2:0:0:
242,134,198628,5,2,0:3:0:0:
316,207,198714,2,0,P|335:141|293:68,1,119.999996337891,4|0,0:0|0:0,0:0:0:0:
67,349,198973,2,0,L|60:280,1,59.9999981689454,8|0,2:1|2:2,2:2:0:0:
215,268,199145,1,4,0:0:0:0:
383,228,199232,2,0,L|373:146,1,59.9999981689454,8|0,2:1|0:0,0:0:0:0:
208,167,199404,1,4,0:1:0:0:
373,66,199490,2,2,L|434:60,1,59.9999981689454,2|0,2:2|2:2,2:2:0:0:
221,134,199663,6,0,L|25:121,1,179.999994506836,8|0,0:1|0:0,0:0:0:0:
254,304,200008,6,0,L|396:291,1,119.999996337891,2|0,0:3|0:0,0:0:0:0:
304,218,200266,1,0,0:0:0:0:
90,217,200352,2,0,L|87:144,1,59.9999981689454,8|0,0:0|0:0,0:0:0:0:
173,112,200525,2,0,L|188:54,1,59.9999981689454
488,268,200697,2,0,L|483:181,1,59.9999981689454
391,204,200870,2,0,L|367:143,1,59.9999981689454,4|0,0:0|0:0,0:0:0:0:
265,142,201042,2,0,L|211:110,1,59.9999981689454,8|0,0:0|0:0,0:0:0:0:
423,66,201214,2,0,L|490:42,1,59.9999981689454
219,333,201387,6,0,L|374:310,1,119.999996337891,2|0,0:3|0:0,0:0:0:0:
271,241,201645,1,0,0:0:0:0:
71,250,201732,2,0,L|64:167,1,59.9999981689454,8|0,0:0|0:0,0:0:0:0:
137,142,201904,1,2,0:2:0:0:
304,160,201990,2,0,L|383:159,2,59.9999981689454,4|0|0,0:0|0:0|0:0,0:0:0:0:
131,50,202249,2,0,L|51:50,1,59.9999981689454,4|0,0:0|0:0,0:0:0:0:
303,336,202421,1,8,0:0:0:0:
363,291,202508,1,0,0:0:0:0:
373,219,202594,1,0,0:0:0:0:
312,163,202680,1,0,0:0:0:0:
120,272,202766,6,0,L|240:260,1,119.999996337891,2|0,0:3|0:0,0:0:0:0:
170,176,203025,1,0,0:0:0:0:
375,342,203111,2,0,L|383:241,1,59.9999981689454,8|0,0:0|0:0,0:0:0:0:
304,260,203283,2,0,L|307:192,1,59.9999981689454,0|4,0:0|0:0,0:0:0:0:
452,148,203456,2,2,L|511:138,1,59.9999981689454,2|2,2:0|2:0,2:0:0:0:
322,64,203628,2,2,L|259:44,1,59.9999981689454,2|2,2:0|2:0,2:0:0:0:
84,299,203801,2,0,L|70:213,1,59.9999981689454,8|4,0:0|0:0,0:0:0:0:
258,203,203973,2,0,L|269:136,1,59.9999981689454,4|0,0:0|0:0,0:0:0:0:
13,92,204145,6,0,L|159:83,1,119.999996337891,2|0,0:3|0:0,0:0:0:0:
207,113,204404,1,0,0:0:0:0:
435,287,204490,2,0,L|456:212,1,59.9999981689454,8|0,0:0|0:0,0:0:0:0:
307,345,204663,2,0,L|236:331,1,59.9999981689454,4|0,0:0|0:0,0:0:0:0:
89,288,204835,2,0,L|68:213,1,59.9999981689454,2|0,0:2|0:0,0:0:0:0:
179,198,205008,2,0,L|180:137,1,59.9999981689454
85,101,205180,2,0,L|107:35,1,59.9999981689454,8|0,0:0|0:0,0:0:0:0:
273,113,205352,2,0,L|342:109,1,59.9999981689454
118,318,205525,6,0,L|-15:295,1,119.999996337891,2|2,0:3|0:2,0:0:0:0:
76,232,205783,1,0,0:0:0:0:
269,232,205870,2,0,L|263:162,1,59.9999981689454,8|0,0:0|0:0,0:0:0:0:
187,149,206042,2,0,L|177:72,1,59.9999981689454
257,37,206214,2,0,L|181:21,1,59.9999981689454,0|0,0:0|0:0,0:0:0:0:
36,222,206387,2,0,L|108:202,1,59.9999981689454
264,320,206559,1,8,0:0:0:0:
307,278,206645,1,0,0:0:0:0:
294,218,206732,1,0,0:0:0:0:
237,198,206818,1,0,0:0:0:0:
405,135,206904,6,0,L|480:136,1,59.9999981689454,2|0,0:3|0:0,0:0:0:0:
389,60,207076,2,0,L|464:61,1,59.9999981689454,2|0,0:2|0:0,0:0:0:0:
240,307,207249,6,0,L|100:297,1,119.999996337891,2|0,0:3|0:0,0:0:0:0:
197,230,207508,2,0,L|201:98,1,119.999996337891
36,128,207766,2,0,L|30:45,1,59.9999981689454,4|0,0:0|0:0,0:0:0:0:
261,362,207939,2,0,L|266:281,1,59.9999981689454,8|0,0:0|0:0,0:0:0:0:
183,244,208111,1,0,0:0:0:0:
364,175,208197,6,0,L|507:163,1,119.999996337891,2|0,0:3|0:0,0:0:0:0:
266,354,208456,2,0,L|260:282,1,59.9999981689454,4|0,0:0|0:0,0:0:0:0:
469,214,208628,6,0,L|506:217,1,29.9999990844727,2|0,0:0|0:0,0:0:0:0:
241,98,208801,2,0,L|206:103,1,29.9999990844727,2|0,0:0|0:0,0:0:0:0:
399,309,209059,2,0,L|458:319,1,59.9999981689454
293,210,209232,2,0,L|235:198,1,59.9999981689454
73,100,209404,2,0,L|132:90,1,59.9999981689454
211,102,209576,1,0,0:0:0:0:
393,253,209663,5,2,0:3:0:0:
469,267,209749,2,0,P|468:187|426:159,1,119.999996337891,0|0,0:3|0:0,0:0:0:0:
333,264,210008,2,0,L|186:248,1,119.999996337891,8|0,0:0|0:0,0:0:0:0:
416,195,210266,2,0,L|432:137,1,59.9999981689454
221,103,210439,2,0,L|207:31,1,59.9999981689454,4|0,0:0|0:0,0:0:0:0:
301,47,210611,1,0,0:0:0:0:
139,318,210697,2,0,L|63:298,1,59.9999981689454,8|0,0:0|0:0,0:0:0:0:
297,258,210870,2,0,L|372:241,1,59.9999981689454
125,191,211042,6,0,L|276:171,1,119.999996337891,2|0,0:3|0:0,0:0:0:0:
99,349,211387,2,0,L|86:281,1,59.9999981689454,8|0,0:0|0:0,0:0:0:0:
271,266,211559,2,0,L|331:255,1,59.9999981689454
127,208,211732,2,0,L|57:196,1,59.9999981689454,4|0,0:0|0:0,0:0:0:0:
63,111,211904,2,0,L|137:101,1,59.9999981689454,4|0,0:0|0:0,0:0:0:0:
292,345,212076,2,0,L|277:263,1,59.9999981689454,8|0,0:0|0:0,0:0:0:0:
190,253,212249,2,0,L|211:173,1,59.9999981689454
376,133,212421,5,2,3:0:0:0:
221,312,212594,2,0,L|354:314,1,119.999996337891,4|8,0:0|0:0,0:0:0:0:
136,178,212852,2,0,L|69:157,2,59.9999981689454,4|0|0,0:0|0:0|0:0,0:0:0:0:
346,73,213111,2,0,L|272:90,1,59.9999981689454
128,284,213283,2,0,L|52:303,1,59.9999981689454,4|0,0:0|0:0,0:0:0:0:
269,343,213456,2,0,L|282:264,1,59.9999981689454,8|0,0:0|0:0,0:0:0:0:
188,222,213628,2,0,L|176:144,1,59.9999981689454
365,155,213801,5,2,0:3:0:0:
227,328,213973,2,0,L|96:306,1,119.999996337891,4|8,0:0|0:0,0:0:0:0:
375,225,214232,2,0,L|364:158,1,59.9999981689454
289,123,214404,1,0,0:0:0:0:
57,289,214490,2,2,L|137:272,1,59.9999981689454,2|2,0:2|0:2,0:2:0:0:
292,128,214663,2,2,L|202:110,1,59.9999981689454,2|2,0:2|0:2,0:2:0:0:
146,193,214835,2,0,L|138:126,1,59.9999981689454,8|0,0:0|0:0,0:0:0:0:
322,274,215008,1,4,0:0:0:0:
178,353,215180,6,0,L|318:346,1,119.999996337891,2|0,0:3|0:0,0:0:0:0:
226,271,215439,1,0,0:0:0:0:
433,233,215525,2,0,L|451:161,1,59.9999981689454,8|0,0:0|0:0,0:0:0:0:
264,129,215697,2,0,L|249:49,1,59.9999981689454
347,27,215870,2,0,L|274:15,1,59.9999981689454
110,218,216042,2,0,L|197:201,1,59.9999981689454,4|0,0:0|0:0,0:0:0:0:
337,343,216214,2,0,L|351:263,1,59.9999981689454,8|0,1:1|0:0,0:0:0:0:
270,222,216387,2,0,L|257:152,1,59.9999981689454
350,108,216559,6,0,L|216:78,1,119.999996337891,2|0,0:3|0:0,0:0:0:0:
156,108,216818,1,0,0:0:0:0:
349,330,216904,2,0,L|371:259,1,59.9999981689454,8|0,0:0|0:0,0:0:0:0:
163,330,217076,2,0,L|141:259,1,59.9999981689454
320,192,217249,2,0,L|382:176,1,59.9999981689454
468,181,217421,2,0,L|486:113,1,59.9999981689454,4|0,0:0|0:0,0:0:0:0:
275,88,217594,2,0,L|213:72,1,59.9999981689454,8|0,0:0|0:0,0:0:0:0:
46,118,217766,2,0,L|28:50,1,59.9999981689454
246,334,217939,6,0,L|126:307,1,119.999996337891,4|0,0:3|0:0,0:0:0:0:
296,241,218197,2,0,L|305:164,1,59.9999981689454,0|8,0:0|0:0,0:0:0:0:
243,122,218370,1,8,0:0:0:0:
391,146,218456,2,0,L|402:73,1,59.9999981689454,2|8,0:0|0:0,0:0:0:0:
178,344,218628,6,0,L|189:265,1,59.9999981689454,2|0,0:0|0:0,0:0:0:0:
265,289,218801,2,0,L|276:229,1,59.9999981689454,8|0,0:0|0:0,0:0:0:0:
105,215,218973,2,0,L|116:145,1,59.9999981689454,8|8,0:0|0:0,0:0:0:0:
291,125,219145,2,0,L|223:109,1,59.9999981689454,2|0,0:0|0:0,0:0:0:0:
63,355,219318,6,0,L|51:275,1,59.9999981689454,2|2,2:0|0:0,0:0:0:0:
200,309,219490,2,0,L|188:229,1,59.9999981689454,8|2,2:0|0:0,0:0:0:0:
337,269,219663,2,8,L|325:189,1,59.9999981689454,8|8,2:0|0:0,0:0:0:0:
474,223,219835,2,0,L|462:143,1,59.9999981689454,2|8,2:0|0:0,0:0:0:0:
243,131,220008,6,2,L|322:120,1,59.9999981689454
452,69,220180,2,0,L|485:54,2,29.9999990844727,2|2|2,0:0|0:0|0:0,0:0:0:0:
206,243,220352,1,2,0:0:0:0:
118,167,220439,2,2,L|113:132,2,29.9999990844727
219,69,220611,1,10,0:0:0:0:
488,176,220697,5,12,0:0:0:0:
322,260,221128,1,8,0:0:0:0:
484,318,221473,1,8,0:0:0:0:
114,340,221645,6,0,B|89:312|36:303|36:303|44:292|51:273|49:248|39:226|18:215|18:215|43:214|75:197|82:168|82:168|90:188|113:197|142:195|159:183|172:160|168:127|155:109|123:97|105:113|98:124|98:124|89:133|74:137|55:137|34:117|33:99|33:99|45:100|61:87|70:67|53:31|25:54,1,637.5,8|0,0:0|0:0,0:0:0:0:
324,252,226214,5,12,0:0:0:0:
493,131,226645,1,8,0:0:0:0:
315,34,226990,1,8,0:0:0:0:
470,23,227163,6,0,B|431:19|404:57|416:94|446:107|446:107|474:121|477:155|470:173|455:184|455:184|421:156|397:154|374:175|394:206|394:206|408:230|389:260|367:253|367:253|378:306|378:306|426:262|479:286|492:326|472:378|424:367,1,637.5,8|0,0:0|0:0,0:0:0:0:
167,309,231732,5,12,0:0:0:0:
306,234,232163,1,8,0:0:0:0:
419,295,232508,1,8,0:0:0:0:
186,301,232680,6,0,B|101:282|101:282|110:251|102:222|70:205|70:205|133:172|140:184|141:198|142:219|142:219|212:206|212:206|220:146|220:146|165:110|165:110|130:150|130:150|144:114|131:72|98:59|67:69|67:69,1,650,8|0,0:0|0:0,0:0:0:0:
74,67,237249,6,0,B|168:53|168:53|203:64|203:64|230:57|230:57|251:65|276:67|305:46|305:46|364:65|364:65|347:86|344:106|353:127|373:141|373:141|364:172|383:193|383:193|359:244|359:244|376:260|376:260|356:280|356:280|376:296|376:296|356:316|356:316|374:330|374:330|363:346|363:346|356:348|356:348|364:352|364:352|356:356|356:356|364:360|364:360|356:364|356:364|368:368|368:368|352:368|352:368|368:376|368:376|352:376|352:376|365:339,1,787.5,12|0,0:0|0:0,0:0:0:0:
175,297,242766,6,0,B|87:275|87:275|184:297,1,179.999994506836,2|0,1:1|0:0,0:0:0:0:
353,223,243283,2,0,L|366:116,1,89.9999972534181,2|0,0:0|0:0,0:0:0:0:
227,87,243628,1,8,0:0:0:0:
363,359,243801,2,0,L|370:306,1,44.999998626709,4|0,0:0|0:0,0:0:0:0:
298,260,243973,1,0,0:0:0:0:
125,245,244145,6,0,P|85:171|182:132,1,200,2|0,0:0|0:0,0:0:0:0:
296,315,244663,2,0,L|101:323,1,179.999994506836,8|2,0:0|0:0,0:0:0:0:
222,228,245180,2,2,L|236:159,1,44.999998626709
61,127,245352,2,2,L|48:62,1,44.999998626709
232,98,245525,6,0,P|320:87|411:103,1,179.999994506836,4|0,0:0|0:0,0:0:0:0:
304,181,246042,2,0,L|295:246,1,44.999998626709,8|0,0:0|0:0,0:0:0:0:
355,288,246214,1,8,0:0:0:0:
489,233,246387,1,8,0:0:0:0:
317,370,246559,2,0,L|203:351,1,89.9999972534181,4|0,0:0|0:0,0:0:0:0:
472,228,246904,6,0,P|485:161|390:115,1,179.999994506836,4|0,0:0|0:0,0:0:0:0:
263,218,247421,2,0,L|257:149,1,44.999998626709,0|8,0:0|0:0,0:0:0:0:
408,88,247766,1,4,0:0:0:0:
231,316,247939,2,2,L|155:308,1,44.999998626709,2|2,0:0|0:0,0:0:0:0:
347,235,248111,2,2,L|413:227,1,44.999998626709
224,207,248283,6,0,P|182:158|278:98,1,179.999994506836,4|0,0:0|0:0,0:0:0:0:
370,273,248801,2,0,L|313:263,1,44.999998626709
171,303,248973,2,0,L|156:197,1,89.9999972534181,0|8,0:0|0:0,0:0:0:0:
307,178,249318,2,0,L|317:85,1,89.9999972534181,4|0,0:0|0:0,0:0:0:0:
55,203,249663,6,0,P|30:142|129:95,1,179.999994506836,4|0,0:0|0:0,0:0:0:0:
251,250,250180,2,0,L|58:262,1,179.999994506836,8|2,0:0|0:0,0:0:0:0:
158,170,250697,2,2,L|222:153,1,44.999998626709
126,92,250870,2,2,L|193:73,1,44.999998626709
16,341,251042,6,0,P|83:354|215:361,1,179.999994506836,4|0,0:0|0:0,0:0:0:0:
354,295,251559,2,0,L|359:238,1,44.999998626709,4|0,0:0|0:0,0:0:0:0:
288,186,251732,1,0,0:0:0:0:
158,110,251904,1,8,0:0:0:0:
435,188,252076,2,0,L|449:65,1,89.9999972534181,4|0,0:0|0:0,0:0:0:0:
171,336,252421,6,0,L|381:323,1,179.999994506836,4|0,0:0|0:0,0:0:0:0:
61,212,252939,2,0,P|43:143|149:93,1,179.999994506836,0|12,2:0|0:0,0:0:0:0:
259,189,253456,1,8,0:0:0:0:
68,51,253542,2,0,L|75:140,1,89.9999972534181,2|0,0:0|0:0,0:0:0:0:
367,302,253801,6,0,L|506:293,1,100,4|0,0:0|0:0,0:0:0:0:
276,196,254059,2,0,L|270:127,1,50,0|2,0:0|0:0,0:0:0:0:
396,66,254318,1,8,0:0:0:0:
288,367,254490,2,0,L|417:353,1,100,4|2,0:0|0:0,0:0:0:0:
106,308,254835,2,0,P|66:252|155:234,1,150,10|0,0:0|0:0,0:0:0:0:
307,164,255180,1,4,0:0:0:0:
178,120,255352,6,0,L|112:108,2,50,0|0|10,0:0|0:0|0:0,0:0:0:0:
300,204,255697,1,4,0:0:0:0:
18,338,255870,2,0,L|164:327,1,100,8|6,0:0|0:0,0:0:0:0:
276,299,256214,2,2,L|283:234,1,50
116,167,256387,2,2,L|105:96,1,50
292,162,256559,5,4,0:0:0:0:
185,306,256732,2,0,L|118:303,2,50,0|0|10,0:0|0:0|0:0,0:0:0:0:
326,259,257076,1,4,0:0:0:0:
55,201,257249,2,0,L|169:174,1,100,0|8,0:0|0:0,0:0:0:0:
321,253,257594,2,2,L|337:195,1,50
151,323,257766,2,2,L|135:265,1,50
210,225,257939,5,4,0:0:0:0:
73,315,258111,2,0,L|90:235,1,50
167,211,258283,1,10,2:0:0:0:
15,185,258456,1,4,0:0:0:0:
271,323,258628,2,0,L|348:313,1,50,2|0,0:0|0:0,0:0:0:0:
487,199,258801,1,12,0:0:0:0:
341,177,258973,2,2,L|333:93,1,50
485,84,259145,2,2,L|493:22,1,50
271,357,259318,6,0,L|261:271,1,55.0000016784668,10|0,0:0|0:0,0:0:0:0:
357,277,259490,2,4,L|351:216,1,55.0000016784668,2|0,0:0|0:0,0:0:0:0:
195,160,259663,2,0,L|130:144,1,55.0000016784668,2|0,0:0|0:0,0:0:0:0:
328,67,259835,2,0,L|389:45,1,55.0000016784668,2|0,0:0|0:0,0:0:0:0:
115,317,260008,5,4,0:0:0:0:
181,342,260094,2,0,L|194:215,1,110.000003356934,6|0,0:0|0:0,0:0:0:0:
36,171,260352,2,0,L|30:98,1,55.0000016784668,10|0,0:0|0:0,0:0:0:0:
204,161,260525,2,0,L|210:107,1,55.0000016784668,10|0,0:0|0:0,0:0:0:0:
117,54,260697,6,0,L|179:46,1,59.9999981689454,4|0,2:2|0:0,0:0:0:0:
264,92,260870,2,0,L|326:86,1,59.9999981689454,4|0,2:2|0:0,0:0:0:0:
512,141,261042,2,0,L|443:148,1,59.9999981689454,2|0,0:0|0:0,0:0:0:0:
147,247,261214,1,4,0:0:0:0:
489,35,261387,6,0,L|427:27,1,59.9999981689454,2|0,0:0|0:0,0:0:0:0:
257,93,261560,2,0,L|195:87,1,59.9999981689454,2|0,0:0|0:0,0:0:0:0:
8,172,261732,2,2,L|77:179,1,59.9999981689454
344,308,261904,2,2,L|360:216,1,59.9999981689454,0|0,0:0|0:0,0:0:0:0:
178,208,262076,5,12,0:0:0:0:
259,199,262163,1,8,0:0:0:0:
337,187,262249,1,8,0:0:0:0:
256,164,262335,1,8,0:0:0:0:
168,100,262421,5,12,0:0:0:0:
257,119,262508,1,8,0:0:0:0:
342,142,262594,1,8,0:0:0:0:
253,99,262680,1,8,0:0:0:0:
181,311,262766,5,2,0:0:0:0:
259,295,262852,1,8,0:0:0:0:
336,280,262939,1,14,0:0:0:0:
253,274,263025,1,8,0:0:0:0:
167,222,263111,5,6,0:0:0:0:
251,185,263197,1,2,0:0:0:0:
331,157,263283,1,2,0:0:0:0:
242,165,263370,1,2,0:0:0:0:
67,346,263456,6,2,L|52:245,1,75.0000028610231
495,140,263628,6,2,L|506:62,1,75.0000028610231
313,241,263801,6,2,L|240:258,1,75.0000028610231
52,144,263973,6,2,L|41:49,1,75.0000028610231
365,296,264145,6,2,L|460:308,1,75.0000028610231
156,286,264318,6,2,L|46:312,1,75.0000028610231
477,225,264490,6,0,L|480:188,4,25,2|0|0|0|0,0:0|0:0|0:0|0:0|0:0,0:0:0:0:
198,205,264835,6,0,L|336:190,1,119.999996337891,12|0,0:0|0:0,0:0:0:0:
251,113,265094,1,0,0:0:0:0:
416,280,265180,2,0,L|421:214,1,59.9999981689454,8|0,0:0|0:0,0:0:0:0:
145,170,265352,2,0,P|131:84|231:64,1,179.999994506836,2|0,0:0|0:0,0:0:0:0:
374,158,265697,2,4,L|459:152,1,59.9999981689454
286,262,265870,2,0,L|214:264,1,59.9999981689454,10|0,0:0|0:0,0:0:0:0:
381,344,266042,2,4,L|440:354,1,59.9999981689454,0|0,0:0|0:0,0:0:0:0:
224,342,266214,6,0,L|105:359,1,119.999996337891,2|0,0:3|0:0,0:0:0:0:
158,272,266473,1,0,0:0:0:0:
347,215,266559,2,0,L|358:137,1,59.9999981689454,8|0,0:0|0:0,0:0:0:0:
268,139,266732,2,0,L|258:61,1,59.9999981689454,6|0,0:0|0:0,0:0:0:0:
452,26,266904,2,0,L|512:36,1,59.9999981689454,0|4,0:0|0:0,0:0:0:0:
315,78,267076,2,0,L|256:86,1,59.9999981689454,4|0,0:0|0:0,0:0:0:0:
151,314,267249,2,0,L|134:234,1,59.9999981689454,10|0,0:0|0:0,0:0:0:0:
231,236,267421,2,0,L|243:167,1,59.9999981689454
36,164,267594,6,0,L|168:156,1,119.999996337891,2|0,0:3|0:0,0:0:0:0:
224,108,267852,1,0,0:0:0:0:
66,335,267939,2,0,L|62:250,1,59.9999981689454,8|0,0:0|0:0,0:0:0:0:
280,253,268111,2,0,L|127:234,1,119.999996337891,2|0,0:0|0:0,0:0:0:0:
236,164,268370,1,0,0:0:0:0:
70,133,268456,2,0,L|52:53,1,59.9999981689454,4|0,0:0|0:0,0:0:0:0:
255,169,268628,2,0,L|333:162,1,59.9999981689454,10|0,0:0|0:0,0:0:0:0:
111,340,268801,2,4,L|34:331,1,59.9999981689454
255,259,268973,6,0,L|93:238,1,119.999996337891,2|0,0:3|0:0,0:0:0:0:
311,329,269318,2,0,P|363:283|383:205,1,119.999996337891,8|2,0:0|0:0,0:0:0:0:
309,179,269576,1,0,0:0:0:0:
156,178,269663,2,2,L|146:109,1,59.9999981689454,2|2,2:0|2:0,2:0:0:0:
337,98,269835,2,2,L|350:33,1,59.9999981689454,2|2,2:0|2:0,2:0:0:0:
114,304,270008,2,0,L|198:292,1,59.9999981689454,10|4,0:0|0:0,0:0:0:0:
407,314,270180,1,4,0:0:0:0:
273,194,270352,6,0,L|422:210,1,119.999996337891,2|0,0:3|0:0,0:0:0:0:
331,129,270611,1,0,0:0:0:0:
100,344,270697,2,0,L|86:258,1,59.9999981689454,8|0,0:0|0:0,0:0:0:0:
300,80,270870,2,0,L|144:104,1,119.999996337891,2|0,0:0|0:0,0:0:0:0:
246,165,271128,1,0,0:0:0:0:
410,254,271214,2,0,L|406:322,1,59.9999981689454,4|0,0:0|0:0,0:0:0:0:
322,299,271387,2,0,L|319:365,1,59.9999981689454,10|0,0:0|0:0,0:0:0:0:
479,144,271559,2,0,L|484:60,1,59.9999981689454
229,78,271732,6,0,L|367:62,1,119.999996337891,2|0,0:3|0:0,0:0:0:0:
106,319,272076,2,0,P|77:262|116:205,1,119.999996337891,8|2,0:0|0:0,0:0:0:0:
268,207,272335,2,0,L|262:142,1,59.9999981689454
176,122,272508,2,0,L|168:45,1,59.9999981689454,0|4,0:0|0:0,0:0:0:0:
354,324,272680,2,0,L|439:318,1,59.9999981689454,0|10,0:0|0:0,0:0:0:0:
335,248,272852,1,0,0:0:0:0:
71,193,272939,2,0,L|5:181,1,59.9999981689454
163,352,273111,6,0,L|300:338,1,119.999996337891,2|0,0:3|0:0,0:0:0:0:
221,264,273370,1,0,0:0:0:0:
403,163,273456,2,0,L|425:108,1,59.9999981689454,8|0,0:0|0:0,0:0:0:0:
270,55,273628,2,0,L|122:31,1,119.999996337891,6|0,0:0|0:0,0:0:0:0:
222,115,273887,1,0,0:0:0:0:
371,167,273973,2,0,L|414:228,1,59.9999981689454,6|0,0:0|0:0,0:0:0:0:
206,272,274145,2,0,L|145:272,1,59.9999981689454,10|0,0:0|0:0,0:0:0:0:
252,346,274318,2,0,L|319:345,1,59.9999981689454
69,279,274490,6,0,P|40:213|144:177,1,179.999994506836,2|0,0:3|0:0,0:0:0:0:
282,191,274835,2,0,L|293:107,1,59.9999981689454,8|0,0:0|0:0,0:0:0:0:
109,109,275008,2,0,L|96:25,1,59.9999981689454,2|0,0:0|0:0,0:0:0:0:
360,359,275180,5,0,0:0:0:0:
389,354,275223,1,0,0:0:0:0:
414,337,275266,1,0,0:0:0:0:
429,311,275309,1,0,0:0:0:0:
433,281,275352,1,0,0:0:0:0:
426,251,275395,1,0,0:0:0:0:
410,224,275439,1,0,0:0:0:0:
387,203,275482,1,0,0:0:0:0:
411,197,275525,5,0,0:0:0:0:
436,180,275568,1,0,0:0:0:0:
451,154,275611,1,0,0:0:0:0:
455,124,275654,1,0,0:0:0:0:
448,94,275697,1,0,0:0:0:0:
432,67,275740,1,0,0:0:0:0:
409,47,275783,1,0,0:0:0:0:
379,41,275826,1,0,0:0:0:0:
146,180,275870,6,0,L|294:172,1,119.999996337891,4|0,0:3|0:0,0:0:0:0:
195,91,276128,1,0,0:0:0:0:
378,183,276214,2,0,L|386:111,1,59.9999981689454,8|0,0:0|0:0,0:0:0:0:
190,298,276387,2,0,L|54:285,1,119.999996337891,6|0,0:0|0:0,0:0:0:0:
41,206,276645,1,0,0:0:0:0:
211,138,276732,2,0,L|280:137,1,59.9999981689454,4|0,0:0|0:0,0:0:0:0:
357,53,276904,2,0,L|274:47,1,59.9999981689454,10|0,0:0|0:0,0:0:0:0:
91,230,277076,2,0,L|82:146,1,59.9999981689454
252,351,277249,6,0,L|378:342,1,119.999996337891,2|0,0:3|0:0,0:0:0:0:
448,282,277508,1,0,0:0:0:0:
272,228,277594,2,0,L|265:143,1,59.9999981689454,8|0,0:0|0:0,0:0:0:0:
416,117,277766,2,0,L|274:100,1,119.999996337891,6|0,0:0|0:0,0:0:0:0:
368,33,278025,1,0,0:0:0:0:
171,326,278111,2,0,L|182:252,1,59.9999981689454,4|0,0:0|0:0,0:0:0:0:
267,261,278283,2,0,L|346:252,1,59.9999981689454,10|0,0:0|0:0,0:0:0:0:
169,187,278456,2,0,L|156:113,1,59.9999981689454
244,92,278628,6,0,L|119:74,1,119.999996337891,2|0,0:3|0:0,0:0:0:0:
196,30,278887,1,0,0:0:0:0:
50,218,278973,2,0,L|40:148,1,59.9999981689454,8|0,0:0|0:0,0:0:0:0:
263,302,279145,2,0,P|306:287|384:239,1,119.999996337891,6|0,0:0|0:0,0:0:0:0:
301,196,279404,1,0,0:0:0:0:
132,195,279490,2,0,L|108:117,1,59.9999981689454,4|0,0:0|0:0,0:0:0:0:
217,154,279663,2,0,L|215:83,1,59.9999981689454,10|0,0:0|0:0,0:0:0:0:
416,117,279835,2,0,L|438:56,1,59.9999981689454,4|0,0:0|0:0,0:0:0:0:
218,308,280008,6,0,L|82:302,1,119.999996337891,2|0,0:3|0:0,0:0:0:0:
258,222,280352,2,0,L|265:150,1,59.9999981689454,8|0,0:0|0:0,0:0:0:0:
168,140,280525,2,0,L|160:65,1,59.9999981689454,2|0,0:0|0:0,0:0:0:0:
346,317,280697,2,2,L|428:315,1,59.9999981689454,2|2,0:2|0:2,0:2:0:0:
221,219,280870,2,2,L|148:216,1,59.9999981689454,2|2,0:2|0:2,0:2:0:0:
329,158,281042,2,0,L|334:92,1,59.9999981689454,10|0,0:0|0:0,0:0:0:0:
174,68,281214,1,4,0:0:0:0:
48,321,281387,6,0,L|175:307,1,119.999996337891,2|0,0:3|0:0,0:0:0:0:
99,233,281645,1,0,0:0:0:0:
254,187,281732,2,0,L|262:112,1,59.9999981689454,8|0,0:0|0:0,0:0:0:0:
64,153,281904,2,0,L|58:28,1,119.999996337891,6|0,0:0|0:0,0:0:0:0:
139,32,282163,1,0,0:0:0:0:
340,330,282249,2,0,L|350:259,1,59.9999981689454
250,215,282421,2,0,L|235:111,1,59.9999981689454,10|0,0:0|0:0,0:0:0:0:
402,64,282594,1,0,0:0:0:0:
244,321,282766,6,0,L|162:302,1,59.9999981689454,2|0,0:3|0:0,0:0:0:0:
81,302,282939,2,0,L|74:223,1,59.9999981689454
249,203,283111,2,0,L|323:187,1,59.9999981689454,8|0,0:0|0:0,0:0:0:0:
389,128,283283,1,2,0:0:0:0:
195,108,283370,2,0,L|63:79,1,119.999996337891,4|0,0:0|0:0,0:0:0:0:
305,125,283628,2,0,L|312:46,1,59.9999981689454,6|0,0:0|0:0,0:0:0:0:
221,187,283801,2,0,L|162:198,1,59.9999981689454,8|0,0:0|0:0,0:0:0:0:
13,328,283973,2,0,L|73:323,1,59.9999981689454,2|0,0:0|0:0,0:0:0:0:
340,281,284145,6,0,L|355:155,1,119.999996337891,2|4,0:3|0:0,0:0:0:0:
270,160,284404,1,0,0:0:0:0:
111,192,284490,2,0,L|102:117,1,59.9999981689454,8|0,0:0|0:0,0:0:0:0:
325,262,284663,2,0,P|377:223|359:109,1,179.999994506836,2|0,0:0|0:0,0:0:0:0:
120,186,285008,2,0,L|113:126,1,59.9999981689454,4|0,0:0|0:0,0:0:0:0:
193,35,285180,2,0,L|201:94,1,59.9999981689454,10|0,0:0|0:0,0:0:0:0:
10,268,285352,2,0,L|2:327,1,59.9999981689454
208,161,285525,6,0,L|337:141,1,119.999996337891,2|0,0:3|0:0,0:0:0:0:
253,264,285783,1,0,0:0:0:0:
96,274,285870,2,0,L|88:198,1,59.9999981689454
163,171,286042,1,0,0:0:0:0:
448,342,286128,5,0,0:0:0:0:
474,328,286171,1,0,0:0:0:0:
491,303,286214,1,0,0:0:0:0:
495,272,286258,1,0,0:0:0:0:
484,243,286301,1,0,0:0:0:0:
462,222,286344,1,0,0:0:0:0:
434,210,286387,1,0,0:0:0:0:
406,206,286430,1,0,0:0:0:0:
377,204,286473,1,0,0:0:0:0:
341,202,286516,1,0,0:0:0:0:
382,182,286559,5,0,0:0:0:0:
420,180,286602,1,0,0:0:0:0:
448,168,286645,1,0,0:0:0:0:
470,147,286688,1,0,0:0:0:0:
481,118,286731,1,0,0:0:0:0:
477,87,286775,1,0,0:0:0:0:
460,62,286818,1,0,0:0:0:0:
155,300,286904,6,0,L|289:294,1,119.999996337891,4|0,0:3|0:0,0:0:0:0:
213,211,287163,1,0,0:0:0:0:
373,214,287249,2,0,L|381:145,1,59.9999981689454,8|0,0:0|0:0,0:0:0:0:
289,127,287421,2,0,L|283:61,1,59.9999981689454,6|0,0:0|0:0,0:0:0:0:
465,323,287594,2,0,L|387:308,1,59.9999981689454,0|4,0:0|0:0,0:0:0:0:
233,288,287766,2,0,L|308:278,1,59.9999981689454,6|0,0:0|0:0,0:0:0:0:
464,216,287939,2,0,L|471:147,1,59.9999981689454,8|0,0:0|0:0,0:0:0:0:
382,85,288111,2,0,L|323:96,1,59.9999981689454
71,257,288283,6,0,P|102:215|191:210,1,119.999996337891,2|0,0:3|0:0,0:0:0:0:
314,222,288542,2,0,L|391:218,2,59.9999981689454,0|8|0,0:0|0:0|0:0,0:0:0:0:
404,356,288801,2,0,L|412:287,1,59.9999981689454,6|0,0:0|0:0,0:0:0:0:
223,214,288973,2,0,L|219:142,1,59.9999981689454
68,101,289145,2,0,L|-2:82,1,59.9999981689454,4|0,0:0|0:0,0:0:0:0:
94,321,289318,2,0,L|98:249,1,59.9999981689454,10|0,0:0|0:0,0:0:0:0:
13,195,289490,2,0,L|71:180,1,59.9999981689454
304,252,289663,6,0,L|168:224,1,119.999996337891,2|0,0:3|0:0,0:0:0:0:
255,170,289921,1,0,0:0:0:0:
430,205,290008,2,0,L|363:185,1,59.9999981689454,8|0,0:0|0:0,0:0:0:0:
293,249,290180,2,0,L|366:230,1,59.9999981689454,2|0,0:0|0:0,0:0:0:0:
465,122,290352,2,0,L|473:61,1,59.9999981689454
399,29,290525,1,4,0:0:0:0:
17,115,290697,1,10,0:0:0:0:
153,247,290870,2,0,L|238:253,1,59.9999981689454,4|0,0:0|0:0,0:0:0:0:
410,164,291042,6,0,L|276:151,1,119.999996337891,2|0,0:3|0:0,0:0:0:0:
355,76,291301,1,0,0:0:0:0:
203,344,291387,2,0,L|189:270,1,59.9999981689454,8|0,0:0|0:0,0:0:0:0:
270,260,291559,2,0,L|279:194,1,59.9999981689454,2|0,0:0|0:0,0:0:0:0:
177,154,291732,2,2,L|97:147,1,59.9999981689454,2|2,0:2|0:2,0:2:0:0:
367,68,291904,2,2,L|436:61,1,59.9999981689454,0|2,0:2|0:2,0:2:0:0:
183,328,292076,2,0,L|111:318,1,59.9999981689454,8|2,0:1|0:1,0:1:0:0:
50,267,292249,1,4,0:0:0:0:
340,189,292421,6,0,P|392:144|307:84,1,179.999994506836,2|0,0:3|0:0,0:0:0:0:
170,349,292766,2,0,L|177:266,1,59.9999981689454,8|0,0:0|0:0,0:0:0:0:
264,255,292939,2,0,L|259:172,1,59.9999981689454,6|0,0:0|0:0,0:0:0:0:
156,127,293111,2,0,L|232:113,1,59.9999981689454,4|0,0:0|0:0,0:0:0:0:
379,181,293283,2,0,L|446:168,1,59.9999981689454,6|0,0:0|0:0,0:0:0:0:
265,351,293456,2,0,L|256:286,1,59.9999981689454,8|0,0:0|0:0,0:0:0:0:
331,253,293628,2,0,L|340:172,1,59.9999981689454,6|0,0:0|0:0,0:0:0:0:
89,176,293801,6,0,L|233:163,1,119.999996337891,2|0,0:3|0:0,0:0:0:0:
141,99,294059,1,0,0:0:0:0:
338,297,294145,1,8,0:0:0:0:
381,255,294232,1,0,0:0:0:0:
377,195,294318,1,2,0:0:0:0:
330,157,294404,1,0,0:0:0:0:
164,223,294490,2,0,L|76:212,1,59.9999981689454
316,58,294663,2,0,L|395:40,1,59.9999981689454,6|0,0:0|0:0,0:0:0:0:
104,215,294835,1,8,0:0:0:0:
61,173,294922,1,0,0:0:0:0:
65,113,295008,1,2,0:0:0:0:
112,75,295094,1,0,0:0:0:0:
307,288,295180,6,2,L|221:277,1,59.9999981689454,2|2,2:2|2:2,2:2:0:0:
60,338,295352,2,2,L|135:327,1,59.9999981689454,2|2,2:2|2:2,2:2:0:0:
323,354,295525,6,0,L|485:343,1,119.999996337891,8|2,0:0|0:0,0:0:0:0:
371,267,295783,2,0,L|364:184,1,59.9999981689454,4|0,0:0|0:0,0:0:0:0:
450,129,295956,2,0,L|372:123,2,59.9999981689454,4|2|0,0:0|0:0|0:0,0:0:0:0:
247,287,296214,2,0,L|235:198,1,59.9999981689454,8|0,0:0|0:0,0:0:0:0:
326,205,296387,2,0,L|331:139,1,59.9999981689454,2|0,0:0|0:0,0:0:0:0:
139,129,296559,6,0,P|231:111|341:111,1,179.999994506836,2|0,0:2|0:0,0:0:0:0:
144,307,296904,2,0,L|137:236,1,59.9999981689454,8|0,0:0|0:0,0:0:0:0:
367,235,297076,6,0,P|400:174|286:122,1,179.999994506836
256,159,297421,1,4,0:0:0:0:
60,151,297508,1,8,0:0:0:0:
135,111,297594,1,4,0:0:0:0:
220,83,297680,2,0,L|81:69,1,119.999996337891,4|0,0:0|0:0,0:0:0:0:
356,352,297939,6,0,P|410:304|337:291,1,179.999994506836,2|0,0:3|0:0,0:0:0:0:
164,234,298283,2,0,L|147:154,1,59.9999981689454,8|0,0:0|0:0,0:0:0:0:
241,148,298456,2,0,L|252:83,1,59.9999981689454,2|0,0:0|0:0,0:0:0:0:
78,329,298628,2,0,L|-1:313,1,59.9999981689454,4|0,0:0|0:0,0:0:0:0:
239,256,298801,2,0,L|319:237,1,59.9999981689454,6|0,0:0|0:0,0:0:0:0:
216,181,298973,2,0,L|204:101,1,59.9999981689454,10|0,0:0|0:0,0:0:0:0:
420,97,299145,2,0,L|432:17,1,59.9999981689454
222,342,299318,6,0,L|377:353,1,119.999996337891,2|0,0:3|0:0,0:0:0:0:
178,266,299576,2,0,L|167:201,1,59.9999981689454,0|8,0:0|0:0,0:0:0:0:
240,159,299749,1,0,0:0:0:0:
436,148,299835,2,0,L|453:72,1,59.9999981689454,6|0,0:0|0:0,0:0:0:0:
257,274,300008,2,0,L|332:263,1,59.9999981689454,4|0,0:0|0:0,0:0:0:0:
411,184,300180,2,0,L|331:174,1,59.9999981689454,6|0,0:0|0:0,0:0:0:0:
134,172,300352,2,0,L|126:84,1,59.9999981689454,10|0,0:0|0:0,0:0:0:0:
214,112,300525,2,0,L|220:36,1,59.9999981689454,2|0,0:0|0:0,0:0:0:0:
31,294,300697,6,0,L|239:277,1,179.999994506836,2|0,0:3|0:0,0:0:0:0:
127,219,301042,2,0,L|123:148,1,59.9999981689454,8|0,0:0|0:0,0:0:0:0:
277,152,301214,2,0,L|282:81,1,59.9999981689454,2|0,0:0|0:0,0:0:0:0:
192,83,301387,2,0,L|191:12,1,59.9999981689454,4|0,0:0|0:0,0:0:0:0:
374,238,301559,2,0,L|299:231,1,59.9999981689454,6|0,0:0|0:0,0:0:0:0:
164,343,301732,2,0,L|87:335,1,59.9999981689454,10|0,0:0|0:0,0:0:0:0:
275,253,301904,2,0,L|282:175,1,59.9999981689454,4|0,0:0|0:0,0:0:0:0:
92,206,302076,6,0,P|71:135|168:90,1,179.999994506836,2|0,0:3|0:0,0:0:0:0:
236,310,302421,2,0,L|105:306,1,119.999996337891,8|2,0:0|0:0,0:0:0:0:
182,222,302680,1,0,0:0:0:0:
21,207,302766,2,2,L|19:143,1,59.9999981689454,2|2,0:2|0:2,0:2:0:0:
203,139,302939,2,2,L|207:74,1,59.9999981689454,0|2,0:2|0:2,0:2:0:0:
116,20,303111,2,0,L|189:13,1,59.9999981689454,8|4,0:0|0:0,0:0:0:0:
351,103,303283,1,6,0:0:0:0:
201,293,303456,6,0,L|76:281,1,119.999996337891,2|0,0:3|0:0,0:0:0:0:
5,275,303714,1,0,0:0:0:0:
153,108,303801,2,0,L|160:167,1,59.9999981689454,8|0,0:0|0:0,0:0:0:0:
80,23,303973,2,0,L|71:82,1,59.9999981689454,2|0,0:0|0:0,0:0:0:0:
166,56,304145,2,0,L|262:41,1,59.9999981689454,4|0,0:0|0:0,0:0:0:0:
65,355,304318,2,0,L|55:274,1,59.9999981689454,6|0,0:0|0:0,0:0:0:0:
281,306,304490,2,0,L|352:298,1,59.9999981689454,10|0,0:0|0:0,0:0:0:0:
430,225,304663,2,0,L|345:218,1,59.9999981689454
136,215,304835,6,0,P|94:171|81:103,1,119.999996337891,2|0,0:3|0:0,0:0:0:0:
151,86,305094,1,0,0:0:0:0:
329,261,305180,2,0,L|413:260,1,59.9999981689454,8|0,0:0|0:0,0:0:0:0:
291,182,305352,2,0,L|208:183,1,59.9999981689454,2|0,0:0|0:0,0:0:0:0:
342,120,305525,2,0,L|354:54,1,59.9999981689454,4|0,0:0|0:0,0:0:0:0:
122,341,305697,2,0,L|107:257,1,59.9999981689454,2|0,0:0|0:0,0:0:0:0:
300,356,305870,2,0,L|394:349,1,59.9999981689454,10|0,0:0|0:0,0:0:0:0:
168,128,306042,1,4,0:0:0:0:
104,108,306128,1,2,0:0:0:0:
268,56,306214,5,4,0:0:0:0:
440,232,306387,1,2,0:0:0:0:
243,290,306473,2,2,L|218:200,1,59.9999981689454
384,156,306645,1,2,0:0:0:0:
498,107,306818,5,2,0:0:0:0:
200,104,306990,1,2,0:0:0:0:
36,112,307076,2,0,L|41:28,1,59.9999981689454,4|2,0:0|0:0,0:0:0:0:
184,236,307249,2,0,L|265:234,1,59.9999981689454,4|2,0:0|0:0,0:0:0:0:
76,345,307421,2,2,L|16:346,1,59.9999981689454
356,268,307594,6,0,L|397:264,1,29.9999990844727,0|0,1:0|0:0,0:0:0:0:
280,168,307766,2,0,L|244:162,1,29.9999990844727,0|0,1:0|0:0,0:0:0:0:
365,59,307939,1,0,1:0:0:0:
135,59,308025,2,0,L|103:50,1,29.9999990844727,0|0,1:0|0:0,0:0:0:0:
380,317,308197,6,0,P|472:257|338:118,1,350,2|0,0:0|0:0,0:0:0:0:
93,263,308973,6,0,L|210:252,1,100,4|0,1:3|0:0,0:0:0:0:
323,142,309318,2,0,L|404:137,2,55.0000016784668,8|0|0,0:0|0:0|0:0,0:0:0:0:
167,285,309663,1,0,0:0:0:0:
133,248,309749,1,0,0:0:0:0:
122,199,309835,1,4,0:0:0:0:
152,159,309921,1,4,0:0:0:0:
201,149,310008,1,8,0:0:0:0:
57,119,310180,2,4,L|44:47,1,55.0000016784668
238,265,310352,5,4,0:0:0:0:
301,299,310439,2,0,L|310:168,1,110.000003356934
140,146,310697,2,0,L|131:15,1,110.000003356934,8|4,0:0|0:0,0:0:0:0:
296,239,311042,1,0,0:0:0:0:
340,206,311128,1,0,0:0:0:0:
350,152,311214,1,4,0:0:0:0:
324,102,311301,1,4,0:0:0:0:
270,90,311387,1,8,0:0:0:0:
400,294,311559,2,0,L|462:289,1,55.0000016784668,4|0,0:0|0:0,0:0:0:0:
284,348,311732,6,0,L|163:343,1,110.000003356934,4|0,0:0|0:0,0:0:0:0:
33,257,312076,1,8,0:0:0:0:
33,257,312163,1,0,0:0:0:0:
33,257,312249,1,0,0:0:0:0:
189,227,312421,1,0,0:0:0:0:
232,192,312508,1,0,0:0:0:0:
239,137,312594,1,4,0:0:0:0:
213,88,312680,1,4,0:0:0:0:
159,78,312766,1,8,0:0:0:0:
315,283,312939,2,0,L|397:279,1,55.0000016784668,4|0,0:0|0:0,0:0:0:0:
154,332,313111,5,4,0:0:0:0:
85,357,313197,2,0,L|71:219,1,110.000003356934,4|0,0:0|0:0,0:0:0:0:
231,223,313456,2,0,L|240:88,1,110.000003356934,8|0,0:0|0:0,0:0:0:0:
164,68,313714,1,4,0:0:0:0:
322,150,313887,2,0,L|383:143,1,55.0000016784668,0|4,0:0|0:0,0:0:0:0:
222,270,314145,1,8,0:0:0:0:
391,354,314318,1,0,0:0:0:0:
92,188,314490,6,0,L|216:184,1,110.000003356934,4|0,1:0|0:0,0:0:0:0:
40,280,314835,2,0,L|24:212,2,55.0000016784668,8|0|0,0:0|0:0|0:0,0:0:0:0:
189,264,315180,1,0,0:0:0:0:
222,227,315266,1,0,0:0:0:0:
231,178,315352,1,4,0:0:0:0:
208,131,315439,1,0,0:0:0:0:
163,103,315525,1,8,0:0:0:0:
42,85,315697,1,0,0:0:0:0:
352,322,315870,6,0,L|414:325,2,55.0000016784668,4|0|0,0:0|0:0|0:0,0:0:0:0:
470,235,316214,2,0,L|486:118,1,110.000003356934,8|0,0:0|0:0,0:0:0:0:
312,216,316473,2,0,L|296:99,1,110.000003356934
369,63,316732,1,4,0:0:0:0:
205,322,316904,1,8,0:0:0:0:
284,346,316990,2,0,P|329:306|345:237,1,110.000003356934,0|0,0:0|0:0,0:0:0:0:
179,104,317249,5,4,0:0:0:0:
338,231,317421,1,0,0:0:0:0:
181,313,317594,2,0,L|101:311,2,55.0000016784668,8|0|0,0:0|0:0|0:0,0:0:0:0:
444,248,317939,1,0,0:0:0:0:
470,200,318025,1,0,0:0:0:0:
457,146,318111,1,4,0:0:0:0:
416,108,318197,1,4,0:0:0:0:
361,98,318283,1,8,0:0:0:0:
172,237,318456,2,0,L|165:162,1,55.0000016784668,4|0,0:0|0:0,0:0:0:0:
336,288,318628,5,4,0:0:0:0:
399,334,318714,2,0,L|418:195,1,110.000003356934
267,184,318973,2,0,P|246:131|274:81,1,110.000003356934,8|0,0:0|0:0,0:0:0:0:
341,68,319232,1,4,0:0:0:0:
160,162,319404,2,0,L|147:90,1,55.0000016784668,0|4,0:0|0:0,0:0:0:0:
324,264,319663,2,0,L|244:256,1,55.0000016784668,8|0,0:0|0:0,0:0:0:0:
112,332,319835,2,0,L|189:324,1,55.0000016784668,4|0,0:0|0:0,0:0:0:0:
414,342,320008,6,0,L|439:212,1,110.000003356934,4|0,0:0|0:0,0:0:0:0:
297,165,320352,2,0,L|284:103,1,55.0000016784668,8|0,0:0|0:0,0:0:0:0:
354,68,320525,1,0,0:0:0:0:
202,346,320697,1,0,0:0:0:0:
159,321,320783,1,0,0:0:0:0:
138,275,320870,1,4,0:0:0:0:
163,232,320956,1,4,0:0:0:0:
210,218,321042,1,8,0:0:0:0:
334,203,321214,2,0,L|418:185,1,55.0000016784668,4|0,0:0|0:0,0:0:0:0:
184,258,321387,5,4,0:0:0:0:
107,261,321473,2,0,L|78:122,1,110.000003356934
285,186,321732,2,0,L|299:53,1,110.000003356934,8|0,0:0|0:0,0:0:0:0:
218,38,321990,1,4,0:0:0:0:
66,136,322163,2,0,L|45:64,1,55.0000016784668,0|4,0:0|0:0,0:0:0:0:
204,274,322421,2,2,L|292:262,1,55.0000016784668,2|2,2:2|2:2,2:2:0:0:
445,130,322594,2,2,L|508:119,1,55.0000016784668,2|2,2:2|2:2,2:2:0:0:
336,358,322766,6,0,L|474:343,1,110.000003356934,4|0,0:0|0:0,0:0:0:0:
294,270,323111,2,0,L|239:238,2,55.0000016784668,8|0|0,0:0|0:0|0:0,0:0:0:0:
447,228,323456,1,0,0:0:0:0:
483,194,323542,1,0,0:0:0:0:
496,146,323628,1,4,0:0:0:0:
469,104,323714,1,4,0:0:0:0:
420,91,323801,1,8,0:0:0:0:
256,120,323973,1,4,0:0:0:0:
200,102,324059,1,0,0:0:0:0:
345,263,324145,5,4,0:0:0:0:
415,294,324232,2,0,P|465:256|493:180,1,110.000003356934
292,177,324490,2,0,P|242:139|214:63,1,110.000003356934,8|0,0:0|0:0,0:0:0:0:
290,68,324749,1,4,0:0:0:0:
435,128,324921,2,0,L|439:62,1,55.0000016784668,0|4,0:0|0:0,0:0:0:0:
224,291,325180,2,2,L|151:277,1,55.0000016784668,2|2,2:2|2:2,2:2:0:0:
331,61,325352,2,2,L|411:47,1,55.0000016784668,2|2,2:2|2:2,2:2:0:0:
115,340,325525,6,0,P|60:308|17:272,1,110.000003356934,2|0,0:3|0:0,0:0:0:0:
180,263,325870,2,0,L|196:183,1,55.0000016784668,8|0,0:0|0:0,0:0:0:0:
41,145,326042,2,0,L|27:70,1,55.0000016784668,4|0,0:0|0:0,0:0:0:0:
219,141,326214,2,0,L|280:128,1,55.0000016784668,4|4,0:0|0:0,0:0:0:0:
470,294,326387,2,0,P|425:251|358:243,1,110.000003356934,4|8,0:0|0:0,0:0:0:0:
189,248,326645,2,0,P|157:217|253:162,1,165.000005035401,4|0,0:0|0:0,0:0:0:0:
45,248,326990,6,0,L|27:136,1,110.000003356934,4|4,0:0|0:0,0:0:0:0:
226,202,327249,2,0,L|354:187,1,110.000003356934,8|0,0:0|0:0,0:0:0:0:
493,93,327508,2,0,P|453:54|386:38,1,110.000003356934,8|0,0:0|0:0,0:0:0:0:
236,317,327766,2,4,L|229:250,1,55.0000016784668
376,195,327939,2,0,L|389:163,1,27.5000008392334,8|0,0:0|0:0,0:0:0:0:
157,153,328025,2,0,P|86:140|38:156,1,110.000003356934,6|0,0:0|0:0,0:0:0:0:
242,337,328283,6,0,L|368:326,1,110.000003356934,4|0,0:0|0:0,0:0:0:0:
501,164,328628,1,0,0:0:0:0:
335,82,328714,2,0,L|254:76,1,55.0000016784668
97,218,328887,2,0,P|57:170|112:107,1,110.000003356934,4|0,0:0|0:0,0:0:0:0:
292,227,329145,2,0,L|363:232,1,55.0000016784668,8|0,0:0|0:0,0:0:0:0:
502,109,329318,2,0,L|512:36,1,55.0000016784668,4|0,0:0|0:0,0:0:0:0:
316,48,329490,2,0,L|237:56,1,55.0000016784668,4|0,0:0|0:0,0:0:0:0:
36,182,329663,5,4,0:0:0:0:
279,222,329835,1,0,0:0:0:0:
256,192,330008,12,0,330870,0:0:0:0:
208,296,331042,6,0,L|358:290,1,119.999996337891,0|0,0:0|0:0,0:0:0:0:
261,209,331301,1,0,0:0:0:0:
431,177,331387,2,0,L|483:149,2,59.9999981689454,8|0|0,0:0|0:0|0:0,0:0:0:0:
136,126,331645,2,0,L|262:117,1,119.999996337891,6|0,0:0|0:0,0:0:0:0:
178,256,331904,2,0,L|165:192,1,59.9999981689454,4|0,0:0|0:0,0:0:0:0:
245,163,332076,2,0,L|256:92,1,59.9999981689454,10|0,0:0|0:0,0:0:0:0:
77,330,332249,2,0,L|166:328,1,59.9999981689454
431,295,332421,6,0,L|489:179,1,119.999996337891,2|0,0:3|0:0,0:0:0:0:
143,337,332766,2,0,L|123:251,1,59.9999981689454,8|0,0:0|0:0,0:0:0:0:
194,213,332939,1,0,0:0:0:0:
357,174,333025,2,0,L|380:42,1,119.999996337891,6|0,0:0|0:0,0:0:0:0:
212,147,333283,2,0,L|142:134,1,59.9999981689454,4|0,0:0|0:0,0:0:0:0:
79,251,333456,2,0,L|144:242,1,59.9999981689454,10|0,0:0|0:0,0:0:0:0:
344,233,333628,2,0,L|364:136,1,59.9999981689454
186,338,333801,6,0,L|336:317,1,119.999996337891,2|0,0:3|0:0,0:0:0:0:
235,251,334059,1,0,0:0:0:0:
382,188,334145,2,0,L|395:110,1,59.9999981689454,8|0,0:0|0:0,0:0:0:0:
211,150,334318,1,0,0:0:0:0:
282,82,334404,2,0,L|140:67,1,119.999996337891,2|0,0:0|0:0,0:0:0:0:
361,289,334663,2,0,L|422:270,1,59.9999981689454,4|0,0:0|0:0,0:0:0:0:
257,176,334835,2,0,L|186:157,1,59.9999981689454,10|0,0:0|0:0,0:0:0:0:
41,212,335008,2,0,L|35:133,1,59.9999981689454
225,268,335180,6,0,L|78:292,1,119.999996337891,2|0,0:3|0:0,0:0:0:0:
163,200,335439,1,0,0:0:0:0:
341,177,335525,2,0,L|351:103,1,59.9999981689454,8|0,0:0|0:0,0:0:0:0:
260,100,335697,2,0,L|250:26,1,59.9999981689454,0|2,0:0|0:0,0:0:0:0:
451,38,335870,2,2,L|371:32,1,59.9999981689454,6|2,0:2|0:2,0:2:0:0:
187,197,336042,2,2,L|111:190,1,59.9999981689454,0|2,0:2|0:2,0:2:0:0:
281,282,336214,2,0,L|369:276,1,59.9999981689454,10|0,0:0|0:0,0:0:0:0:
434,192,336387,2,0,L|346:190,1,59.9999981689454,4|0,0:0|0:0,0:0:0:0:
50,202,336559,6,0,P|34:122|145:74,1,179.999994506836,2|0,0:3|0:0,0:0:0:0:
296,197,336904,2,0,L|145:179,1,119.999996337891,8|2,0:0|0:0,0:0:0:0:
245,117,337163,1,0,0:0:0:0:
83,337,337249,2,0,L|70:258,1,59.9999981689454,4|0,0:0|0:0,0:0:0:0:
251,226,337421,2,0,L|186:206,1,59.9999981689454,4|0,0:0|0:0,0:0:0:0:
97,141,337594,2,0,L|186:126,1,59.9999981689454,10|0,0:0|0:0,0:0:0:0:
326,149,337766,2,0,L|342:67,1,59.9999981689454
103,316,337939,6,0,P|52:270|38:193,1,119.999996337891,2|0,0:3|0:0,0:0:0:0:
386,253,338283,2,0,L|506:242,1,119.999996337891,8|2,0:0|0:0,0:0:0:0:
436,171,338542,1,2,0:0:0:0:
239,286,338628,2,0,L|243:188,1,59.9999981689454,4|0,0:0|0:0,0:0:0:0:
321,216,338801,2,0,L|326:137,1,59.9999981689454
149,137,338973,2,0,L|144:57,1,59.9999981689454,10|0,0:0|0:0,0:0:0:0:
240,26,339145,2,0,L|161:10,1,59.9999981689454
373,274,339318,6,0,L|226:302,1,119.999996337891,2|0,0:3|0:0,0:0:0:0:
309,207,339576,1,0,0:0:0:0:
147,200,339663,2,0,L|140:117,1,59.9999981689454,8|0,0:0|0:0,0:0:0:0:
335,118,339835,2,0,L|339:55,1,59.9999981689454,2|0,0:0|0:0,0:0:0:0:
171,307,340008,2,0,L|98:293,1,59.9999981689454,4|0,0:0|0:0,0:0:0:0:
201,236,340180,2,0,L|212:156,1,59.9999981689454
30,104,340352,2,0,L|100:84,1,59.9999981689454,10|0,0:0|0:0,0:0:0:0:
270,86,340525,2,0,L|281:6,1,59.9999981689454,4|0,0:0|0:0,0:0:0:0:
77,323,340697,6,0,L|52:202,1,119.999996337891,2|0,0:3|0:0,0:0:0:0:
402,243,341042,2,0,P|447:198|426:130,1,119.999996337891,8|2,0:0|0:0,0:0:0:0:
368,105,341301,1,0,0:0:0:0:
156,193,341387,6,0,L|224:195,1,59.9999981689454
444,328,341559,2,0,L|447:249,1,59.9999981689454
279,303,341732,2,0,L|220:302,1,59.9999981689454
39,243,341904,2,0,L|32:141,1,89.9999972534181
226,166,342076,6,0,P|274:168|365:137,1,119.999996337891,2|0,0:3|0:0,0:0:0:0:
271,88,342335,1,0,0:0:0:0:
455,240,342421,2,0,L|475:106,1,119.999996337891,8|2,0:0|0:0,0:0:0:0:
274,341,342680,2,0,L|265:267,1,59.9999981689454,4|0,0:0|0:0,0:0:0:0:
339,234,342852,1,0,0:0:0:0:
175,176,342939,2,0,L|166:102,1,59.9999981689454,4|0,0:0|0:0,0:0:0:0:
256,128,343111,2,0,L|260:52,1,59.9999981689454,10|0,0:0|0:0,0:0:0:0:
68,103,343283,2,0,L|55:21,1,59.9999981689454
365,259,343456,6,0,L|500:275,1,119.999996337891,2|0,0:3|0:0,0:0:0:0:
424,186,343714,1,0,0:0:0:0:
176,316,343801,2,0,L|152:164,1,119.999996337891,8|2,0:0|0:0,0:0:0:0:
310,190,344059,2,0,L|324:111,1,59.9999981689454
251,83,344232,1,0,0:0:0:0:
420,120,344318,2,0,L|491:112,1,59.9999981689454,4|0,0:0|0:0,0:0:0:0:
288,315,344490,2,0,L|208:311,1,59.9999981689454,10|0,0:0|0:0,0:0:0:0:
413,207,344663,2,0,L|499:202,1,59.9999981689454
216,240,344835,6,0,L|207:166,1,59.9999981689454,2|0,0:3|0:0,0:0:0:0:
296,121,345008,2,0,L|145:103,1,119.999996337891,4|8,0:0|0:0,0:0:0:0:
334,229,345266,2,0,L|404:217,2,59.9999981689454,0|2|0,0:0|0:0|0:0,0:0:0:0:
114,344,345525,2,0,L|117:263,1,59.9999981689454,4|0,0:0|0:0,0:0:0:0:
285,261,345697,2,0,L|291:182,1,59.9999981689454
215,156,345870,2,0,L|148:153,1,59.9999981689454,10|0,0:0|0:0,0:0:0:0:
360,58,346042,2,0,L|425:61,1,59.9999981689454
202,358,346214,6,0,L|366:342,1,119.999996337891,2|0,0:3|0:0,0:0:0:0:
140,268,346559,2,0,L|131:182,1,59.9999981689454,8|0,0:0|0:0,0:0:0:0:
221,179,346732,2,0,L|297:172,1,59.9999981689454,2|0,0:0|0:0,0:0:0:0:
44,251,346904,2,2,L|36:175,1,59.9999981689454,6|2,0:2|0:2,0:2:0:0:
206,98,347076,2,2,L|217:31,1,59.9999981689454,2|2,0:2|0:2,0:2:0:0:
140,202,347249,2,0,L|209:194,1,59.9999981689454,10|0,0:0|0:0,0:0:0:0:
379,117,347421,2,4,L|457:109,1,59.9999981689454
254,330,347594,6,0,L|121:307,1,119.999996337891,2|0,0:3|0:0,0:0:0:0:
207,233,347852,1,0,0:0:0:0:
48,183,347939,2,0,L|39:64,1,119.999996337891,8|2,0:0|0:0,0:0:0:0:
235,131,348197,2,0,L|329:125,2,59.9999981689454,4|0|0,0:0|0:0|0:0,0:0:0:0:
79,68,348456,2,0,L|156:66,1,59.9999981689454,4|0,0:0|0:0,0:0:0:0:
316,326,348628,2,0,L|329:258,1,59.9999981689454,10|0,0:0|0:0,0:0:0:0:
239,235,348801,2,0,L|222:157,1,59.9999981689454
396,78,348973,6,0,L|260:63,1,119.999996337891,2|0,0:3|0:0,0:0:0:0:
343,148,349232,1,0,0:0:0:0:
170,179,349318,2,0,L|159:244,1,59.9999981689454,8|0,0:0|0:0,0:0:0:0:
62,317,349490,2,0,L|71:256,1,59.9999981689454,6|0,0:0|0:0,0:0:0:0:
412,233,349663,1,0,0:0:0:0:
441,187,349749,1,0,0:0:0:0:
420,137,349835,1,4,1:0:0:0:
368,120,349921,1,0,0:0:0:0:
182,216,350008,2,0,L|111:208,1,59.9999981689454,10|0,0:0|0:0,0:0:0:0:
347,344,350180,2,0,L|418:336,1,59.9999981689454,4|0,0:0|0:0,0:0:0:0:
166,335,350352,6,0,P|135:262|246:217,1,179.999994506836,2|0,0:3|0:0,0:0:0:0:
380,268,350697,2,0,L|405:140,1,119.999996337891,8|2,0:0|0:0,0:0:0:0:
325,94,350956,1,0,0:0:0:0:
42,282,351042,2,0,L|27:177,1,59.9999981689454,4|0,0:0|0:0,0:0:0:0:
184,219,351214,2,0,L|282:203,1,59.9999981689454,4|0,0:0|0:0,0:0:0:0:
395,248,351387,2,0,L|407:170,1,59.9999981689454,10|0,0:0|0:0,0:0:0:0:
315,130,351559,2,0,L|303:52,1,59.9999981689454
494,78,351732,6,0,L|335:63,1,119.999996337891,2|0,0:3|0:0,0:0:0:0:
108,264,351990,2,0,L|227:275,1,119.999996337891,2|0,0:3|0:0,0:0:0:0:
392,320,352249,2,0,L|456:308,1,59.9999981689454,2|0,0:3|0:3,0:3:0:0:
286,197,352421,1,0,0:0:0:0:
115,198,352508,2,0,P|84:131|154:82,1,119.999996337891,2|0,0:3|0:0,0:0:0:0:
410,128,352766,2,0,P|470:92|390:32,1,179.999994506836,2|0,0:3|0:0,0:0:0:0:
203,233,353111,5,2,0:3:0:0:
126,282,353197,2,0,P|98:221|118:161,1,119.999996337891
273,132,353456,2,0,L|434:117,1,129.999994049073,10|0,0:0|0:0,0:0:0:0:
226,314,353714,2,0,L|152:306,1,59.9999981689454,4|0,0:0|0:0,0:0:0:0:
236,217,353887,1,0,0:0:0:0:
402,178,353973,2,0,L|409:105,1,59.9999981689454,4|0,0:0|0:0,0:0:0:0:
184,101,354145,2,0,L|275:93,1,59.9999981689454,10|0,0:0|0:0,0:0:0:0:
334,20,354318,2,0,L|253:16,1,59.9999981689454
65,335,354490,6,0,P|45:269|52:206,1,119.999996337891,2|0,0:3|0:0,0:0:0:0:
120,172,354749,1,0,0:0:0:0:
305,164,354835,2,0,L|223:153,1,59.9999981689454,10|0,0:0|0:0,0:0:0:0:
91,60,355008,2,0,L|27:50,1,59.9999981689454
126,267,355180,2,0,L|118:183,1,59.9999981689454
317,147,355352,2,4,L|322:76,1,59.9999981689454,6|4,0:0|0:0,0:0:0:0:
233,281,355525,2,0,L|299:268,1,59.9999981689454,8|0,0:0|0:0,0:0:0:0:
101,139,355697,2,0,L|36:128,1,59.9999981689454,2|0,0:0|0:0,0:0:0:0:
314,160,355870,6,0,L|179:141,1,119.999996337891,2|0,0:3|0:0,0:0:0:0:
269,75,356128,1,0,0:0:0:0:
59,344,356214,2,0,L|43:256,1,59.9999981689454,10|0,0:0|0:0,0:0:0:0:
211,257,356387,2,0,L|300:238,1,59.9999981689454
352,259,356559,2,0,L|362:172,1,59.9999981689454,4|0,0:0|0:0,0:0:0:0:
191,136,356732,2,0,L|185:65,1,59.9999981689454,6|0,0:0|0:0,0:0:0:0:
372,112,356904,2,0,L|454:106,1,59.9999981689454,8|0,0:0|0:0,0:0:0:0:
350,32,357076,2,0,L|265:22,1,59.9999981689454,2|0,0:0|0:0,0:0:0:0:
469,279,357249,6,0,L|480:146,1,119.999996337891,2|0,0:3|0:0,0:0:0:0:
401,116,357508,1,0,0:0:0:0:
223,238,357594,2,0,P|281:245|354:199,1,119.999996337891,10|0,0:0|0:0,0:0:0:0:
183,159,357852,2,0,L|174:80,1,59.9999981689454,4|2,0:0|0:2,0:0:0:0:
241,43,358025,1,2,0:2:0:0:
70,329,358111,2,0,L|-4:317,1,59.9999981689454,2|2,0:2|0:2,0:0:0:0:
101,251,358283,2,0,L|192:237,1,59.9999981689454,8|0,0:0|0:0,0:0:0:0:
338,190,358456,2,0,L|345:110,1,59.9999981689454
172,325,358628,5,2,0:3:0:0:
91,291,358714,2,0,P|56:232|49:177,1,119.999996337891
266,119,358973,2,0,L|131:102,1,119.999996337891,10|0,0:0|0:0,0:0:0:0:
319,228,359232,2,0,L|386:218,1,59.9999981689454,4|0,0:0|0:0,0:0:0:0:
460,153,359404,2,0,L|383:143,2,59.9999981689454,4|2|0,0:0|0:0|0:0,0:0:0:0:
224,343,359663,2,0,L|214:254,1,59.9999981689454,10|0,0:0|0:0,0:0:0:0:
408,100,359835,2,0,L|422:20,1,59.9999981689454,2|0,0:0|0:0,0:0:0:0:
216,128,360008,6,0,L|138:117,1,59.9999981689454,2|0,0:3|0:0,0:0:0:0:
354,204,360180,2,0,L|218:221,1,119.999996337891,0|8,0:0|0:0,0:0:0:0:
398,361,360439,2,0,L|408:288,1,59.9999981689454,0|2,0:0|0:0,0:0:0:0:
334,271,360611,1,0,0:0:0:0:
151,333,360697,2,0,L|141:246,1,59.9999981689454,4|0,0:0|0:0,0:0:0:0:
336,192,360870,2,0,L|416:180,1,59.9999981689454,2|0,0:0|0:0,0:0:0:0:
208,116,361042,2,0,L|136:96,1,59.9999981689454,8|0,0:0|0:0,0:0:0:0:
314,20,361214,2,0,L|320:80,1,59.9999981689454,2|0,0:0|0:0,0:0:0:0:
128,264,361387,6,2,L|68:273,1,59.9999981689454,0|0,3:2|3:2,3:2:0:0:
284,344,361559,2,2,L|343:332,1,59.9999981689454,2|2,3:2|3:2,3:2:0:0:
112,208,361732,6,0,P|44:159|80:120,1,119.999996337891,2|0,0:3|0:0,0:0:0:0:
212,96,361990,2,0,L|364:104,1,119.999996337891,4|0,0:3|0:0,0:0:0:0:
500,36,362249,2,0,L|401:22,1,59.9999981689454,6|0,0:0|0:0,0:0:0:0:
216,304,362421,2,0,L|225:222,1,59.9999981689454,8|0,0:0|0:0,0:0:0:0:
296,184,362594,1,0,0:0:0:0:
484,80,362680,6,0,L|326:69,1,119.999996337891,0|0,0:3|0:0,0:0:0:0:
281,210,362939,2,0,L|272:133,1,59.9999981689454,4|0,0:0|0:0,0:0:0:0:
469,276,363111,6,0,L|498:269,1,29.9999990844727,2|0,0:2|0:0,0:0:0:0:
187,347,363283,2,0,L|158:340,1,29.9999990844727,2|0,0:2|0:0,0:0:0:0:
385,303,363456,2,2,L|468:287,1,59.9999981689454
257,217,363628,2,2,L|330:202,1,59.9999981689454
150,120,363801,2,2,L|72:99,1,59.9999981689454
327,44,363973,2,2,L|394:31,1,59.9999981689454
109,255,364145,5,2,0:3:0:0:
32,216,364232,2,0,P|24:152|96:128,1,119.999996337891
351,239,364490,2,0,L|357:75,1,119.999996337891,8|2,0:0|0:0,0:0:0:0:
182,111,364749,2,0,L|105:109,2,59.9999981689454,4|0|0,0:0|0:0|0:0,0:0:0:0:
390,334,365008,2,0,L|475:327,1,59.9999981689454,6|0,0:0|0:0,0:0:0:0:
251,285,365180,2,0,L|233:186,1,59.9999981689454,8|0,0:0|0:0,0:0:0:0:
327,199,365352,2,0,L|338:119,1,59.9999981689454,2|0,0:0|0:0,0:0:0:0:
142,314,365525,6,0,L|19:290,1,119.999996337891,2|0,0:3|0:0,0:0:0:0:
103,232,365783,1,0,0:0:0:0:
295,247,365870,2,0,L|310:148,1,59.9999981689454,8|0,0:0|0:0,0:0:0:0:
223,150,366042,2,0,L|210:78,1,59.9999981689454,2|0,0:0|0:0,0:0:0:0:
499,119,366214,2,0,L|414:106,1,59.9999981689454,4|0,0:0|0:0,0:0:0:0:
248,334,366387,2,0,L|172:323,1,59.9999981689454,6|0,0:0|0:0,0:0:0:0:
102,358,366559,2,0,L|89:282,1,59.9999981689454,10|0,0:0|0:0,0:0:0:0:
337,146,366732,2,0,L|345:205,1,59.9999981689454
17,70,366904,6,0,L|156:83,1,119.999996337891,2|0,0:3|0:0,0:0:0:0:
206,43,367163,1,0,0:0:0:0:
44,292,367249,2,0,L|28:190,1,59.9999981689454,8|0,0:0|0:0,0:0:0:0:
191,193,367421,2,0,L|249:204,1,59.9999981689454,2|0,0:0|0:0,0:0:0:0:
439,257,367594,2,0,L|452:169,1,59.9999981689454,4|0,0:0|0:0,0:0:0:0:
248,337,367766,2,0,L|230:247,1,59.9999981689454,6|0,0:0|0:0,0:0:0:0:
309,196,367939,2,0,L|244:179,1,59.9999981689454,8|0,0:0|0:0,0:0:0:0:
58,336,368111,2,0,L|131:324,1,59.9999981689454,2|0,0:0|0:0,0:0:0:0:
361,343,368283,6,0,P|410:309|433:237,1,119.999996337891,2|0,0:3|0:0,0:0:0:0:
359,214,368542,1,0,0:0:0:0:
200,147,368628,2,0,L|108:140,1,59.9999981689454,8|0,0:0|0:0,0:0:0:0:
351,58,368801,2,0,L|423:49,1,59.9999981689454,2|0,0:0|0:0,0:0:0:0:
229,332,368973,2,2,L|157:327,1,59.9999981689454,2|2,0:2|0:2,0:2:0:0:
20,140,369145,2,2,L|92:135,1,59.9999981689454,2|2,0:2|0:2,0:2:0:0:
383,256,369318,2,0,L|391:181,1,59.9999981689454,8|0,0:0|0:0,0:0:0:0:
318,157,369490,1,6,0:0:0:0:
80,236,369663,6,0,P|48:152|132:104,1,179.999994506836,2|0,0:3|0:0,0:0:0:0:
307,147,370008,2,0,L|155:136,1,119.999996337891,8|6,0:0|0:0,0:0:0:0:
257,65,370266,1,0,0:0:0:0:
63,328,370352,2,0,L|56:213,1,59.9999981689454,4|0,0:0|0:0,0:0:0:0:
284,248,370525,2,0,L|355:243,1,59.9999981689454,6|0,0:0|0:0,0:0:0:0:
172,88,370697,2,0,L|111:87,1,59.9999981689454,8|0,0:0|0:0,0:0:0:0:
300,12,370870,2,0,L|359:22,1,59.9999981689454,6|0,0:0|0:0,0:0:0:0:
110,335,371042,6,0,L|260:301,1,119.999996337891,2|0,0:3|0:0,0:0:0:0:
146,253,371301,1,0,0:0:0:0:
331,257,371387,2,0,L|348:171,1,59.9999981689454,8|0,0:0|0:0,0:0:0:0:
262,155,371559,2,0,L|254:83,1,59.9999981689454,2|0,0:0|0:0,0:0:0:0:
462,83,371732,2,0,L|398:68,1,59.9999981689454,4|0,0:0|0:0,0:0:0:0:
173,317,371904,2,0,L|100:301,1,59.9999981689454,4|0,0:0|0:0,0:0:0:0:
305,293,372076,2,0,L|314:200,1,59.9999981689454,14|0,0:0|0:0,0:0:0:0:
235,185,372249,2,0,L|226:118,1,59.9999981689454,2|0,0:0|0:0,0:0:0:0:
433,208,372421,6,0,P|472:146|385:101,1,179.999994506836,2|0,0:3|0:0,0:0:0:0:
222,344,372766,2,0,L|212:272,1,59.9999981689454,0|4,0:0|0:0,0:0:0:0:
312,263,372939,2,8,L|321:198,1,59.9999981689454
126,167,373111,6,0,L|198:150,1,59.9999981689454,8|4,0:0|0:0,0:0:0:0:
270,143,373283,2,0,L|278:52,1,59.9999981689454,2|8,0:0|0:0,0:0:0:0:
40,328,373456,2,0,L|24:248,1,59.9999981689454,8|4,0:0|0:0,0:0:0:0:
205,226,373628,2,4,L|213:154,1,59.9999981689454
435,257,373801,6,0,L|353:248,1,59.9999981689454,8|4,0:0|0:0,0:0:0:0:
207,130,373973,2,0,L|284:116,1,59.9999981689454,8|4,0:0|0:0,0:0:0:0:
92,338,374145,2,0,L|10:329,1,59.9999981689454,8|4,0:0|0:0,0:0:0:0:
211,248,374318,2,4,L|152:257,1,59.9999981689454
329,221,374490,6,0,L|347:138,1,59.9999981689454,8|8,0:0|0:0,0:0:0:0:
266,119,374663,2,4,L|284:36,1,59.9999981689454
490,320,374835,6,0,L|354:327,1,119.999996337891,2|4,0:0|0:0,0:0:0:0:
426,246,375094,1,8,0:0:0:0:
212,319,375180,2,0,L|199:194,1,119.999996337891,4|4,0:0|0:0,0:0:0:0:
283,174,375439,1,8,0:0:0:0:
32,124,375525,6,0,L|104:116,1,59.9999981689454,8|4,0:0|0:0,0:0:0:0:
288,310,375697,2,0,L|297:237,1,59.9999981689454,2|0,0:0|0:0,0:0:0:0:
213,187,375870,2,0,L|289:176,1,59.9999981689454,8|8,0:0|0:0,0:0:0:0:
432,186,376042,2,4,L|441:109,1,59.9999981689454
221,113,376214,6,0,L|154:114,2,59.9999981689454,4|4|4,0:0|0:0|0:0,0:0:0:0:
436,347,376473,2,0,L|449:266,1,59.9999981689454,4|4,0:0|0:0,0:0:0:0:
235,210,376645,2,0,L|308:197,1,59.9999981689454,4|0,0:0|0:0,0:0:0:0:
458,204,376818,2,0,L|468:118,1,59.9999981689454,4|2,0:0|0:0,0:0:0:0:
241,61,376990,2,0,L|169:72,1,59.9999981689454,2|2,0:0|0:0,0:0:0:0:
393,192,377163,5,8,0:0:0:0:
468,194,377249,2,0,P|498:146|465:100,1,119.999996337891,2|2,0:0|0:0,0:0:0:0:
367,27,377508,2,0,L|427:26,1,59.9999981689454,2|0,0:0|0:0,0:0:0:0:
228,92,377680,2,0,L|225:43,2,29.9999990844727
488,268,377852,2,2,L|416:268,1,59.9999981689454,2|0,0:0|0:0,0:0:0:0:
249,273,378025,6,8,L|241:193,1,59.9999981689454
52,151,378197,2,0,L|153:138,1,59.9999981689454,4|2,0:0|0:0,0:0:0:0:
314,137,378370,2,0,L|327:43,1,59.9999981689454,4|10,0:0|0:0,0:0:0:0:
153,340,378542,2,0,L|165:260,1,59.9999981689454,2|2,0:0|0:0,0:0:0:0:
248,288,378714,2,4,L|318:277,1,59.9999981689454
96,160,378887,2,4,L|88:88,1,59.9999981689454
384,200,379059,6,0,L|465:200,2,59.9999981689454,2|2|4,0:0|0:0|0:0,0:0:0:0:
194,92,379318,2,0,L|113:92,2,59.9999981689454,2|2|4,0:0|0:0|0:0,0:0:0:0:
434,262,379576,2,0,L|533:261,1,59.9999981689454,8|8,0:0|0:0,0:0:0:0:
232,263,379749,6,0,L|222:166,1,59.9999981689454,8|2,0:0|0:0,0:0:0:0:
377,171,379921,2,0,L|382:91,1,59.9999981689454,8|2,0:0|0:0,0:0:0:0:
235,83,380094,2,4,L|307:68,1,59.9999981689454
104,147,380266,2,0,L|170:161,1,59.9999981689454,8|0,0:0|0:0,0:0:0:0:
340,264,380439,2,0,L|353:181,1,59.9999981689454,4|0,0:0|0:0,0:0:0:0:
276,142,380611,1,0,0:0:0:0:
475,74,380697,6,0,L|346:57,1,119.999996337891,12|8,0:0|0:0,0:0:0:0:
417,139,380956,1,8,0:0:0:0:
140,283,381042,2,8,L|61:280,1,59.9999981689454
320,259,381214,2,0,L|478:230,1,119.999996337891,8|4,0:0|0:0,0:0:0:0:
200,132,381473,2,0,L|104:132,2,59.9999981689454,2|8|8,0:0|0:0|0:0,0:0:0:0:
462,251,381732,6,0,P|477:189|441:106,1,119.999996337891,2|0,3:2|0:0,0:0:0:0:
