osu file format v14

[General]
AudioFilename: audio.mp3
AudioLeadIn: 0
PreviewTime: 87939
Countdown: 1
SampleSet: Normal
StackLeniency: 0.3
Mode: 0
LetterboxInBreaks: 0
WidescreenStoryboard: 0

[Editor]
Bookmarks: 8,42766,65525,77249
DistanceSpacing: 1
BeatDivisor: 4
GridSize: 4
TimelineZoom: 4.299998

[Metadata]
Title:Boogie
TitleUnicode:Boogie
Artist:Billain
ArtistUnicode:Billain
Creator:-Brites-
Version:Daybreak
Source:
Tags:
BeatmapID:1421051
BeatmapSetID:672230

[Difficulty]
HPDrainRate:6
CircleSize:3.8
OverallDifficulty:8.7
ApproachRate:9.6
SliderMultiplier:2.05
SliderTickRate:1

[Events]
//Background and Video events
0,0,"wallhaven-291787.jpg",0,0
//Break Periods
2,49949,87774
//Storyboard Layer 0 (Background)
//Storyboard Layer 1 (Fail)
//Storyboard Layer 2 (Pass)
//Storyboard Layer 3 (Foreground)
//Storyboard Sound Samples

[TimingPoints]
8,344.827586206897,4,1,0,100,1,0
108,-86.9565217391304,4,1,0,100,0,0
21732,-111.111111111111,4,1,0,100,0,0
22076,-100,4,1,0,100,0,0
27766,-71.4285714285714,4,1,0,100,0,0
28801,-100,4,1,0,100,0,0
32680,-66.6666666666667,4,1,0,100,0,0
33111,-100,4,1,0,100,0,0
33283,-66.6666666666667,4,1,0,100,0,0
34145,-100,4,1,0,100,0,0
34318,-66.6666666666667,4,1,0,100,0,0
34490,-100,4,1,0,100,0,0
38801,-66.6666666666667,4,1,0,100,0,0
40008,-100,4,1,0,100,0,0
42766,-66.6666666666667,4,1,0,100,0,0
43283,-200,4,1,0,100,0,0
44318,-66.6666666666667,4,1,0,100,0,0
45352,-100,4,1,0,100,0,0
88283,-66.6666666666667,4,1,0,100,0,0
88628,-83.3333333333333,4,1,0,100,0,0
88973,-58.8235294117647,4,1,0,100,0,0
89663,-100,4,1,0,100,0,0
89835,-50,4,1,0,100,0,0
90094,-66.6666666666667,4,1,0,100,0,0
90870,-50,4,1,0,100,0,0
91214,-66.6666666666667,4,1,0,100,0,0
91387,-71.4285714285714,4,1,0,100,0,0
91732,-58.8235294117647,4,1,0,100,0,0
92421,-100,4,1,0,100,0,0
92594,-50,4,1,0,100,0,0
92852,-66.6666666666667,4,1,0,100,0,0
93628,-50,4,1,0,100,0,0
93973,-66.6666666666667,4,1,0,100,0,0
94145,-71.4285714285714,4,1,0,100,0,0
94490,-58.8235294117647,4,1,0,100,0,0
95180,-100,4,1,0,100,0,0
95352,-50,4,1,0,100,0,0
95611,-66.6666666666667,4,1,0,100,0,0
96387,-50,4,1,0,100,0,0
96732,-66.6666666666667,4,1,0,100,0,0
96904,-71.4285714285714,4,1,0,100,0,0
97249,-58.8235294117647,4,1,0,100,0,0
97939,-100,4,1,0,100,0,0
98111,-50,4,1,0,100,0,0
98370,-66.6666666666667,4,1,0,100,0,0
99145,-50,4,1,0,100,0,0

[HitObjects]
44,124,20697,6,0,P|76:112|120:116,1,58.9375011241436
176,148,20870,6,0,P|208:160|252:156,1,58.9375011241436
296,112,21042,6,0,P|328:100|372:104,1,58.9375011241436
428,136,21215,6,0,P|460:148|504:144,1,58.9375011241436
232,160,21387,6,0,P|208:185|196:227,1,58.9375011241436
376,320,21559,2,0,L|364:252,1,58.9375011241436
199,207,21732,6,0,B|130:243|142:171|66:207,1,138.37499577713
199,300,22076,6,0,B|219:248|219:248|195:200,1,102.5
136,76,22421,1,0,0:0:0:0:
4,132,22594,1,0,0:0:0:0:
36,92,22680,1,0,0:0:0:0:
84,72,22766,1,0,0:0:0:0:
136,76,22852,1,0,0:0:0:0:
180,104,22939,1,0,0:0:0:0:
232,112,23025,1,0,0:0:0:0:
276,88,23111,1,0,0:0:0:0:
448,140,23283,5,0,0:0:0:0:
448,140,23370,1,0,0:0:0:0:
448,140,23456,2,0,L|456:200,1,51.25
404,320,23628,1,0,0:0:0:0:
360,348,23714,1,0,0:0:0:0:
308,352,23801,1,0,0:0:0:0:
225,138,23973,5,0,0:0:0:0:
286,138,24059,1,0,0:0:0:0:
317,191,24145,1,0,0:0:0:0:
286,245,24232,1,0,0:0:0:0:
225,245,24318,1,0,0:0:0:0:
194,192,24404,1,0,0:0:0:0:
220,144,24490,2,0,P|224:112|236:80,1,51.25
376,28,24663,5,0,0:0:0:0:
376,28,24749,1,0,0:0:0:0:
376,28,24835,2,0,P|343:31|308:36,1,51.25
408,196,25008,1,0,0:0:0:0:
408,196,25094,1,0,0:0:0:0:
408,196,25180,2,0,P|440:192|476:188,1,51.25
316,332,25352,5,0,0:0:0:0:
268,328,25439,1,0,0:0:0:0:
224,324,25525,1,0,0:0:0:0:
180,320,25611,1,0,0:0:0:0:
136,304,25697,1,0,0:0:0:0:
100,272,25783,1,0,0:0:0:0:
84,228,25870,2,0,B|80:200|80:200|60:168,1,51.25
8,48,26042,5,0,0:0:0:0:
48,68,26128,1,0,0:0:0:0:
92,68,26214,2,0,L|168:64,1,51.25
252,160,26387,1,0,0:0:0:0:
300,144,26473,1,0,0:0:0:0:
348,156,26559,2,0,L|424:152,1,51.25
340,284,26732,5,0,0:0:0:0:
316,328,26818,1,0,0:0:0:0:
288,368,26904,2,0,L|264:292,1,51.25
160,232,27076,1,0,0:0:0:0:
108,240,27163,1,0,0:0:0:0:
60,224,27249,2,0,L|52:168,1,51.25
140,60,27421,1,0,0:0:0:0:
184,32,27508,1,0,0:0:0:0:
236,32,27594,2,0,P|264:48|312:56,1,51.25
436,192,27766,6,0,B|404:190|404:190|387:193|387:193|311:189,1,71.7499978103638
216,224,27939,5,0,0:0:0:0:
272,276,28025,2,0,B|303:277|303:277|320:274|320:274|396:278,1,71.7499978103638
216,224,28197,5,0,0:0:0:0:
164,280,28283,2,0,B|132:281|132:281|115:278|115:278|39:282,1,71.7499978103638
28,168,28456,5,0,0:0:0:0:
56,96,28542,2,0,P|88:120|104:156,1,71.7499978103638
176,288,28801,5,0,0:0:0:0:
216,320,28887,1,0,0:0:0:0:
268,320,28973,2,0,P|297:313|332:312,1,51.25
456,268,29145,1,0,0:0:0:0:
480,220,29232,1,0,0:0:0:0:
476,168,29318,2,0,P|472:136|472:92,1,51.25
344,56,29490,5,0,0:0:0:0:
292,64,29576,1,0,0:0:0:0:
252,100,29663,1,0,0:0:0:0:
200,96,29749,1,0,0:0:0:0:
160,128,29835,1,0,0:0:0:0:
112,140,29921,1,0,0:0:0:0:
72,108,30008,2,0,L|-8:96,1,51.25
68,236,30180,5,0,0:0:0:0:
68,236,30266,1,0,0:0:0:0:
68,236,30352,2,0,B|96:232|96:232|144:240,1,51.25
232,324,30525,1,0,0:0:0:0:
280,344,30611,1,0,0:0:0:0:
332,344,30697,2,0,B|360:348|360:348|408:340,1,51.25
448,216,30870,5,0,0:0:0:0:
424,172,30956,1,0,0:0:0:0:
380,144,31042,1,0,0:0:0:0:
328,148,31128,1,0,0:0:0:0:
276,144,31214,1,0,0:0:0:0:
236,108,31301,1,0,0:0:0:0:
212,64,31387,2,0,P|240:48|272:40,1,51.25
188,168,31559,1,0,0:0:0:0:
140,180,31645,1,0,0:0:0:0:
88,168,31732,6,0,P|56:159|28:142,1,51.25
104,278,31904,1,0,0:0:0:0:
152,266,31990,1,0,0:0:0:0:
204,278,32077,2,0,P|236:287|264:304,1,51.25
188,166,32249,1,0,0:0:0:0:
160,122,32335,1,0,0:0:0:0:
162,70,32421,1,0,0:0:0:0:
197,32,32508,1,0,0:0:0:0:
247,23,32594,1,0,0:0:0:0:
316,54,32680,6,0,B|348:52|348:52|367:57|367:57|427:52,1,76.8750029325486
293,159,32852,2,0,B|268:137|268:137|259:120|259:120|213:81,1,76.8750029325486
376,140,33025,1,0,0:0:0:0:
388,148,33111,6,0,L|390:219,1,51.25
245,216,33283,6,0,P|270:173|330:152,1,76.8750029325486
259,295,33456,5,0,0:0:0:0:
184,268,33542,2,0,P|141:243|120:183,1,76.8750029325486
215,42,33714,5,0,0:0:0:0:
280,84,33801,2,0,B|293:123|293:123|291:161,1,76.8750029325486
126,220,33973,2,0,L|23:215,1,76.8750029325486
259,295,34145,6,0,P|284:290|311:324,1,51.25
324,329,34318,2,0,P|326:290|343:247,1,76.8750029325486
400,125,34490,2,0,L|480:116,1,51.25
326,45,34663,5,0,0:0:0:0:
275,51,34749,1,0,0:0:0:0:
224,59,34835,2,0,L|144:68,1,51.25
349,130,35008,2,0,L|429:121,1,51.25
338,254,35180,5,0,0:0:0:0:
288,264,35266,1,0,0:0:0:0:
237,274,35352,1,0,0:0:0:0:
186,285,35439,1,0,0:0:0:0:
136,297,35525,2,0,P|126:325|121:362,1,51.25
144,204,35697,1,0,0:0:0:0:
108,166,35783,1,0,0:0:0:0:
58,151,35870,6,0,P|30:141|-7:136,1,51.25
127,56,36042,1,0,0:0:0:0:
175,72,36128,1,0,0:0:0:0:
222,89,36214,2,0,L|292:111,1,51.25
371,209,36387,2,0,L|301:231,1,51.25
406,108,36559,5,0,0:0:0:0:
450,132,36645,1,0,0:0:0:0:
479,174,36731,1,0,0:0:0:0:
480,225,36818,1,0,0:0:0:0:
444,261,36904,2,0,L|372:288,1,51.25
260,325,37076,1,0,0:0:0:0:
211,344,37163,1,0,0:0:0:0:
160,339,37249,6,0,P|127:336|78:342,1,51.25
35,213,37421,1,0,0:0:0:0:
82,234,37508,1,0,0:0:0:0:
133,232,37594,2,0,P|165:234|215:229,1,51.25
108,336,37766,2,0,P|75:344|31:366,1,51.25
35,213,37939,5,0,0:0:0:0:
79,187,38025,1,0,0:0:0:0:
108,144,38111,1,0,0:0:0:0:
117,93,38197,1,0,0:0:0:0:
91,48,38283,2,0,P|76:75|57:99,1,51.25
201,136,38456,1,0,0:0:0:0:
235,98,38542,1,0,0:0:0:0:
283,81,38628,6,0,P|313:86|342:96,1,51.25
324,309,38801,6,0,B|320:282|320:282|308:260|308:260|302:225,1,76.8750029325486
438,264,38973,5,0,0:0:0:0:
393,326,39059,2,0,P|352:327|312:291,1,76.8750029325486
186,204,39232,5,0,0:0:0:0:
258,180,39318,2,0,P|291:202|302:255,1,76.8750029325486
186,204,39490,5,0,0:0:0:0:
110,186,39576,2,0,B|83:189|83:189|61:201|61:201|26:207,1,76.8750029325486
102,109,39749,5,0,0:0:0:0:
179,119,39835,2,0,B|183:93|183:93|195:72|195:72|199:45,1,76.8750029325486
186,204,40008,6,0,L|192:261,1,51.25
265,147,40180,1,0,0:0:0:0:
274,96,40266,1,0,0:0:0:0:
289,47,40352,2,0,L|295:104,1,51.25
196,305,40525,2,0,L|190:248,1,51.25
324,202,40697,5,0,0:0:0:0:
366,230,40783,1,0,0:0:0:0:
383,278,40870,1,0,0:0:0:0:
378,328,40956,1,0,0:0:0:0:
345,367,41042,2,0,L|284:362,1,51.25
190,254,41214,2,0,L|251:259,1,51.25
256,192,41387,12,0,42680,0:0:0:0:
357,68,42766,6,0,B|416:115|416:115|357:175,1,153.750005865097
148,103,43025,2,0,B|240:82|208:140|297:122,1,153.750005865097
181,238,43283,6,0,P|131:210|225:175,1,230.625
339,354,44145,5,0,0:0:0:0:
414,354,44318,6,0,B|382:356|382:356|369:351|369:351|338:353,1,76.8750029325486
175,355,44490,2,0,B|206:357|206:357|219:352|219:352|250:354,1,76.8750029325486
274,127,44835,2,0,B|284:187|284:187|278:218|278:218|295:311,1,153.750005865097
274,127,45094,2,0,L|258:50,1,76.8750029325486
289,278,45352,6,0,L|301:339,1,51.25
292,92,45525,6,0,L|280:36,1,51.25
388,212,45697,1,0,0:0:0:0:
336,208,45783,1,0,0:0:0:0:
284,204,45870,2,0,L|188:196,1,51.25
92,192,46042,5,0,0:0:0:0:
116,236,46128,1,0,0:0:0:0:
140,280,46214,1,0,0:0:0:0:
168,324,46301,1,0,0:0:0:0:
200,364,46387,2,0,L|240:312,1,51.25
232,199,46559,2,0,L|192:147,1,51.25
304,260,46732,1,0,0:0:0:0:
352,280,46818,1,0,0:0:0:0:
404,276,46904,6,0,P|430:266|465:238,1,51.25
346,152,47076,1,0,0:0:0:0:
298,132,47162,1,0,0:0:0:0:
246,136,47248,2,0,P|219:145|184:173,1,51.25
346,152,47421,5,0,0:0:0:0:
388,124,47508,1,0,0:0:0:0:
404,76,47594,1,0,0:0:0:0:
388,28,47680,1,0,0:0:0:0:
336,36,47766,1,0,0:0:0:0:
288,48,47852,1,0,0:0:0:0:
236,60,47939,2,0,P|207:61|175:81,1,51.25
68,148,48111,1,0,0:0:0:0:
68,148,48197,1,0,0:0:0:0:
68,148,48283,6,0,P|96:146|128:126,1,51.25
224,232,48456,1,0,0:0:0:0:
224,232,48542,1,0,0:0:0:0:
224,232,48628,2,0,P|222:204|202:172,1,51.25
176,324,48801,5,0,0:0:0:0:
224,307,48887,1,0,0:0:0:0:
274,311,48973,1,0,0:0:0:0:
321,333,49059,1,0,0:0:0:0:
371,333,49145,1,0,0:0:0:0:
419,314,49232,1,0,0:0:0:0:
452,276,49318,2,0,L|368:264,1,51.25
260,199,49490,1,0,0:0:0:0:
212,183,49576,1,0,0:0:0:0:
160,195,49663,6,0,L|109:202,1,51.25
376,152,88283,6,0,B|392:192|392:192|368:240,1,76.8750029325486
232,96,88456,2,0,B|272:80|272:80|320:104,1,76.8750029325486
268,292,88628,6,0,B|308:216|240:236|284:136,1,122.999996246338
302,95,88887,1,0,0:0:0:0:
320,80,88973,6,0,P|365:76|396:43,1,87.1250016617775
271,173,89145,2,0,P|225:176|194:209,1,87.1250016617775
376,309,89318,2,0,L|376:205,1,87.1250016617775
197,117,89490,2,0,L|197:221,1,87.1250016617775
224,44,89663,6,0,L|300:12,1,51.25
140,56,89835,6,0,P|84:16|94:107,1,205
197,204,90094,1,0,0:0:0:0:
216,216,90180,6,0,B|312:180|280:256|388:212,1,153.750005865097
408,140,90439,1,0,0:0:0:0:
392,128,90525,2,0,P|372:168|376:216,1,76.8750029325486
456,320,90697,2,0,P|413:307|366:319,1,76.8750029325486
149,348,90870,6,0,P|241:292|197:204,1,205
84,268,91214,6,0,L|7:279,1,76.8750029325486
215,215,91387,6,0,B|274:206|274:206|305:215|305:215|405:200,1,143.499995620728
132,192,91645,1,0,0:0:0:0:
108,176,91732,6,0,P|72:152|64:104,1,87.1250016617775
279,169,91904,2,0,P|255:205|207:213,1,87.1250016617775
212,44,92076,2,0,B|200:84|200:84|188:96|188:96|180:132,1,87.1250016617775
108,348,92249,2,0,B|120:308|120:308|132:296|132:296|140:260,1,87.1250016617775
212,44,92421,6,0,P|244:40|272:40,1,51.25
392,124,92594,6,0,B|368:56|324:28|224:44|272:124|328:92,1,205
448,64,92852,5,0,0:0:0:0:
448,64,92939,2,0,B|450:175|384:87|397:262,1,153.750005865097
440,344,93197,1,0,0:0:0:0:
432,324,93283,2,0,L|336:296,1,76.8750029325486
322,179,93456,2,0,L|418:209,1,76.8750029325486
274,250,93628,6,0,B|230:150|230:150|322:90,1,205
195,278,93973,6,0,L|164:208,1,76.8750029325486
268,32,94145,6,0,B|184:84|184:84|193:40,1,143.499995620728
40,152,94404,1,0,0:0:0:0:
20,144,94490,6,0,L|136:136,1,87.1250016617775
244,228,94663,2,0,P|188:224|148:188,1,87.1250016617775
312,172,94835,2,0,P|368:176|408:212,1,87.1250016617775
186,127,95008,2,0,L|194:31,1,87.1250016617775
392,192,95180,6,0,L|384:256,1,51.25
312,172,95352,6,0,P|440:132|472:212,1,205
385,242,95611,5,0,0:0:0:0:
361,258,95697,2,0,B|276:293|308:217|212:253,1,153.750005865097
48,300,95956,1,0,0:0:0:0:
68,316,96042,2,0,L|156:356,1,76.8750029325486
111,211,96214,2,0,P|100:167|66:133,1,76.8750029325486
178,79,96387,6,0,P|86:135|130:223,1,205
333,43,96732,6,0,L|348:120,1,76.8750029325486
197,221,96904,2,0,L|177:78,1,143.499995620728
276,168,97163,1,0,0:0:0:0:
284,188,97249,6,0,L|304:288,1,87.1250016617775
124,262,97421,2,0,P|160:230|248:234,1,87.1250016617775
347,118,97594,2,0,P|395:119|459:59,1,87.1250016617775
317,358,97766,2,0,L|300:272,1,87.1250016617775
256,88,97939,6,0,L|236:-8,1,51.25
53,85,98111,2,0,B|101:73|101:73|269:89,1,205
347,118,98370,5,0,0:0:0:0:
357,152,98456,2,0,P|269:141|258:78,1,153.750005865097
444,104,98714,1,0,0:0:0:0:
460,128,98801,2,0,L|472:216,1,76.8750029325486
264,256,98973,2,0,L|268:140,1,76.8750029325486
376,280,99145,6,0,B|256:248|296:352|164:292,1,205
