osu file format v14

[General]
AudioFilename: new audio.mp3
AudioLeadIn: 0
PreviewTime: 217906
Countdown: 0
SampleSet: Normal
StackLeniency: 0.2
Mode: 0
LetterboxInBreaks: 0
WidescreenStoryboard: 1

[Editor]
Bookmarks: 326871,329630,331009,342044,351699,353078,362733,372388
DistanceSpacing: 2.7
BeatDivisor: 4
GridSize: 4
TimelineZoom: 3.000013

[Metadata]
Title:Bil0cation
TitleUnicode:Bil0cation
Artist:Billain
ArtistUnicode:Billain
Creator:silento
Version:+hs
Source:
Tags:
BeatmapID:2098839
BeatmapSetID:1002757

[Difficulty]
HPDrainRate:5
CircleSize:4
OverallDifficulty:8
ApproachRate:9.7
SliderMultiplier:2.7
SliderTickRate:1

[Events]
//Background and Video events
0,0,"bg.png",0,0
//Break Periods
//Storyboard Layer 0 (Background)
//Storyboard Layer 1 (Fail)
//Storyboard Layer 2 (Pass)
//Storyboard Layer 3 (Foreground)
//Storyboard Sound Samples

[TimingPoints]
22044,344.827586206897,4,2,0,50,1,0
329630,-25,4,1,1,75,0,0
329975,-400,4,1,1,75,0,0
330319,-133.333333333333,4,1,1,75,0,0
330492,-66.6666666666667,4,1,1,75,0,0
330664,-1000,4,1,1,75,0,0
331009,-100,4,1,1,75,0,0
331612,-133.333333333333,4,1,1,75,0,0
331871,-200,4,1,1,75,0,0
332216,-33.3333333333333,4,1,1,75,0,0
332345,-33.3333333333333,4,1,1,5,0,0
332388,-100,4,1,1,75,0,0
332991,-133.333333333333,4,1,1,75,0,0
333250,-200,4,1,1,75,0,0
333595,-40,4,1,1,75,0,0
333660,-40,4,1,1,5,0,0
333768,-100,4,1,1,75,0,0
334371,-133.333333333333,4,1,1,75,0,0
334630,-200,4,1,1,75,0,0
334975,-33.3333333333333,4,1,1,75,0,0
335104,-33.3333333333333,4,1,1,5,0,0
335147,-100,4,1,1,75,0,0
335750,-133.333333333333,4,1,1,75,0,0
336009,-200,4,1,1,75,0,0
336354,-40,4,1,1,75,0,0
336419,-40,4,1,1,5,0,0
336526,-100,4,1,1,75,0,0
337129,-133.333333333333,4,1,1,75,0,0
337388,-200,4,1,1,75,0,0
337733,-33.3333333333333,4,1,1,75,0,0
337862,-33.3333333333333,4,1,1,5,0,0
337905,-100,4,1,1,75,0,0
338508,-133.333333333333,4,1,1,75,0,0
338767,-200,4,1,1,75,0,0
339112,-40,4,1,1,75,0,0
339177,-40,4,1,1,5,0,0
339285,-100,4,1,1,75,0,0
339888,-133.333333333333,4,1,1,75,0,0
340147,-200,4,1,1,75,0,0
340492,-33.3333333333333,4,1,1,75,0,0
340621,-33.3333333333333,4,1,1,5,0,0
340664,-100,4,1,1,75,0,0
341267,-133.333333333333,4,1,1,75,0,0
341526,-200,4,1,1,75,0,0
341871,-40,4,1,1,75,0,0
341936,-40,4,1,1,5,0,0
342044,-100,4,1,1,75,0,0
342647,-133.333333333333,4,1,1,75,0,0
342906,-200,4,1,1,75,0,0
343250,-33.3333333333333,4,1,1,75,0,0
343380,-33.3333333333333,4,1,1,5,0,0
343423,-100,4,1,1,75,0,0
344026,-133.333333333333,4,1,1,75,0,0
344285,-200,4,1,1,75,0,0
344630,-40,4,1,1,75,0,0
344695,-40,4,1,1,5,0,0
344802,-100,4,1,1,75,0,0
345405,-133.333333333333,4,1,1,75,0,0
345664,-200,4,1,1,75,0,0
346009,-33.3333333333333,4,1,1,75,0,0
346138,-33.3333333333333,4,1,1,5,0,0
346181,-100,4,1,1,75,0,0
346784,-133.333333333333,4,1,1,75,0,0
347043,-200,4,1,1,75,0,0
347388,-40,4,1,1,75,0,0
347453,-40,4,1,1,5,0,0
347561,-100,4,1,1,75,0,0
348164,-133.333333333333,4,1,1,75,0,0
348423,-200,4,1,1,75,0,0
348768,-33.3333333333333,4,1,1,75,0,0
348897,-33.3333333333333,4,1,1,5,0,0
348940,-100,4,1,1,75,0,0
349543,-133.333333333333,4,1,1,75,0,0
349802,-200,4,1,1,75,0,0
350147,-40,4,1,1,75,0,0
350212,-40,4,1,1,5,0,0
350319,-100,4,1,1,75,0,0
350922,-133.333333333333,4,1,1,75,0,0
351181,-200,4,1,1,75,0,0
351526,-33.3333333333333,4,1,1,75,0,0
351655,-33.3333333333333,4,1,1,5,0,0
351699,-66.6666666666667,4,2,1,75,0,0
352388,-66.6666666666667,4,2,1,75,0,0
352561,-55.5555555555556,4,2,1,75,0,0
352733,-47.6190476190476,4,2,1,75,0,0
352906,-41.6666666666667,4,2,1,75,0,0
353078,-80,4,1,1,75,0,0
353078,-66.6666666666667,4,1,1,75,0,0
353681,-100,4,1,1,75,0,0
353940,-133.333333333333,4,1,1,75,0,0
354285,-30.7692307692308,4,1,1,75,0,0
354414,-30.7692307692308,4,1,1,5,0,0
354457,-80,4,1,1,75,0,0
355060,-100,4,1,1,75,0,0
355319,-133.333333333333,4,1,1,75,0,0
355664,-36.3636363636364,4,1,1,75,0,0
355729,-36.3636363636364,4,1,1,5,0,0
355837,-80,4,1,1,75,0,0
356440,-100,4,1,1,75,0,0
356699,-133.333333333333,4,1,1,75,0,0
357044,-30.7692307692308,4,1,1,75,0,0
357173,-30.7692307692308,4,1,1,5,0,0
357216,-80,4,1,1,75,0,0
357819,-100,4,1,1,75,0,0
358078,-133.333333333333,4,1,1,75,0,0
358423,-36.3636363636364,4,1,1,75,0,0
358488,-36.3636363636364,4,1,1,5,0,0
358595,-80,4,1,1,75,0,0
359198,-100,4,1,1,75,0,0
359457,-133.333333333333,4,1,1,75,0,0
359802,-30.7692307692308,4,1,1,75,0,0
359931,-30.7692307692308,4,1,1,5,0,0
359974,-80,4,1,1,75,0,0
360577,-100,4,1,1,75,0,0
360836,-133.333333333333,4,1,1,75,0,0
361181,-36.3636363636364,4,1,1,75,0,0
361246,-36.3636363636364,4,1,1,5,0,0
361354,-80,4,1,1,75,0,0
361957,-100,4,1,1,75,0,0
362216,-133.333333333333,4,1,1,75,0,0
362561,-30.7692307692308,4,1,1,75,0,0
362690,-30.7692307692308,4,1,1,5,0,0
362733,-80,4,1,1,75,0,0
364112,-80,4,1,1,75,0,0
364715,-100,4,1,1,75,0,0
364974,-133.333333333333,4,1,1,75,0,0
365319,-30.7692307692308,4,1,1,75,0,0
365448,-30.7692307692308,4,1,1,5,0,0
365491,-80,4,1,1,75,0,0
366094,-100,4,1,1,75,0,0
366353,-133.333333333333,4,1,1,75,0,0
366698,-36.3636363636364,4,1,1,75,0,0
366763,-36.3636363636364,4,1,1,5,0,0
366871,-80,4,1,1,75,0,0
367474,-100,4,1,1,75,0,0
367733,-133.333333333333,4,1,1,75,0,0
368078,-30.7692307692308,4,1,1,75,0,0
368207,-30.7692307692308,4,1,1,5,0,0
368250,-80,4,1,1,75,0,0
368853,-100,4,1,1,75,0,0
369112,-133.333333333333,4,1,1,75,0,0
369457,-36.3636363636364,4,1,1,75,0,0
369522,-36.3636363636364,4,1,1,5,0,0
369630,-80,4,1,1,75,0,0
370233,-100,4,1,1,75,0,0
370492,-133.333333333333,4,1,1,75,0,0
370837,-30.7692307692308,4,1,1,75,0,0
370966,-30.7692307692308,4,1,1,5,0,0
371009,-80,4,1,1,75,0,0
371612,-100,4,1,1,75,0,0
371871,-133.333333333333,4,1,1,75,0,0
372216,-36.3636363636364,4,1,1,75,0,0
372281,-36.3636363636364,4,1,1,5,0,0

[Colours]
Combo1 : 255,170,255
Combo2 : 0,128,128
Combo3 : 255,128,64
Combo4 : 128,64,64

[HitObjects]
155,324,329630,6,0,B|183:213|87:164|16:127|-57:28|22:-49|89:-62|166:28|134:106|-4:254|22:345|83:368|83:368|74:356|63:320|76:292,1,810,2|0,0:0|0:0,0:0:0:0:
390,205,329975,6,0,L|476:205,1,50.6250019311906
464,295,330319,6,0,P|468:326|459:359,1,50.6250019311906,8|0,0:0|0:0,0:0:0:0:
293,233,330492,5,8,0:0:0:0:
289,220,330578,2,0,P|285:196|285:170,1,50.6250019311906
432,115,330664,6,0,L|455:114,1,20.25,2|0,0:0|0:0,0:0:0:0:
456,78,331009,5,2,0:0:0:0:
405,78,331095,1,0,0:0:0:0:
354,79,331181,1,0,0:0:0:0:
304,80,331267,1,0,0:0:0:0:
225,50,331354,5,8,0:0:0:0:
211,83,331440,2,0,L|200:-13,1,67.5
131,166,331612,5,8,0:0:0:0:
123,200,331698,2,0,L|115:121,1,50.6250019311906
152,315,331871,5,8,0:0:0:0:
152,297,331957,1,0,0:0:0:0:
41,357,332044,2,0,L|91:352,1,33.75,8|0,0:0|0:0,0:0:0:0:
273,334,332216,6,0,B|307:328|336:346|336:346|363:323|363:323|393:357|428:382|502:368|475:333|500:291|427:282|431:322,1,303.750011587143
412,308,332388,5,2,0:0:0:0:
412,257,332474,1,0,0:0:0:0:
413,206,332560,1,0,0:0:0:0:
414,156,332646,1,0,0:0:0:0:
376,84,332733,5,8,0:0:0:0:
401,53,332819,2,0,L|497:42,1,67.5
238,95,332992,5,8,0:0:0:0:
248,126,333078,2,0,L|316:134,1,50.6250019311906
149,61,333250,5,8,0:0:0:0:
156,39,333336,1,0,0:0:0:0:
40,93,333423,2,0,L|90:88,1,33.75,8|0,0:0|0:0,0:0:0:0:
174,289,333595,6,0,L|166:129,2,126.5625
87,269,333768,5,2,0:0:0:0:
87,218,333854,1,0,0:0:0:0:
86,167,333940,1,0,0:0:0:0:
85,117,334026,1,0,0:0:0:0:
149,61,334113,5,8,0:0:0:0:
162,75,334199,2,0,L|229:67,1,67.5
304,110,334371,5,8,0:0:0:0:
320,129,334457,2,0,L|392:123,1,50.6250019311906
430,193,334629,5,8,0:0:0:0:
446,212,334715,1,0,0:0:0:0:
487,97,334802,2,0,L|491:146,1,33.75,8|0,0:0|0:0,0:0:0:0:
485,306,334975,6,0,B|411:318|369:289|369:289|377:332|377:332|317:290|232:302,1,303.750011587143
141,336,335147,5,2,0:0:0:0:
141,285,335233,1,0,0:0:0:0:
140,234,335319,1,0,0:0:0:0:
139,184,335405,1,0,0:0:0:0:
136,84,335492,5,8,0:0:0:0:
97,46,335578,2,0,L|104:113,1,67.5
292,35,335751,5,8,0:0:0:0:
282,66,335837,2,0,L|214:74,1,50.6250019311906
397,99,336009,5,8,0:0:0:0:
417,98,336095,1,0,0:0:0:0:
350,203,336182,2,0,L|345:153,1,33.75,8|0,0:0|0:0,0:0:0:0:
346,302,336354,6,0,L|473:295,2,126.5625
22,320,336526,5,2,0:0:0:0:
73,320,336612,1,0,0:0:0:0:
124,319,336698,1,0,0:0:0:0:
174,318,336784,1,0,0:0:0:0:
244,245,336871,5,8,0:0:0:0:
251,266,336957,2,0,L|262:170,1,67.5
54,194,337129,5,8,0:0:0:0:
51,213,337215,2,0,L|41:135,1,50.6250019311906
160,51,337388,5,8,0:0:0:0:
162,29,337474,1,0,0:0:0:0:
153,131,337561,2,0,L|150:180,1,33.75,8|0,0:0|0:0,0:0:0:0:
512,95,337733,6,0,B|467:112|431:82|431:82|420:101|404:122|404:122|379:95|379:95|348:115|279:113|233:93,1,303.750011587143
49,61,337906,5,2,0:0:0:0:
49,112,337992,1,0,0:0:0:0:
50,163,338078,1,0,0:0:0:0:
51,213,338164,1,0,0:0:0:0:
108,281,338251,5,8,0:0:0:0:
82,314,338337,2,0,L|-14:325,1,67.5
195,322,338510,5,8,0:0:0:0:
205,353,338596,2,0,L|273:361,1,50.6250019311906
347,363,338768,5,8,0:0:0:0:
346,384,338854,1,0,0:0:0:0:
457,315,338941,2,0,L|407:320,1,33.75,8|0,0:0|0:0,0:0:0:0:
402,230,339113,6,0,L|395:103,2,126.5625
315,271,339285,5,2,0:0:0:0:
264,271,339371,1,0,0:0:0:0:
213,272,339457,1,0,0:0:0:0:
163,273,339543,1,0,0:0:0:0:
71,288,339630,5,8,0:0:0:0:
53,327,339716,2,0,L|42:231,1,67.5
122,171,339888,5,8,0:0:0:0:
113,194,339974,2,0,L|107:127,1,50.6250019311906
178,50,340147,5,8,0:0:0:0:
180,36,340233,1,0,0:0:0:0:
53,70,340320,2,0,L|103:65,1,33.75,8|0,0:0|0:0,0:0:0:0:
446,57,340492,6,0,B|371:67|290:47|290:47|276:63|266:89|268:116|268:116|299:132|368:130,1,303.750011587143
427,166,340664,5,2,0:0:0:0:
427,217,340750,1,0,0:0:0:0:
428,268,340836,1,0,0:0:0:0:
429,318,340922,1,0,0:0:0:0:
339,318,341009,5,8,0:0:0:0:
331,353,341095,2,0,L|235:364,1,67.5
15,314,341268,5,8,0:0:0:0:
15,281,341354,2,0,L|83:273,1,50.6250019311906
154,353,341526,5,8,0:0:0:0:
214,304,341612,1,8,0:0:0:0:
160,247,341699,1,8,0:0:0:0:
222,201,341785,1,8,0:0:0:0:
160,146,341871,6,0,L|33:139,2,126.5625
240,213,342044,5,2,0:0:0:0:
291,213,342130,1,0,0:0:0:0:
342,214,342216,1,0,0:0:0:0:
392,215,342302,1,0,0:0:0:0:
464,196,342389,5,8,0:0:0:0:
478,229,342475,2,0,L|489:133,1,67.5
389,113,342647,5,8,0:0:0:0:
395,132,342733,2,0,L|403:53,1,50.6250019311906
481,53,342906,5,8,0:0:0:0:
485,36,342992,1,0,0:0:0:0:
322,53,343079,2,0,L|271:49,1,33.75,8|0,0:0|0:0,0:0:0:0:
63,36,343250,6,0,B|69:70|51:99|51:99|74:126|74:126|40:156|15:191|29:265|64:238|106:263|115:190|75:194,1,303.750011587143
93,179,343423,5,2,0:0:0:0:
144,179,343509,1,0,0:0:0:0:
195,180,343595,1,0,0:0:0:0:
245,181,343681,1,0,0:0:0:0:
329,212,343768,5,8,0:0:0:0:
343,245,343854,2,0,L|354:149,1,67.5
441,131,344026,5,8,0:0:0:0:
426,120,344112,2,0,L|484:128,1,50.6250019311906
359,49,344285,5,8,0:0:0:0:
359,31,344371,1,0,0:0:0:0:
270,91,344458,2,0,L|234:86,1,33.75,8|0,0:0|0:0,0:0:0:0:
45,133,344630,6,0,L|36:-32,2,126.5625
22,320,344802,5,2,0:0:0:0:
73,320,344888,1,0,0:0:0:0:
124,319,344974,1,0,0:0:0:0:
174,318,345060,1,0,0:0:0:0:
244,245,345147,5,8,0:0:0:0:
251,266,345233,2,0,L|262:170,1,67.5
338,307,345405,5,8,0:0:0:0:
341,326,345491,2,0,L|351:248,1,50.6250019311906
449,251,345664,5,8,0:0:0:0:
451,229,345750,1,0,0:0:0:0:
442,331,345837,2,0,L|439:380,1,33.75,8|0,0:0|0:0,0:0:0:0:
512,105,346009,6,0,B|463:71|463:71|413:86|413:86|346:78|346:78|299:50|299:50|231:68,1,303.750011587143
95,36,346181,5,2,0:0:0:0:
95,87,346267,1,0,0:0:0:0:
96,138,346353,1,0,0:0:0:0:
97,188,346439,1,0,0:0:0:0:
106,295,346526,5,8,0:0:0:0:
67,333,346612,2,0,L|74:266,1,67.5
237,284,346785,5,8,0:0:0:0:
227,253,346871,2,0,L|159:245,1,50.6250019311906
402,338,347043,5,8,0:0:0:0:
422,339,347129,1,0,0:0:0:0:
304,377,347216,2,0,L|309:327,1,33.75,8|0,0:0|0:0,0:0:0:0:
350,148,347388,6,0,L|343:274,2,126.5625
384,68,347561,5,2,0:0:0:0:
333,68,347647,1,0,0:0:0:0:
282,69,347733,1,0,0:0:0:0:
232,70,347819,1,0,0:0:0:0:
153,40,347906,5,8,0:0:0:0:
139,73,347992,2,0,L|128:-23,1,67.5
73,136,348164,5,8,0:0:0:0:
65,170,348250,2,0,L|57:91,1,50.6250019311906
134,263,348423,5,8,0:0:0:0:
134,245,348509,1,0,0:0:0:0:
34,325,348596,2,0,L|84:320,1,33.75,8|0,0:0|0:0,0:0:0:0:
394,339,348768,6,0,B|360:345|331:327|331:327|304:350|304:350|274:316|239:291|165:305|192:340|167:382|240:391|236:351,1,303.750011587143
239,340,348940,5,2,0:0:0:0:
239,289,349026,1,0,0:0:0:0:
240,238,349112,1,0,0:0:0:0:
241,188,349198,1,0,0:0:0:0:
203,116,349285,5,8,0:0:0:0:
228,86,349371,2,0,L|324:78,1,67.5
501,97,349544,5,8,0:0:0:0:
492,121,349630,2,0,L|441:115,1,50.6250019311906
371,95,349802,5,8,0:0:0:0:
295,80,349888,1,8,0:0:0:0:
235,136,349975,1,8,0:0:0:0:
154,140,350061,1,8,0:0:0:0:
81,177,350147,6,0,L|73:17,2,126.5625
86,329,350319,5,2,0:0:0:0:
137,329,350405,1,0,0:0:0:0:
188,328,350491,1,0,0:0:0:0:
238,327,350577,1,0,0:0:0:0:
325,325,350664,5,8,0:0:0:0:
332,346,350750,2,0,L|343:250,1,67.5
246,234,350922,5,8,0:0:0:0:
249,253,351008,2,0,L|259:175,1,50.6250019311906
355,69,351181,5,8,0:0:0:0:
357,47,351267,1,0,0:0:0:0:
348,149,351354,2,0,L|345:198,1,33.75,8|0,0:0|0:0,0:0:0:0:
0,95,351526,6,0,B|45:112|81:82|81:82|92:101|108:122|108:122|133:95|133:95|164:115|233:113|279:93,1,303.750011587143
479,54,351699,5,2,2:1:0:0:
476,74,351785,1,0,2:1:0:0:
423,140,351871,1,0,2:1:0:0:
423,150,351957,1,0,2:1:0:0:
410,248,352044,1,0,2:1:0:0:
411,260,352130,1,8,2:1:0:0:
464,324,352216,1,8,2:1:0:0:
461,340,352302,1,0,2:1:0:0:
343,363,352388,5,8,2:1:0:0:
335,294,352475,2,0,L|331:386,1,50.6250019311906,8|0,2:1|0:0,0:0:0:0:
257,359,352561,5,8,2:1:0:0:
246,277,352647,2,0,L|243:337,1,60.7499981460572,8|0,2:1|0:0,0:0:0:0:
162,360,352733,5,8,2:1:0:0:
150,256,352819,2,0,L|147:339,1,70.8749978370667,8|0,2:1|0:0,0:0:0:0:
70,352,352906,5,8,2:1:0:0:
46,234,352992,2,0,L|43:323,1,80.9999975280763,8|0,2:1|0:0,0:0:0:0:
