osu file format v14

[General]
AudioFilename: audio.mp3
AudioLeadIn: 0
PreviewTime: 94998
Countdown: 0
SampleSet: Normal
StackLeniency: 0.7
Mode: 0
LetterboxInBreaks: 0
WidescreenStoryboard: 0

[Editor]
DistanceSpacing: 0.4
BeatDivisor: 4
GridSize: 16
TimelineZoom: 1.7

[Metadata]
Title:Feed For Speed
TitleUnicode:Feed For Speed
Artist:Billain & Kodin
ArtistUnicode:Billain & Kodin
Creator:theyaoster
Version:Velocity
Source:
Tags:electronic drum and bass dnb dark neurofunk edm velocity
BeatmapID:1091616
BeatmapSetID:513780

[Difficulty]
HPDrainRate:6
CircleSize:4
OverallDifficulty:8.3
ApproachRate:9.3
SliderMultiplier:2
SliderTickRate:1

[Events]
//Background and Video events
0,0,"deepsleep.jpg",0,0
//Break Periods
//Storyboard Layer 0 (Background)
//Storyboard Layer 1 (Fail)
//Storyboard Layer 2 (Pass)
//Storyboard Layer 3 (Foreground)
//Storyboard Sound Samples

[TimingPoints]
4303,348.837209302326,4,2,1,50,1,0
5698,-100,4,1,1,50,0,0
6047,-100,4,2,1,50,0,0
8489,-100,4,1,1,50,0,0
8837,-100,4,2,1,50,0,0
11018,-76.9230769230769,4,2,1,50,0,0
11279,-100,4,1,1,50,0,0
11628,-100,4,2,1,50,0,0
14070,-100,4,1,1,50,0,0
14332,-100,4,2,1,50,0,0
15814,-58.8235294117647,4,1,1,60,0,0
16512,-133.333333333333,4,1,1,50,0,0
16861,-100,4,1,1,50,0,0
17035,-100,4,2,1,50,0,0
19651,-100,4,1,1,50,0,0
19826,-100,4,2,1,50,0,0
22442,-100,4,1,1,50,0,0
22616,-100,4,2,1,50,0,0
25233,-100,4,1,1,50,0,0
25407,-100,4,2,1,50,0,0
26803,-66.6666666666667,4,1,1,60,0,0
27326,279.06976744186,4,1,1,60,1,0
27674,348.837209302326,4,1,1,40,1,0
28022,348.837209302326,4,1,1,40,1,0
28022,-100,4,2,1,40,0,0
39184,-125,4,1,1,65,0,0
39533,-125,4,2,1,45,0,0
48952,-66.6666666666667,4,2,1,50,0,0
50347,-80,4,2,1,40,0,0
58719,-80,4,2,1,45,0,0
60115,-80,4,2,1,50,0,0
61510,-76.9230769230769,4,3,1,50,0,0
67091,-76.9230769230769,4,1,1,60,0,0
71277,-133.333333333333,4,2,1,50,0,0
72324,-62.5,4,3,1,55,0,0
72673,-50,4,1,1,65,0,0
73022,-55.5555555555556,4,1,1,40,0,0
77992,-66.6666666666667,4,1,1,40,0,0
78254,-55.5555555555556,4,1,1,40,0,0
80522,-66.6666666666667,4,1,1,40,0,0
81045,-55.5555555555556,4,1,1,40,0,0
82789,-52.6315789473684,4,1,1,40,0,0
83138,-62.5,4,3,1,25,0,0
83661,-55.5555555555556,4,1,1,20,0,0
83835,-55.5555555555556,4,1,1,40,0,0
92382,-62.5,4,1,1,50,0,0
92905,-66.6666666666667,4,1,1,50,0,0
93254,-52.6315789473684,4,3,2,55,0,0
93952,-52.6315789473684,4,1,1,55,0,0
94213,-71.4285714285714,4,3,2,50,0,0
94998,-50,4,1,1,50,0,0
95347,-55.5555555555556,4,1,1,40,0,0
95870,-62.5,4,1,1,30,0,0
96394,-55.5555555555556,4,1,1,40,0,0
97266,-62.5,4,1,1,30,0,0
97789,-83.3333333333333,4,1,1,40,0,0
98138,-55.5555555555556,4,1,1,40,0,0
98661,-62.5,4,1,1,30,0,0
99184,-55.5555555555556,4,1,1,40,0,0
99882,-62.5,4,1,1,30,0,0
100580,-83.3333333333333,4,1,1,40,0,0
100928,-55.5555555555556,4,1,1,40,0,0
101452,-62.5,4,1,1,30,0,0
101975,-55.5555555555556,4,1,1,40,0,0
102847,-62.5,4,1,1,30,0,0
103370,-52.6315789473684,4,1,1,40,0,0
103719,-55.5555555555556,4,1,1,40,0,0
104242,-62.5,4,1,1,30,0,0
104766,-55.5555555555556,4,1,1,40,0,0
105115,-71.4285714285714,4,1,1,40,0,0
105638,279.06976744186,4,2,1,30,1,0
106161,348.837209302326,4,1,1,50,1,0
106161,-50,4,1,1,40,0,0
106509,-55.5555555555556,4,1,1,40,0,0
107033,-62.5,4,1,1,30,0,0
107556,-55.5555555555556,4,1,1,40,0,0
108166,-62.5,4,1,1,30,0,0
108951,-83.3333333333333,4,1,1,45,0,0
109300,-55.5555555555556,4,1,1,40,0,0
109823,-62.5,4,1,1,30,0,0
110347,-62.5,4,1,1,40,0,0
110695,-66.6666666666667,4,1,1,40,0,0
110957,-62.5,4,1,1,30,0,0
111741,-83.3333333333333,4,1,1,45,0,0
112090,-55.5555555555556,4,1,1,40,0,0
112614,-62.5,4,1,1,30,0,0
113137,-55.5555555555556,4,1,1,40,0,0
113747,-62.5,4,1,1,30,0,0
114532,-83.3333333333333,4,1,1,45,0,0
114881,-55.5555555555556,4,1,1,40,0,0
115143,-62.5,4,1,1,30,0,0
115841,-66.6666666666667,4,1,1,40,0,0
117323,-76.9230769230769,4,1,1,35,0,0
118369,-58.8235294117647,4,1,1,40,0,0
118718,-76.9230769230769,4,1,1,35,0,0
119765,-58.8235294117647,4,1,1,40,0,0
120114,-76.9230769230769,4,1,1,35,0,0
121160,-58.8235294117647,4,1,1,40,0,0
121509,-76.9230769230769,4,1,1,35,0,0
122555,-58.8235294117647,4,1,1,40,0,0
122904,-76.9230769230769,4,1,1,35,0,0
123951,-58.8235294117647,4,1,1,40,0,0
124300,-76.9230769230769,4,1,1,35,0,0
125346,-58.8235294117647,4,1,1,40,0,0
125695,-76.9230769230769,4,1,1,35,0,0
126741,-58.8235294117647,4,1,1,40,0,0
127090,-83.3333333333333,4,2,1,40,0,0
127439,279.06976744186,4,2,1,30,1,0
128136,348.837209302326,4,1,1,30,1,0
128310,-62.5,4,2,1,50,0,0
128485,348.837209302326,4,1,1,50,1,0
128485,-71.4285714285714,4,3,1,40,0,0
134066,-71.4285714285714,4,3,1,50,0,0
136857,-71.4285714285714,4,1,1,60,0,0
138950,-83.3333333333333,4,1,1,40,0,0
139473,-62.5,4,1,1,60,0,0
139647,-62.5,4,3,2,60,0,0
139996,-62.5,4,1,1,40,0,0
142089,-55.5555555555556,4,3,1,50,0,0
142438,-62.5,4,1,1,60,0,0
142787,-62.5,4,1,1,40,0,0
144880,-50,4,3,1,60,0,0
145229,-50,4,3,2,60,0,0
145578,-62.5,4,1,1,40,0,0
148019,-76.9230769230769,4,3,1,50,0,0
149764,-100,4,3,1,30,0,0
150461,-76.9230769230769,4,1,1,30,0,0
150810,-62.5,4,1,1,50,0,0
151333,-62.5,4,3,1,40,0,0
152380,-55.5555555555556,4,3,1,50,0,0
153252,-50,4,3,2,60,0,0
153601,-62.5,4,3,2,50,0,0
153950,-62.5,4,1,1,40,0,0
155083,-71.4285714285714,4,3,1,50,0,0
155519,-62.5,4,1,1,40,0,0
156043,-83.3333333333333,4,3,1,50,0,0
156391,-62.5,4,3,2,60,0,0
156740,-62.5,4,1,1,40,0,0
157961,-55.5555555555556,4,3,1,50,0,0
158833,-50,4,1,1,60,0,0
159182,-62.5,4,1,1,40,0,0
159357,-62.5,4,1,1,50,0,0
160229,-62.5,4,3,1,50,0,0
161101,-66.6666666666667,4,3,3,55,0,0
161886,-66.6666666666667,4,1,1,20,0,0
161973,-50,4,1,1,60,0,0
162496,-62.5,4,1,1,30,0,0
162845,-55.5555555555556,4,1,1,40,0,0
163543,-55.5555555555556,4,3,1,50,0,0
163891,-62.5,4,1,1,30,0,0
164240,-55.5555555555556,4,1,1,40,0,0
164764,-83.3333333333333,4,1,1,45,0,0
165287,-62.5,4,1,1,30,0,0
165636,-55.5555555555556,4,1,1,40,0,0
166682,-62.5,4,1,1,30,0,0
167031,-55.5555555555556,4,1,1,40,0,0
167554,-83.3333333333333,4,1,1,45,0,0
168078,-62.5,4,1,1,30,0,0
168426,-55.5555555555556,4,1,1,40,0,0
169125,-55.5555555555556,4,3,1,40,0,0
169473,-62.5,4,1,1,30,0,0
169822,-55.5555555555556,4,1,1,40,0,0
170345,-83.3333333333333,4,1,1,45,0,0
170868,-62.5,4,1,1,30,0,0
171217,-55.5555555555556,4,1,1,40,0,0
172264,-83.3333333333333,4,2,1,40,0,0
172961,-83.3333333333333,4,2,1,50,0,0
173136,-83.3333333333333,4,1,1,45,0,0
173659,-62.5,4,1,1,30,0,0
174008,-55.5555555555556,4,1,1,40,0,0
174705,-55.5555555555556,4,3,1,50,0,0
175054,-62.5,4,1,1,30,0,0
175578,-62.5,4,1,1,40,0,0
175926,-83.3333333333333,4,1,1,45,0,0
176450,-62.5,4,1,1,30,0,0
176798,-55.5555555555556,4,1,1,40,0,0
177060,-66.6666666666667,4,1,1,40,0,0
177496,-55.5555555555556,4,3,1,50,0,0
177845,-62.5,4,1,1,30,0,0
178194,-66.6666666666667,4,1,1,40,0,0
178717,-83.3333333333333,4,1,1,45,0,0
179240,-62.5,4,1,1,30,0,0
179589,-55.5555555555556,4,1,1,40,0,0
180636,-62.5,4,1,1,30,0,0
180985,-55.5555555555556,4,1,1,40,0,0
181508,-83.3333333333333,4,1,1,45,0,0
182031,-62.5,4,1,1,30,0,0
182380,-55.5555555555556,4,1,1,40,0,0
183252,-71.4285714285714,4,3,1,50,0,0
183775,-66.6666666666667,4,3,1,55,0,0
184298,-66.6666666666667,4,1,1,50,0,0
184647,-66.6666666666667,4,1,1,40,0,0
185519,-66.6666666666667,4,2,1,40,0,0
185694,-66.6666666666667,4,1,1,40,0,0
186915,-66.6666666666667,4,2,1,40,0,0
187089,-66.6666666666667,4,1,1,50,0,0
187438,-66.6666666666667,4,1,1,40,0,0
188310,-66.6666666666667,4,2,1,40,0,0
188485,-66.6666666666667,4,1,1,40,0,0
189705,-66.6666666666667,4,2,1,40,0,0
189880,-66.6666666666667,4,1,1,50,0,0
190229,-66.6666666666667,4,1,1,40,0,0
191101,-66.6666666666667,4,2,1,40,0,0
191275,-66.6666666666667,4,1,1,40,0,0
192496,-66.6666666666667,4,2,1,40,0,0
192671,-66.6666666666667,4,1,1,50,0,0
193019,-66.6666666666667,4,1,1,40,0,0
193891,-66.6666666666667,4,2,1,40,0,0
194066,-66.6666666666667,4,1,1,40,0,0
195287,-55.5555555555556,4,1,1,45,0,0
195461,-62.5,4,1,1,50,0,0
195810,-62.5,4,1,1,40,0,0
196508,-100,4,2,1,40,0,0
196857,-62.5,4,1,1,40,0,0
197903,-100,4,2,1,40,0,0
198252,-62.5,4,1,1,50,0,0
198601,-62.5,4,1,1,40,0,0
199298,-100,4,2,1,40,0,0
199647,-62.5,4,1,1,40,0,0
200694,-100,4,2,1,40,0,0
201043,-71.4285714285714,4,2,1,45,0,0
201217,-71.4285714285714,4,2,1,40,0,0
202438,-100,4,2,1,30,0,0
203833,-71.4285714285714,4,2,1,45,0,0
204880,-58.8235294117647,4,2,1,60,0,0
205222,-66.6666666666667,4,1,1,50,0,0
205578,279.06976744186,4,1,1,50,1,0
205853,-66.6666666666667,4,3,2,50,0,0
205926,348.837209302326,4,1,1,50,1,0
206624,348.837209302326,4,2,1,40,1,0
217786,-100,4,2,1,55,0,0
227540,-133.333333333333,4,2,1,50,0,0
228586,-62.5,4,3,1,55,0,0
228935,-50,4,1,1,60,0,0
229458,-55.5555555555556,4,1,1,40,0,0
229982,-50,4,1,1,50,0,0
230330,-55.5555555555556,4,1,1,40,0,0
234255,-62.5,4,1,1,35,0,0
234516,-50,4,1,1,60,0,0
235040,-55.5555555555556,4,1,1,40,0,0
235563,-50,4,1,1,50,0,0
235912,-55.5555555555556,4,1,1,40,0,0
238354,-62.5,4,1,1,50,0,0
238703,-55.5555555555556,4,1,1,40,0,0
239400,-62.5,4,3,1,50,0,0
240011,-62.5,4,1,1,20,0,0
240098,-50,4,1,1,60,0,0
240360,-55.5555555555556,4,1,1,40,0,0
241144,-50,4,1,1,50,0,0
241493,-55.5555555555556,4,1,1,40,0,0
242540,-71.4285714285714,4,1,1,35,0,0
242903,-55.5555555555556,4,1,1,40,0,0
243949,-50,4,1,1,50,0,0
244298,-55.5555555555556,4,1,1,40,0,0
244821,-71.4285714285714,4,1,1,40,0,0
245170,-62.5,4,1,1,30,0,0
245519,-62.5,4,1,1,40,0,0
245693,-50,4,1,1,60,0,0
245955,-55.5555555555556,4,1,1,40,0,0
246740,-50,4,1,1,50,0,0
247089,-55.5555555555556,4,1,1,50,0,0
247437,-55.5555555555556,4,1,1,40,0,0
248135,-62.5,4,1,1,50,0,0
248484,-111.111111111111,4,3,1,50,0,0
248833,-71.4285714285714,4,3,1,30,0,0
249530,-90.9090909090909,4,3,1,40,0,0
249967,-83.3333333333333,4,3,1,30,0,0
250315,-71.4285714285714,4,3,3,50,0,0
251187,-71.4285714285714,4,1,1,20,0,0
251275,-50,4,1,1,60,0,0
251624,-55.5555555555556,4,1,1,40,0,0
252147,-62.5,4,1,1,30,0,0
252496,-55.5555555555556,4,1,1,40,0,0
253542,-62.5,4,1,1,30,0,0
253891,-55.5555555555556,4,1,1,40,0,0
254065,-83.3333333333333,4,1,1,45,0,0
254414,-55.5555555555556,4,1,1,40,0,0
254937,-62.5,4,1,1,30,0,0
255286,-55.5555555555556,4,1,1,40,0,0
255984,-62.5,4,1,1,40,0,0
256856,-83.3333333333333,4,1,1,45,0,0
257205,-55.5555555555556,4,1,1,40,0,0
257728,-62.5,4,1,1,30,0,0
257990,-55.5555555555556,4,1,1,40,0,0
259124,-62.5,4,1,1,30,0,0
259472,-55.5555555555556,4,1,1,40,0,0
259647,-83.3333333333333,4,1,1,45,0,0
259996,-55.5555555555556,4,1,1,40,0,0
260519,-62.5,4,1,1,30,0,0
260780,-55.5555555555556,4,1,1,40,0,0
261565,-100,4,2,1,30,0,0
262001,279.06976744186,4,2,1,30,1,0
262224,333.333333333333,4,2,1,50,1,0
262437,348.837209302326,4,1,1,50,1,0
262437,-50,4,1,1,60,0,0
262786,-50,4,1,1,40,0,0
263047,-62.5,4,1,1,30,0,0
263832,-55.5555555555556,4,1,1,40,0,0
264442,-62.5,4,1,1,30,0,0
265227,-83.3333333333333,4,1,1,45,0,0
265576,-55.5555555555556,4,1,1,40,0,0
265838,-62.5,4,1,1,30,0,0
266623,-90.9090909090909,4,3,1,60,0,0
266971,-62.5,4,1,1,40,0,0
267233,-62.5,4,1,1,30,0,0
267669,-62.5,4,1,1,40,0,0
267843,-55.5555555555556,4,1,1,40,0,0
268018,-83.3333333333333,4,1,1,45,0,0
268367,-55.5555555555556,4,1,1,40,0,0
268628,-62.5,4,1,1,30,0,0
269239,-55.5555555555556,4,1,1,40,0,0
269849,-62.5,4,1,1,50,0,0
270024,-62.5,4,1,1,30,0,0
270634,-62.5,4,1,1,40,0,0
270809,-83.3333333333333,4,1,1,45,0,0
271157,-62.5,4,1,1,30,0,0
272029,-62.5,4,1,1,40,0,0
272553,-52.6315789473684,4,3,1,50,0,0
273076,-52.6315789473684,4,1,1,50,0,0
273599,-66.6666666666667,4,1,1,50,0,0
274825,-76.9230769230769,4,1,1,50,0,0
274995,-66.6666666666667,4,1,1,50,0,0
276216,-76.9230769230769,4,1,1,50,0,0
276390,-66.6666666666667,4,1,1,50,0,0
277611,-76.9230769230769,4,1,1,50,0,0
277785,-66.6666666666667,4,1,1,50,0,0
280402,-76.9230769230769,4,1,1,50,0,0
280576,-66.6666666666667,4,1,1,50,0,0
281797,-76.9230769230769,4,1,1,50,0,0
281971,-66.6666666666667,4,1,1,50,0,0
283192,-76.9230769230769,4,1,1,50,0,0
283367,-83.3333333333333,4,1,1,40,0,0
283718,279.06976744186,4,2,1,50,1,0
284415,348.837209302326,4,2,1,50,1,0
284415,-66.6666666666667,4,2,1,60,0,0
284763,348.837209302326,4,2,1,50,1,0
284763,-71.4285714285714,4,3,1,40,0,0
290344,-71.4285714285714,4,3,1,50,0,0
293135,-71.4285714285714,4,1,1,60,0,0
295228,-83.3333333333333,4,1,1,35,0,0
295576,279.06976744186,4,1,1,35,1,0
295924,348.837209302326,4,1,1,50,1,0
295924,-50,4,1,1,60,0,0
296447,-62.5,4,1,1,50,0,0
296970,-50,4,1,1,50,0,0
297319,-55.5555555555556,4,1,1,40,0,0
298365,-50,4,1,1,50,0,0
298714,-55.5555555555556,4,1,1,40,0,0
299237,-62.5,4,1,1,50,0,0
299761,-50,4,1,1,50,0,0
300110,-55.5555555555556,4,1,1,40,0,0
301243,-62.5,4,1,1,30,0,0
301505,-50,4,1,1,60,0,0
302028,-62.5,4,1,1,50,0,0
302551,-50,4,1,1,50,0,0
302900,-55.5555555555556,4,1,1,40,0,0
305342,-50,4,1,1,50,0,0
305691,-55.5555555555556,4,1,1,40,0,0
306389,-62.5,4,1,1,45,0,0
306737,-55.5555555555556,4,1,1,50,0,0
307086,-50,4,1,1,60,0,0
307435,-55.5555555555556,4,1,1,40,0,0
307784,-62.5,4,1,1,40,0,0
308133,-50,4,1,1,50,0,0
308482,-55.5555555555556,4,1,1,40,0,0
309092,-62.5,4,1,1,40,0,0
309528,-50,4,1,1,50,0,0
309877,-55.5555555555556,4,1,1,40,0,0
310400,-62.5,4,1,1,50,0,0
310924,-50,4,1,1,50,0,0
311272,-55.5555555555556,4,1,1,40,0,0
311796,-62.5,4,1,1,50,0,0
312144,-62.5,4,1,1,30,0,0
312668,-50,4,1,1,60,0,0
313191,-62.5,4,1,1,50,0,0
313714,-50,4,1,1,50,0,0
314063,-55.5555555555556,4,1,1,40,0,0
315110,-52.6315789473684,4,1,1,50,0,0
315458,-90.9090909090909,4,3,1,50,0,0
315807,-71.4285714285714,4,3,1,40,0,0
316505,-83.3333333333333,4,3,1,50,0,0
316941,-71.4285714285714,4,3,1,40,0,0
317290,-66.6666666666667,4,3,2,50,0,0
318249,-50,4,1,1,60,0,0
318598,-55.5555555555556,4,1,1,40,0,0
319121,-62.5,4,1,1,30,0,0
319644,-55.5555555555556,4,1,1,40,0,0
319819,-55.5555555555556,4,3,1,50,0,0
320517,-62.5,4,1,1,30,0,0
321040,-83.3333333333333,4,1,1,45,0,0
321389,-55.5555555555556,4,1,1,40,0,0
321912,-62.5,4,1,1,30,0,0
322610,-50,4,1,1,50,0,0
322871,-83.3333333333333,4,1,1,45,0,0
323133,-62.5,4,1,1,30,0,0
323569,-58.8235294117647,4,1,1,35,0,0
323830,-83.3333333333333,4,1,1,45,0,0
324179,-55.5555555555556,4,1,1,40,0,0
324703,-62.5,4,1,1,30,0,0
325226,-55.5555555555556,4,1,1,40,0,0
325400,-50,4,3,1,50,0,0
325749,-55.5555555555556,4,1,1,50,0,0
326098,-62.5,4,1,1,30,0,0
326621,-83.3333333333333,4,1,1,45,0,0
326976,-55.5555555555556,4,1,1,40,0,0
327493,-62.5,4,1,1,30,0,0
328017,-62.5,4,3,1,40,0,0
328801,-76.9230769230769,4,3,1,35,0,0
329412,-50,4,1,1,60,0,0
329761,-55.5555555555556,4,1,1,40,0,0
330022,-62.5,4,1,1,30,0,0
330807,-55.5555555555556,4,1,1,40,0,0
330982,-50,4,3,1,50,0,0
331330,-62.5,4,1,1,30,0,0
332203,-83.3333333333333,4,1,1,45,0,0
332551,-55.5555555555556,4,1,1,40,0,0
332813,-62.5,4,1,1,30,0,0
333598,-90.9090909090909,4,3,1,50,0,0
333947,-55.5555555555556,4,1,1,40,0,0
334208,-62.5,4,1,1,30,0,0
334993,-83.3333333333333,4,1,1,45,0,0
335342,-55.5555555555556,4,1,1,40,0,0
335604,-62.5,4,1,1,30,0,0
336389,-55.5555555555556,4,1,1,40,0,0
336999,-62.5,4,1,1,30,0,0
337784,-83.3333333333333,4,1,1,45,0,0
338133,-55.5555555555556,4,1,1,40,0,0
338394,-62.5,4,1,1,30,0,0
339092,-62.5,4,1,1,40,0,0
339528,-100,4,3,1,35,0,0
339790,-100,4,1,1,20,0,0
339877,-50,4,3,1,30,0,0

[Colours]
Combo1 : 255,176,255
Combo2 : 96,1,173
Combo3 : 250,56,71
Combo4 : 64,0,64

[HitObjects]
36,116,5698,6,0,B|135:95|135:95|241:120,1,200
173,230,6221,1,0,0:0:0:0:
120,332,6396,1,0,0:0:0:0:
234,327,6570,1,0,0:0:0:0:
277,221,6744,1,8,0:0:0:0:
301,226,6832,1,0,0:0:0:0:
431,318,7093,6,0,B|464:260|424:201|424:201|400:167|408:115,1,200
164,57,7791,1,0,0:0:0:0:
290,120,7965,1,0,0:0:0:0:
164,57,8140,1,8,0:0:0:0:
151,78,8227,1,0,0:0:0:0:
166,318,8489,5,0,0:0:0:0:
341,201,8837,2,0,P|356:141|492:177,1,200
341,201,9361,1,0,0:0:0:0:
368,25,9535,1,8,0:0:0:0:
346,37,9622,1,0,0:0:0:0:
164,322,9884,6,0,B|235:325|235:325|364:272,1,200
151,89,10582,1,8,0:0:0:0:
165,92,10669,1,0,0:0:0:0:
171,161,10756,1,8,0:0:0:0:
157,164,10843,1,0,0:0:0:0:
150,234,10930,1,8,0:0:0:0:
164,237,11018,2,0,B|91:285|91:285|141:308,1,129.999994049073
200,325,11279,5,0,0:0:0:0:
420,268,11628,1,0,0:0:0:0:
298,69,11977,2,0,P|348:88|404:86,1,100
216,52,12326,1,8,0:0:0:0:
213,66,12413,1,0,0:0:0:0:
87,213,12675,6,0,P|104:272|227:283,2,200
225,283,13547,1,0,0:0:0:0:
384,236,13721,1,8,0:0:0:0:
386,220,13808,2,0,B|356:184|356:184|292:152,1,100
161,61,14070,6,0,P|204:90|267:9,1,150
161,60,14419,2,0,P|80:90|82:154,1,150
107,231,14768,1,0,0:0:0:0:
236,190,14942,1,0,0:0:0:0:
263,329,15116,1,8,0:0:0:0:
247,330,15204,1,0,0:0:0:0:
251,44,15465,6,0,P|266:91|346:153,1,150
431,90,15814,6,0,P|448:177|312:256,1,255.000004863739
219,209,16163,1,0,0:0:0:0:
203,216,16250,1,0,0:0:0:0:
116,208,16337,1,0,0:0:0:0:
100,215,16425,1,0,0:0:0:0:
99,136,16512,6,0,B|127:124|127:124|152:130|152:130|185:115|222:115,1,112.500004291535
280,98,16861,5,0,0:0:0:0:
205,301,17035,1,0,0:0:0:0:
205,301,17122,1,0,0:0:0:0:
205,301,17209,2,0,B|270:293|270:293|312:269,1,100
380,166,17558,1,0,0:0:0:0:
447,277,17733,1,0,0:0:0:0:
242,154,17907,1,8,0:0:0:0:
229,162,17994,2,0,L|137:115,1,100
30,163,18256,6,0,L|122:210,1,100
75,287,18518,1,0,0:0:0:0:
73,301,18605,2,0,L|176:308,1,100
299,287,18954,1,0,0:0:0:0:
415,217,19128,1,0,0:0:0:0:
208,208,19303,1,8,0:0:0:0:
205,193,19390,2,0,P|158:177|107:181,1,100
114,269,19651,5,0,0:0:0:0:
107,105,19826,1,0,0:0:0:0:
119,99,19913,1,0,0:0:0:0:
132,92,20000,2,0,P|185:77|236:80,1,100
276,260,20349,2,0,P|287:297|294:265,1,100
150,166,20698,1,8,0:0:0:0:
155,179,20785,1,0,0:0:0:0:
445,104,21047,6,0,B|448:167|448:167|436:209,1,100
339,220,21308,1,0,0:0:0:0:
346,206,21396,2,0,P|319:162|272:133,1,100
192,342,21744,1,0,0:0:0:0:
208,218,21919,1,0,0:0:0:0:
93,267,22093,1,8,0:0:0:0:
101,279,22180,1,0,0:0:0:0:
392,66,22442,5,0,0:0:0:0:
239,45,22616,2,0,L|267:105,1,50
359,175,22791,2,0,P|309:184|254:166,1,100
359,175,23140,2,0,P|387:217|393:274,1,100
109,178,23489,1,8,0:0:0:0:
94,182,23576,2,0,B|132:135|132:135|181:109,1,100
286,107,23837,6,0,L|290:215,1,100
423,322,24099,1,0,0:0:0:0:
432,333,24186,2,0,L|428:225,1,100
248,306,24535,1,0,0:0:0:0:
365,157,24709,1,0,0:0:0:0:
339,345,24884,1,8,0:0:0:0:
340,330,24971,1,0,0:0:0:0:
239,106,25233,5,0,0:0:0:0:
144,244,25407,1,0,0:0:0:0:
126,219,25494,1,0,0:0:0:0:
124,189,25582,1,0,0:0:0:0:
312,117,25756,1,0,0:0:0:0:
320,273,25930,2,0,B|276:279|276:279|217:260,1,100
386,129,26279,2,0,L|416:80,1,50,8|0,0:0|0:0,0:0:0:0:
237,130,26454,2,0,L|207:179,1,50
293,39,26628,5,0,0:0:0:0:
324,253,26803,1,0,0:0:0:0:
97,135,26977,1,0,0:0:0:0:
94,157,27064,1,0,0:0:0:0:
97,179,27151,2,0,P|113:220|101:263,1,75.0000028610231
176,173,27326,6,0,P|179:144|194:110,1,50
228,251,27465,6,0,P|231:280|246:314,2,50
299,192,27674,5,0,0:0:0:0:
299,192,27761,2,0,P|323:200|358:236,1,50
348,89,28022,5,0,0:0:0:0:
334,83,28109,1,0,0:0:0:0:
320,75,28196,1,0,0:0:0:0:
306,67,28283,1,0,0:0:0:0:
292,61,28370,2,0,L|237:77,1,50
103,106,28545,1,0,0:0:0:0:
115,114,28632,1,0,0:0:0:0:
120,127,28719,1,0,0:0:0:0:
121,141,28806,1,0,0:0:0:0:
118,155,28894,2,0,L|149:201,1,50
291,163,29068,2,0,L|350:148,1,50
297,238,29242,2,0,L|356:223,1,50
260,333,29417,5,0,0:0:0:0:
245,328,29504,1,0,0:0:0:0:
230,323,29591,1,0,0:0:0:0:
215,318,29678,1,0,0:0:0:0:
200,315,29766,2,0,L|143:331,1,50
71,201,29940,1,0,0:0:0:0:
85,201,30027,1,0,0:0:0:0:
100,201,30115,1,0,0:0:0:0:
114,201,30202,1,0,0:0:0:0:
128,200,30289,2,0,L|146:271,1,50
180,121,30463,2,0,L|162:50,1,50
253,208,30638,2,0,L|270:263,1,50
358,127,30812,6,0,L|353:188,1,50
421,291,30987,1,0,0:0:0:0:
433,282,31074,1,0,0:0:0:0:
444,272,31161,2,0,L|451:191,1,50
305,322,31335,1,0,0:0:0:0:
295,310,31423,1,0,0:0:0:0:
286,297,31510,1,0,0:0:0:0:
277,284,31597,1,0,0:0:0:0:
268,271,31684,2,0,L|317:243,1,50
275,97,31859,2,0,L|295:150,1,50
157,50,32033,2,0,L|177:103,1,50
75,32,32208,5,0,0:0:0:0:
71,46,32295,1,0,0:0:0:0:
67,60,32382,1,0,0:0:0:0:
63,74,32469,1,0,0:0:0:0:
59,88,32556,2,0,P|60:117|72:147,1,50
242,54,32731,1,0,0:0:0:0:
256,58,32818,1,0,0:0:0:0:
270,61,32905,1,0,0:0:0:0:
283,66,32992,1,0,0:0:0:0:
297,70,33080,2,0,L|323:129,1,50
318,262,33254,2,0,L|264:262,1,50
176,192,33428,2,0,L|226:192,1,50
161,342,33603,5,0,0:0:0:0:
175,340,33690,1,0,0:0:0:0:
189,338,33777,1,0,0:0:0:0:
204,336,33865,1,0,0:0:0:0:
218,334,33952,2,0,L|193:286,1,50
117,136,34126,2,0,L|142:184,1,50
272,64,34301,1,0,0:0:0:0:
265,77,34388,1,0,0:0:0:0:
264,91,34475,1,0,0:0:0:0:
270,104,34562,1,0,0:0:0:0:
281,113,34649,2,0,L|329:132,1,50
338,208,34824,2,0,L|386:227,1,50
181,250,34998,5,0,0:0:0:0:
194,256,35085,1,0,0:0:0:0:
207,262,35173,1,0,0:0:0:0:
220,268,35260,1,0,0:0:0:0:
233,274,35347,2,0,L|208:329,1,50
54,128,35522,1,0,0:0:0:0:
58,142,35609,1,0,0:0:0:0:
62,156,35696,1,0,0:0:0:0:
66,170,35783,1,0,0:0:0:0:
69,184,35870,2,0,L|118:201,1,50
252,100,36045,2,0,L|251:40,1,50
317,189,36219,2,0,L|318:249,1,50
449,98,36394,5,0,0:0:0:0:
456,110,36481,1,0,0:0:0:0:
457,124,36568,1,0,0:0:0:0:
452,138,36655,1,0,0:0:0:0:
442,149,36742,2,0,L|387:141,1,50
243,342,36917,1,0,0:0:0:0:
257,338,37004,1,0,0:0:0:0:
268,328,37091,2,0,L|296:285,1,50
159,195,37266,2,0,P|172:219|195:233,1,50
303,100,37440,2,0,P|276:93|245:100,1,50
421,178,37615,2,0,L|417:129,1,50
425,295,37789,5,0,0:0:0:0:
412,286,37876,1,0,0:0:0:0:
399,277,37963,1,0,0:0:0:0:
386,268,38051,1,0,0:0:0:0:
373,259,38138,2,0,L|319:275,1,50
133,324,38312,2,0,L|149:273,1,50
125,116,38487,1,0,0:0:0:0:
138,121,38574,1,0,0:0:0:0:
151,126,38661,2,0,L|210:112,1,50
377,71,38835,1,0,0:0:0:0:
382,84,38923,1,0,0:0:0:0:
379,98,39010,1,0,0:0:0:0:
384,111,39097,1,0,0:0:0:0:
381,125,39184,6,0,P|337:186|258:206,1,160
273,91,39882,1,0,0:0:0:0:
356,322,40231,1,0,0:0:0:0:
114,82,40580,2,0,P|98:142|113:237,1,160
288,121,41277,1,0,0:0:0:0:
65,334,41626,1,0,0:0:0:0:
223,70,41975,6,0,B|192:174|192:174|209:236,1,160
393,270,42673,2,0,B|319:190|319:190|269:178,1,160
138,317,43370,2,0,B|245:293|245:293|280:255,1,160
77,171,44068,2,0,P|46:119|124:69,1,160
417,253,44766,5,0,0:0:0:0:
405,130,45115,1,0,0:0:0:0:
295,181,45463,1,0,0:0:0:0:
307,304,45812,1,0,0:0:0:0:
59,224,46161,5,0,0:0:0:0:
191,317,46510,1,0,0:0:0:0:
235,165,46859,1,0,0:0:0:0:
103,71,47208,1,0,0:0:0:0:
345,344,47556,5,0,0:0:0:0:
291,38,47905,1,0,0:0:0:0:
154,317,48254,1,0,0:0:0:0:
429,171,48603,1,0,0:0:0:0:
121,128,48952,6,0,B|312:228|394:117|270:-13|135:53|241:195|241:195|276:244|259:301|208:331,1,600.000022888185
375,114,50347,5,4,0:0:0:0:
330,274,50522,1,0,0:0:0:0:
330,274,50609,1,0,0:0:0:0:
330,274,50696,2,0,B|268:281|268:281|203:273,1,125,4|0,0:0|0:0,0:0:0:0:
128,256,50958,2,0,L|135:319,1,62.5,0|4,0:0|0:0,0:0:0:0:
248,61,51219,1,0,0:0:0:0:
254,237,51394,1,4,0:0:0:0:
126,150,51568,1,0,0:0:0:0:
154,162,51655,1,0,0:0:0:0:
183,163,51742,6,0,P|243:149|309:164,1,125,4|0,0:0|0:0,0:0:0:0:
372,238,52004,2,0,L|287:270,1,62.5,0|4,0:0|0:0,0:0:0:0:
358,80,52266,1,0,0:0:0:0:
358,80,52353,1,0,0:0:0:0:
358,80,52440,1,4,0:0:0:0:
152,284,52615,1,0,0:0:0:0:
92,63,52789,2,0,B|155:51|216:89,1,125,4|0,0:0|0:0,0:0:0:0:
432,108,53138,5,4,0:0:0:0:
150,172,53312,1,0,0:0:0:0:
157,195,53399,1,0,0:0:0:0:
166,218,53487,2,0,P|187:289|233:312,1,125,4|0,0:0|0:0,0:0:0:0:
293,253,53748,1,0,0:0:0:0:
291,228,53835,1,4,0:0:0:0:
107,67,54010,1,0,0:0:0:0:
307,73,54184,1,4,0:0:0:0:
107,67,54359,1,0,0:0:0:0:
350,252,54533,6,0,P|401:213|419:151,1,125,4|0,0:0|0:0,0:0:0:0:
240,209,54795,2,0,P|290:248|355:249,1,125
252,92,55056,2,0,P|227:151|242:213,1,125,0|4,0:0|0:0,0:0:0:0:
322,162,55405,1,0,0:0:0:0:
70,238,55580,1,4,0:0:0:0:
217,306,55754,1,0,0:0:0:0:
94,80,55928,6,0,B|128:70|128:70|224:72,1,125,4|0,0:0|0:0,0:0:0:0:
292,74,56190,1,0,0:0:0:0:
292,55,56277,1,4,0:0:0:0:
272,298,56452,1,0,0:0:0:0:
258,263,56539,1,0,0:0:0:0:
256,225,56626,2,0,P|305:186|328:119,1,125,4|0,0:0|0:0,0:0:0:0:
145,173,56975,1,4,0:0:0:0:
388,239,57149,1,0,0:0:0:0:
190,343,57324,5,4,0:0:0:0:
355,326,57498,1,0,0:0:0:0:
341,313,57585,1,0,0:0:0:0:
326,300,57673,2,0,P|270:273|203:264,1,125,4|0,0:0|0:0,0:0:0:0:
158,262,57934,1,0,0:0:0:0:
116,233,58022,1,4,0:0:0:0:
221,90,58196,1,0,0:0:0:0:
81,108,58370,1,4,0:0:0:0:
346,38,58545,1,0,0:0:0:0:
210,171,58719,5,4,0:0:0:0:
356,133,58894,2,0,L|347:197,1,62.5
419,208,59068,2,0,B|427:269|427:269|401:340,1,125,4|0,0:0|0:0,0:0:0:0:
367,335,59330,1,0,0:0:0:0:
329,331,59417,1,4,0:0:0:0:
118,180,59591,1,0,0:0:0:0:
148,184,59678,1,0,0:0:0:0:
174,188,59766,2,0,P|208:145|275:110,1,125,4|0,0:0|0:0,0:0:0:0:
401,68,60115,5,4,0:0:0:0:
170,35,60289,1,0,0:0:0:0:
154,45,60376,1,0,0:0:0:0:
138,55,60463,1,4,0:0:0:0:
307,232,60638,1,0,0:0:0:0:
321,197,60725,1,0,0:0:0:0:
333,161,60812,1,4,0:0:0:0:
57,163,60987,1,0,0:0:0:0:
55,212,61074,1,0,0:0:0:0:
71,259,61161,2,0,B|133:253|133:253|197:273,1,125,4|0,0:0|0:0,0:0:0:0:
453,227,61510,6,0,B|416:280|416:280|339:328,1,129.999994049073
209,146,61859,1,0,0:0:0:0:
274,303,62033,1,0,0:0:0:0:
421,151,62208,2,0,P|359:132|290:133,1,129.999994049073
89,212,62556,1,0,0:0:0:0:
277,215,62731,1,0,0:0:0:0:
138,77,62905,5,0,0:0:0:0:
138,77,63080,1,0,0:0:0:0:
330,101,63254,1,0,0:0:0:0:
330,101,63428,1,0,0:0:0:0:
199,294,63603,1,0,0:0:0:0:
199,294,63777,1,0,0:0:0:0:
423,234,63952,1,0,0:0:0:0:
423,234,64126,1,0,0:0:0:0:
277,181,64301,6,0,P|308:121|308:58,1,129.999994049073
189,247,64649,2,0,P|249:278|312:278,1,129.999994049073
122,159,64998,2,0,P|91:219|91:282,1,129.999994049073
213,95,65347,2,0,P|153:64|90:64,1,129.999994049073
338,318,65696,5,0,0:0:0:0:
320,131,65870,1,0,0:0:0:0:
423,270,66045,1,0,0:0:0:0:
232,218,66219,1,0,0:0:0:0:
452,127,66394,1,0,0:0:0:0:
216,118,66568,1,0,0:0:0:0:
365,84,66742,1,0,0:0:0:0:
282,320,66917,1,0,0:0:0:0:
88,267,67091,5,0,0:0:0:0:
75,230,67178,1,0,0:0:0:0:
79,190,67266,1,0,0:0:0:0:
100,157,67353,1,0,0:0:0:0:
131,134,67440,1,0,0:0:0:0:
168,124,67527,1,0,0:0:0:0:
206,130,67615,2,0,L|212:194,1,64.9999970245363
351,69,67789,5,0,0:0:0:0:
345,107,67876,1,0,0:0:0:0:
354,144,67963,1,0,0:0:0:0:
380,172,68051,1,0,0:0:0:0:
411,195,68138,1,0,0:0:0:0:
429,229,68225,1,0,0:0:0:0:
431,267,68312,2,0,L|365:301,1,64.9999970245363
161,283,68487,5,0,0:0:0:0:
182,297,68574,1,0,0:0:0:0:
207,303,68661,1,0,0:0:0:0:
232,298,68748,1,0,0:0:0:0:
259,280,68835,1,0,0:0:0:0:
269,248,68923,1,0,0:0:0:0:
265,215,69010,1,0,0:0:0:0:
249,186,69097,1,0,0:0:0:0:
236,149,69184,5,0,0:0:0:0:
237,109,69272,1,0,0:0:0:0:
257,76,69359,1,0,0:0:0:0:
291,57,69446,1,0,0:0:0:0:
336,51,69533,1,0,0:0:0:0:
378,68,69620,1,0,0:0:0:0:
405,104,69708,1,0,0:0:0:0:
408,149,69795,1,0,0:0:0:0:
400,193,69882,6,0,L|381:258,1,64.9999970245363
228,123,70056,2,0,L|247:58,1,64.9999970245363
303,207,70231,2,0,L|284:272,1,64.9999970245363
131,137,70405,2,0,L|150:72,1,64.9999970245363
202,209,70580,5,0,0:0:0:0:
195,227,70667,1,0,0:0:0:0:
189,245,70754,2,0,L|211:320,1,64.9999970245363
412,266,70928,1,0,0:0:0:0:
400,249,71016,1,0,0:0:0:0:
389,232,71103,2,0,L|414:150,1,64.9999970245363
313,83,71277,6,0,L|306:36,1,37.5000014305115
232,94,71452,2,0,L|225:47,1,37.5000014305115
136,180,71626,6,0,L|129:227,1,37.5000014305115
55,169,71801,2,0,L|48:216,1,37.5000014305115
375,298,71975,6,0,L|420:311,1,37.5000014305115
398,219,72149,2,0,L|443:232,1,37.5000014305115
221,303,72324,6,0,P|181:343|190:280,1,160,8|0,0:0|0:0,0:0:0:0:
437,86,72673,6,0,B|349:49|246:101|246:101|148:149|54:86,1,400,4|8,0:0|0:0,0:0:0:0:
274,367,73196,1,0,0:0:0:0:
299,369,73283,2,0,B|340:351|387:359|387:359|351:332|328:284,1,179.999994506836
281,186,73545,2,0,P|292:129|298:195,1,179.999994506836,0|8,0:0|0:0,0:0:0:0:
200,174,73806,1,0,0:0:0:0:
182,149,73894,1,0,0:0:0:0:
164,124,73981,1,0,0:0:0:0:
91,153,74068,6,0,P|95:85|214:63,1,179.999994506836
326,43,74330,1,0,0:0:0:0:
342,67,74417,2,0,B|359:112|359:112|346:196|346:196|361:242,1,179.999994506836,8|0,0:0|0:0,0:0:0:0:
430,203,74678,2,0,P|360:162|283:224,1,179.999994506836
266,288,74940,1,0,0:0:0:0:
175,44,75115,2,0,B|215:40|215:40|264:46,1,89.9999972534181,8|0,0:0|0:0,0:0:0:0:
372,53,75289,1,0,0:0:0:0:
372,53,75376,1,0,0:0:0:0:
372,53,75463,6,0,B|286:73|265:148|265:148|306:146,1,179.999994506836
406,127,75725,1,0,0:0:0:0:
406,156,75812,2,0,B|374:203|374:203|356:263|356:263|295:294,1,179.999994506836,8|0,0:0|0:0,0:0:0:0:
176,247,76074,2,0,P|233:217|302:292,1,179.999994506836
160,318,76335,1,0,0:0:0:0:
101,86,76510,1,8,0:0:0:0:
108,114,76597,1,0,0:0:0:0:
187,106,76684,1,0,0:0:0:0:
180,78,76772,1,0,0:0:0:0:
185,48,76859,6,0,B|229:48|229:48|311:89|311:89|357:89,1,179.999994506836
416,144,77120,1,0,0:0:0:0:
446,142,77208,1,8,0:0:0:0:
156,169,77382,1,0,0:0:0:0:
179,187,77469,2,0,P|189:265|202:189,1,179.999994506836
170,348,77731,2,0,P|252:332|309:251,1,179.999994506836,0|8,0:0|0:0,0:0:0:0:
323,153,77992,2,0,L|380:205,2,75.0000028610231
199,44,78254,6,0,B|162:95|157:158|157:158|126:106,1,179.999994506836
83,40,78516,2,0,P|50:74|52:142,1,89.9999972534181,0|8,0:0|0:0,0:0:0:0:
226,302,78777,1,0,0:0:0:0:
248,317,78865,2,0,P|295:278|255:146,1,179.999994506836
221,231,79126,1,0,0:0:0:0:
221,231,79213,1,0,0:0:0:0:
221,231,79301,2,0,P|170:219|127:217,1,89.9999972534181,8|0,0:0|0:0,0:0:0:0:
176,114,79475,2,0,P|226:102|269:100,1,89.9999972534181
400,80,79649,5,0,0:0:0:0:
443,66,79737,1,0,0:0:0:0:
470,103,79824,1,0,0:0:0:0:
443,139,79911,1,0,0:0:0:0:
401,126,79998,2,0,P|326:195|371:258,1,179.999994506836,8|0,0:0|0:0,0:0:0:0:
450,352,80260,2,0,B|393:355|393:355|339:328|270:328,1,179.999994506836
147,337,80522,2,0,P|145:300|159:266,1,75.0000028610231
102,220,80696,2,0,P|135:236|159:266,1,75.0000028610231,8|0,0:0|0:0,0:0:0:0:
226,239,80870,2,0,P|195:260|159:266,1,75.0000028610231
102,220,81045,6,0,B|124:179|171:162|171:162|216:146|241:102,1,179.999994506836
340,21,81306,1,0,0:0:0:0:
367,21,81394,2,0,B|357:72|372:109|372:109|358:144|372:198,1,179.999994506836,8|0,0:0|0:0,0:0:0:0:
298,274,81655,2,0,P|237:311|275:250,1,179.999994506836
289,182,81917,1,0,0:0:0:0:
97,152,82091,1,8,0:0:0:0:
130,109,82178,1,0,0:0:0:0:
180,88,82266,1,0,0:0:0:0:
233,89,82353,1,0,0:0:0:0:
285,98,82440,6,0,B|307:89|330:67|330:67|362:123|299:198,1,179.999994506836
463,205,82789,2,0,B|425:53|425:53|413:98,1,189.999994926453
312,267,83138,6,0,B|274:275|212:253|212:253|112:225|113:302|130:399|300:351|241:213|115:170,1,480,12|0,0:0|0:0,0:0:0:0:
228,36,83835,6,0,P|239:113|333:166,1,179.999994506836,4|0,0:0|0:0,0:0:0:0:
405,60,84097,1,0,0:0:0:0:
420,81,84184,2,0,B|408:135|408:135|430:204|430:204|416:264,1,179.999994506836,8|0,0:0|0:0,0:0:0:0:
391,330,84446,1,0,0:0:0:0:
119,141,84620,1,0,0:0:0:0:
132,164,84708,2,0,B|108:218|130:264|130:264|222:233,1,179.999994506836,0|8,0:0|0:0,0:0:0:0:
294,183,84969,1,0,0:0:0:0:
280,159,85056,1,0,0:0:0:0:
270,133,85144,1,0,0:0:0:0:
271,106,85231,6,0,B|229:73|229:73|91:93,1,179.999994506836
55,208,85492,1,0,0:0:0:0:
51,243,85580,2,0,P|86:318|184:326,1,179.999994506836,8|0,0:0|0:0,0:0:0:0:
293,267,85841,2,0,B|323:217|323:217|375:192|375:192|439:205,1,179.999994506836
388,293,86103,2,0,L|307:112,1,179.999994506836,0|8,0:0|0:0,0:0:0:0:
197,68,86365,1,0,0:0:0:0:
175,83,86452,2,0,P|140:118|128:168,1,89.9999972534181
122,277,86626,6,0,P|58:282|114:239,1,179.999994506836
189,240,86888,1,0,0:0:0:0:
206,261,86975,1,8,0:0:0:0:
386,339,87149,1,0,0:0:0:0:
403,318,87237,2,0,P|420:260|303:211,1,179.999994506836
267,239,87498,1,0,0:0:0:0:
205,46,87673,1,8,0:0:0:0:
200,81,87760,1,0,0:0:0:0:
206,116,87847,2,0,P|208:152|187:207,1,89.9999972534181
84,138,88022,5,0,0:0:0:0:
84,146,88109,1,0,0:0:0:0:
84,154,88196,1,0,0:0:0:0:
84,162,88283,1,0,0:0:0:0:
87,174,88370,2,0,P|55:231|97:337,1,179.999994506836,8|0,0:0|0:0,0:0:0:0:
153,250,88632,2,0,P|184:192|142:86,1,179.999994506836
87,174,88894,1,0,0:0:0:0:
251,114,89068,2,0,L|344:93,1,89.9999972534181,8|0,0:0|0:0,0:0:0:0:
272,30,89242,2,0,L|177:50,1,89.9999972534181
251,114,89417,6,0,B|289:153|289:153|297:190|321:216|321:216|331:280,1,179.999994506836
251,324,89678,1,0,0:0:0:0:
214,338,89766,2,0,B|206:298|212:239|212:239|174:253|128:239,1,179.999994506836,8|0,0:0|0:0,0:0:0:0:
64,322,90027,2,0,P|29:221|70:154,1,179.999994506836
146,93,90289,2,0,B|195:113|195:113|270:108|270:108|322:130,1,179.999994506836,0|8,0:0|0:0,0:0:0:0:
375,213,90551,1,0,0:0:0:0:
358,234,90638,1,0,0:0:0:0:
335,248,90725,1,0,0:0:0:0:
304,258,90812,5,0,0:0:0:0:
234,276,90899,1,0,0:0:0:0:
162,275,90987,1,0,0:0:0:0:
100,237,91074,1,0,0:0:0:0:
72,170,91161,2,0,P|152:188|159:278,1,179.999994506836,8|0,0:0|0:0,0:0:0:0:
72,170,91423,2,0,P|156:117|246:134,1,179.999994506836
288,181,91684,1,0,0:0:0:0:
441,284,91859,2,0,P|457:238|452:177,2,89.9999972534181
352,327,92120,1,0,0:0:0:0:
96,280,92295,5,0,0:0:0:0:
122,261,92382,1,0,0:0:0:0:
266,64,92556,2,0,B|191:89|191:89|105:83,1,160
46,172,92818,1,8,0:0:0:0:
73,188,92905,2,0,L|166:193,1,75.0000028610231,0|8,0:0|0:0,0:0:0:0:
204,278,93080,2,0,L|277:259,1,75.0000028610231,0|8,0:0|0:0,0:0:0:0:
354,200,93254,6,0,P|361:128|374:205,1,189.999994926453,8|0,0:0|0:0,0:0:0:0:
431,53,93516,6,0,P|496:138|486:222,1,189.999994926453,8|0,0:0|0:0,0:0:0:0:
225,248,93952,1,0,0:0:0:0:
251,238,94039,1,0,0:0:0:0:
311,36,94213,6,0,B|225:57|172:194|134:152|45:69|163:-25|258:107|258:107|303:174|375:202,1,559.999982910157,4|0,0:0|0:0,0:0:0:0:
436,333,94998,6,0,B|347:384|264:335|264:335|209:303|144:310,1,300,4|0,0:0|0:0,0:0:0:0:
42,348,95347,2,0,B|3:266|3:266|13:170,1,179.999994506836
123,151,95609,1,0,0:0:0:0:
139,182,95696,1,0,0:0:0:0:
143,217,95783,1,0,0:0:0:0:
138,250,95870,2,0,P|215:230|256:153,1,160
276,51,96132,2,0,P|354:109|366:189,1,160
444,236,96394,6,0,P|401:263|359:268,1,89.9999972534181
267,257,96568,2,0,P|221:249|173:263,1,89.9999972534181
85,286,96742,2,0,B|70:233|70:233|100:107,1,179.999994506836,8|0,0:0|0:0,0:0:0:0:
184,49,97004,2,0,B|201:70|211:102|202:138|202:138|302:97,1,179.999994506836
260,209,97266,2,0,B|159:251|159:251|214:281,1,160
268,348,97527,2,0,L|316:284,1,80
413,269,97702,1,0,0:0:0:0:
413,269,97789,6,0,B|434:242|430:204|430:204|442:166|442:166|434:131|442:96,1,179.999994506836,4|0,0:0|0:0,0:0:0:0:
374,48,98138,2,0,P|330:95|227:69,1,179.999994506836,8|0,0:0|0:0,0:0:0:0:
135,60,98399,2,0,P|190:147|268:178,1,179.999994506836
227,69,98661,2,0,B|207:106|171:126|171:126|179:164|166:204,1,160
73,146,98923,2,0,B|77:187|59:223|59:223|88:251|100:290,1,160
201,336,99184,6,0,B|222:277|263:233|263:233|268:164,1,179.999994506836
380,166,99446,1,0,0:0:0:0:
406,166,99533,2,0,B|494:144|494:144|421:62,1,179.999994506836
326,38,99795,1,0,0:0:0:0:
302,38,99882,2,0,L|245:99,1,80
146,54,100056,2,0,B|178:143|178:143|162:207,1,160
88,295,100318,1,0,0:0:0:0:
119,308,100405,1,0,0:0:0:0:
143,328,100492,1,0,0:0:0:0:
169,337,100580,6,0,B|217:338|237:351|237:351|259:322|259:322|282:337|332:336,1,179.999994506836,4|0,0:0|0:0,0:0:0:0:
426,310,100928,2,0,B|411:262|367:243|367:243|323:225|309:168,1,179.999994506836,8|0,0:0|0:0,0:0:0:0:
310,142,101190,1,0,0:0:0:0:
449,61,101365,1,0,0:0:0:0:
420,75,101452,2,0,L|250:57,1,160
310,142,101713,2,0,L|140:124,1,160
200,211,101975,6,0,B|239:237|286:222|286:222|334:206|380:230,1,179.999994506836
456,247,102237,1,0,0:0:0:0:
441,278,102324,1,8,0:0:0:0:
414,300,102411,1,0,0:0:0:0:
378,309,102498,1,0,0:0:0:0:
299,314,102585,2,0,B|196:337|196:337|122:326,1,179.999994506836
48,268,102847,2,0,B|150:209|150:209|96:198,1,160
47,112,103109,2,0,L|138:130,1,80
232,90,103283,1,0,0:0:0:0:
235,111,103370,6,0,B|265:89|296:44|296:44|306:118|360:146|405:140|434:129|463:102,1,284.999992389679,4|0,0:0|0:0,0:0:0:0:
390,41,103719,2,0,P|348:120|338:218,1,179.999994506836,8|0,0:0|0:0,0:0:0:0:
379,287,103981,2,0,B|348:334|276:339|276:339|244:274,1,179.999994506836
163,280,104242,2,0,B|186:327|186:327|132:303|68:314,1,160
82,223,104504,2,0,P|137:187|120:101,1,160
78,30,104766,6,0,P|114:18|176:36,1,89.9999972534181
247,62,104940,1,0,0:0:0:0:
277,81,105027,1,0,0:0:0:0:
308,103,105115,2,0,B|327:155|383:176|383:176|384:224,1,139.999995727539,8|0,0:0|0:0,0:0:0:0:
374,241,105376,1,0,0:0:0:0:
184,202,105638,2,0,L|169:262,1,50
149,177,105777,2,0,L|79:217,1,50
146,135,105917,2,0,L|67:121,1,50
167,99,106056,1,0,0:0:0:0:
228,40,106161,6,0,B|277:66|351:74|351:74|449:86|452:191,1,300,4|0,0:0|0:0,0:0:0:0:
358,168,106509,2,0,P|345:256|256:288,1,179.999994506836,8|0,0:0|0:0,0:0:0:0:
169,295,106771,2,0,B|182:205|182:205|270:197,1,179.999994506836
316,108,107033,2,0,L|142:120,1,160
58,98,107294,2,0,B|58:148|58:148|91:198|91:198|93:260,1,160
69,351,107556,6,0,B|107:342|157:351|157:351|244:317,1,179.999994506836
252,224,107817,1,0,0:0:0:0:
239,200,107905,2,0,P|274:135|287:206,1,179.999994506836,8|0,0:0|0:0,0:0:0:0:
166,100,108166,2,0,P|235:54|380:122,2,240
77,244,108777,1,0,0:0:0:0:
77,244,108864,1,0,0:0:0:0:
77,244,108951,6,0,B|119:225|119:225|140:237|140:237|173:223|205:235|205:235|254:218,1,179.999994506836,4|0,0:0|0:0,0:0:0:0:
324,187,109300,2,0,P|355:274|441:253,1,179.999994506836,8|0,0:0|0:0,0:0:0:0:
456,243,109562,1,0,0:0:0:0:
262,144,109736,1,0,0:0:0:0:
273,115,109823,2,0,B|390:77|390:77|350:55,1,160
273,25,110085,2,0,P|191:77|190:149,1,160
97,148,110347,5,0,0:0:0:0:
104,173,110434,1,0,0:0:0:0:
102,200,110521,1,0,0:0:0:0:
95,226,110608,1,0,0:0:0:0:
87,249,110695,2,0,B|116:269|116:269|144:261|144:261|170:272|170:272|197:264|197:264|247:270,1,150.000005722046,8|0,0:0|0:0,0:0:0:0:
329,327,110957,2,0,P|409:307|419:232,1,160
421,118,111219,2,0,B|351:154|351:154|320:234,1,160
279,118,111480,2,0,B|244:206|244:206|203:149,1,160
164,48,111742,6,0,B|146:66|146:66|116:75|116:75|111:104|111:104|95:128|95:128|97:157|97:157|75:198,1,179.999994506836,4|0,0:0|0:0,0:0:0:0:
96,288,112091,2,0,B|83:350|83:350|133:316|192:302,1,179.999994506836,8|0,0:0|0:0,0:0:0:0:
329,288,112352,1,0,0:0:0:0:
368,286,112440,1,0,0:0:0:0:
408,293,112527,1,0,0:0:0:0:
448,297,112614,2,0,B|448:251|448:251|421:188|421:188|421:138,1,160
511,111,112876,2,0,P|439:49|359:69,1,160
323,136,113137,6,0,B|333:185|302:261|302:261|312:323,1,179.999994506836
193,332,113399,1,0,0:0:0:0:
164,315,113486,2,0,P|125:238|176:166,1,179.999994506836,8|0,0:0|0:0,0:0:0:0:
211,244,113748,2,0,B|176:227|87:255|50:237,1,160
8,128,114009,2,0,B|33:81|33:81|92:65|141:20,1,160
230,89,114271,1,0,0:0:0:0:
242,106,114358,2,0,P|271:81|326:76,1,80
429,101,114533,6,0,B|446:88|454:64|454:64|455:105|455:105|471:132|463:152|463:152|471:179|471:179|461:203,1,179.999994506836,4|0,0:0|0:0,0:0:0:0:
348,263,114881,1,8,0:0:0:0:
313,250,114969,1,0,0:0:0:0:
289,222,115056,1,0,0:0:0:0:
269,190,115143,2,0,B|201:158|201:158|33:178,2,240
48,270,115841,2,0,L|133:260,1,75.0000028610231
236,330,116015,2,0,L|151:340,1,75.0000028610231
385,312,116277,1,8,0:0:0:0:
360,103,116538,1,0,0:0:0:0:
362,81,116626,1,0,0:0:0:0:
364,60,116713,1,0,0:0:0:0:
366,40,116800,2,0,B|274:36|274:36|214:69,1,150.000005722046
83,145,117323,6,0,P|124:152|145:235,1,129.999994049073
108,333,117672,2,0,B|182:331|182:331|283:244,1,194.999991073609
210,135,118108,1,0,0:0:0:0:
190,131,118195,1,0,0:0:0:0:
361,97,118370,6,0,P|341:141|425:250,1,170.000003242493
310,313,118719,6,0,B|207:328|207:328|221:280,1,129.999994049073
139,220,119067,2,0,B|241:204|241:204|227:252,1,129.999994049073
132,299,119329,1,0,0:0:0:0:
93,137,119504,1,0,0:0:0:0:
81,152,119591,1,0,0:0:0:0:
291,43,119765,6,0,P|207:80|128:54,1,170.000003242493
366,186,120114,5,0,0:0:0:0:
291,258,120288,1,0,0:0:0:0:
217,331,120463,1,0,0:0:0:0:
209,162,120637,1,0,0:0:0:0:
217,179,120724,1,0,0:0:0:0:
385,344,120899,1,0,0:0:0:0:
377,327,120986,1,0,0:0:0:0:
205,171,121161,6,0,B|149:170|98:196|98:196|132:252,1,170.000003242493
165,62,121509,6,0,P|239:61|303:222,1,259.999988098145
103,341,122033,1,0,0:0:0:0:
122,343,122120,2,0,B|178:310|178:310|245:298,1,129.999994049073
259,306,122381,1,0,0:0:0:0:
402,162,122556,6,0,L|444:336,1,170.000003242493
182,204,122905,5,0,0:0:0:0:
296,51,123079,1,0,0:0:0:0:
99,84,123254,2,0,P|57:149|44:199,1,129.999994049073
305,156,123515,2,0,B|249:128|249:128|168:121,1,129.999994049073
224,54,123777,1,0,0:0:0:0:
108,290,123951,6,0,B|159:320|159:320|208:293|283:291,1,170.000003242493
320,104,124300,6,0,P|361:124|382:203,1,129.999994049073
246,130,124649,2,0,P|242:84|300:26,1,129.999994049073
306,181,124911,2,0,P|268:206|189:185,1,129.999994049073
152,119,125172,1,0,0:0:0:0:
457,44,125347,6,0,P|444:144|452:218,1,170.000003242493
95,258,125695,6,0,B|147:298|147:298|228:312,2,129.999994049073
248,39,126219,1,0,0:0:0:0:
230,46,126306,1,0,0:0:0:0:
171,216,126480,1,0,0:0:0:0:
189,223,126567,1,0,0:0:0:0:
387,330,126742,6,0,B|366:279|363:229|363:229|287:239,1,170.000003242493
357,77,127091,6,0,L|298:85,1,59.9999981689454
307,43,127265,2,0,L|248:51,1,59.9999981689454
126,78,127439,6,0,P|112:115|121:175,1,100
187,228,127648,6,0,P|201:190|192:131,1,100
116,277,127857,6,0,P|166:308|221:308,1,100
281,287,128066,6,0,L|290:343,1,50
429,68,128310,2,0,L|444:150,1,80
461,254,128484,6,0,B|390:242|350:181|350:181|368:286,1,240
334,98,128833,2,0,P|269:157|271:213,1,139.999995727539
99,143,129182,1,0,0:0:0:0:
158,339,129357,1,0,0:0:0:0:
175,327,129444,1,0,0:0:0:0:
248,317,129531,1,0,0:0:0:0:
266,326,129618,1,0,0:0:0:0:
414,314,129793,1,0,0:0:0:0:
424,332,129880,6,0,B|425:269|425:269|385:198|385:198|386:123,1,209.999993591309
338,288,130229,2,0,B|298:217|298:217|299:142,1,139.999995727539
235,342,130578,1,0,0:0:0:0:
117,192,130752,1,0,0:0:0:0:
111,219,130839,1,0,0:0:0:0:
106,246,130926,1,0,0:0:0:0:
102,274,131014,2,0,P|188:277|214:236,1,139.999995727539
221,155,131275,5,0,0:0:0:0:
378,66,131450,1,0,0:0:0:0:
394,88,131537,1,0,0:0:0:0:
401,114,131624,1,0,0:0:0:0:
188,143,131798,1,0,0:0:0:0:
414,265,131973,2,0,B|344:259|344:259|267:275,1,139.999995727539
146,262,132235,1,0,0:0:0:0:
144,289,132322,2,0,P|157:314|192:350,1,69.9999978637696
334,100,132583,1,0,0:0:0:0:
353,107,132671,2,0,B|410:149|410:149|327:199,1,139.999995727539
247,176,132932,1,0,0:0:0:0:
247,148,133019,1,0,0:0:0:0:
139,334,133194,2,0,P|199:318|257:253,1,139.999995727539
58,188,133543,1,0,0:0:0:0:
58,167,133630,1,0,0:0:0:0:
137,166,133717,1,0,0:0:0:0:
137,187,133804,1,0,0:0:0:0:
402,309,133979,1,0,0:0:0:0:
415,292,134066,5,0,0:0:0:0:
363,121,134240,1,0,0:0:0:0:
281,289,134415,1,0,0:0:0:0:
209,93,134589,1,0,0:0:0:0:
147,277,134764,5,0,0:0:0:0:
332,190,134938,1,0,0:0:0:0:
109,156,135112,1,0,0:0:0:0:
280,79,135287,1,0,0:0:0:0:
268,282,135461,5,0,0:0:0:0:
175,103,135636,1,0,0:0:0:0:
390,140,135810,1,0,0:0:0:0:
341,340,135985,1,0,0:0:0:0:
236,203,136159,5,0,0:0:0:0:
443,234,136333,1,0,0:0:0:0:
361,42,136508,1,0,0:0:0:0:
194,119,136682,1,0,0:0:0:0:
241,300,136857,5,0,0:0:0:0:
279,284,136944,1,0,0:0:0:0:
314,261,137031,2,0,L|323:188,1,69.9999978637696
201,58,137205,1,0,0:0:0:0:
243,53,137293,1,0,0:0:0:0:
283,62,137380,2,0,P|314:72|350:106,1,69.9999978637696
175,188,137554,5,0,0:0:0:0:
143,215,137641,1,0,0:0:0:0:
131,255,137729,1,0,0:0:0:0:
143,294,137816,1,0,0:0:0:0:
174,322,137903,1,0,0:0:0:0:
215,329,137990,1,0,0:0:0:0:
256,319,138078,1,0,0:0:0:0:
297,316,138165,1,0,0:0:0:0:
337,325,138252,5,0,0:0:0:0:
374,343,138339,1,0,0:0:0:0:
378,301,138426,1,0,0:0:0:0:
381,258,138514,1,0,0:0:0:0:
384,216,138601,1,0,0:0:0:0:
342,213,138688,1,0,0:0:0:0:
300,211,138775,1,0,0:0:0:0:
258,210,138862,1,0,0:0:0:0:
117,207,138950,6,0,L|94:131,1,59.9999981689454
188,45,139124,2,0,L|211:121,1,59.9999981689454
210,293,139298,6,0,L|126:293,1,59.9999981689454
308,51,139473,2,0,P|343:71|372:109,1,80
473,248,139647,6,0,P|443:183|467:88,1,160,8|0,0:0|0:0,0:0:0:0:
336,275,139996,1,0,0:0:0:0:
172,320,140171,1,0,0:0:0:0:
165,278,140258,1,0,0:0:0:0:
173,236,140345,1,0,0:0:0:0:
195,200,140432,1,0,0:0:0:0:
229,175,140519,1,0,0:0:0:0:
394,49,140694,2,0,B|327:39|327:39|234:60,1,160
99,113,140955,1,0,0:0:0:0:
69,131,141043,6,0,L|80:210,1,80
134,315,141217,1,0,0:0:0:0:
134,315,141304,1,0,0:0:0:0:
134,315,141391,2,0,P|181:251|268:211,1,160
319,284,141653,2,0,L|359:209,1,80
442,307,141828,2,0,L|434:213,1,80
325,46,142089,6,0,B|387:55|423:93|423:93|368:151|267:124,1,269.999991760254,8|0,0:0|0:0,0:0:0:0:
195,96,142438,6,0,P|129:54|43:118,1,160
103,337,142787,1,0,0:0:0:0:
42,195,142961,1,0,0:0:0:0:
81,203,143048,1,0,0:0:0:0:
120,211,143136,1,0,0:0:0:0:
159,219,143223,1,0,0:0:0:0:
198,227,143310,1,0,0:0:0:0:
371,335,143485,2,0,P|412:264|394:177,1,160
306,48,143746,1,0,0:0:0:0:
288,64,143833,6,0,L|297:233,1,160
143,338,144182,1,0,0:0:0:0:
54,170,144357,1,0,0:0:0:0:
74,182,144444,1,0,0:0:0:0:
94,193,144531,2,0,P|134:182|185:183,1,80
123,102,144705,2,0,P|163:91|214:92,1,80
333,97,144880,6,0,P|401:72|333:73,1,200,8|0,0:0|0:0,0:0:0:0:
303,200,145229,6,0,B|374:222|399:324|399:324|345:300,1,200,8|0,0:0|0:0,0:0:0:0:
133,217,145578,1,0,0:0:0:0:
251,66,145752,1,0,0:0:0:0:
211,64,145839,1,0,0:0:0:0:
171,68,145926,1,0,0:0:0:0:
134,84,146014,1,0,0:0:0:0:
105,111,146101,1,0,0:0:0:0:
388,182,146275,1,0,0:0:0:0:
388,182,146362,2,0,L|404:273,2,80
337,95,146624,5,0,0:0:0:0:
289,86,146711,1,0,0:0:0:0:
241,95,146798,1,0,0:0:0:0:
201,123,146886,1,0,0:0:0:0:
178,165,146973,2,0,B|210:224|210:224|266:226|299:191,1,160
204,302,147235,1,0,0:0:0:0:
220,319,147322,1,0,0:0:0:0:
238,334,147409,1,0,0:0:0:0:
256,349,147496,2,0,B|329:308|329:308|424:300,1,160
60,71,147845,2,0,L|66:152,1,80
106,302,148019,6,0,P|145:235|254:207,1,194.999991073609,8|0,0:0|0:0,0:0:0:0:
218,314,148368,2,0,P|163:258|164:146,1,194.999991073609,8|0,0:0|0:0,0:0:0:0:
253,206,148717,2,0,P|184:242|77:208,1,194.999991073609,8|0,0:0|0:0,0:0:0:0:
164,147,149066,2,0,P|232:110|339:144,1,194.999991073609,8|0,0:0|0:0,0:0:0:0:
248,203,149415,2,0,P|241:126|314:41,1,194.999991073609,8|0,0:0|0:0,0:0:0:0:
477,290,149764,6,0,B|426:331|372:297|372:297|341:302|341:302|334:253|257:243|228:322|301:360,1,300,0|0,0:0|0:0,0:0:0:0:
421,233,150461,2,0,P|402:186|342:133,1,129.999994049073
90,161,150810,5,0,0:0:0:0:
215,49,150985,1,0,0:0:0:0:
115,278,151159,1,0,0:0:0:0:
319,182,151333,1,0,0:0:0:0:
298,194,151421,1,0,0:0:0:0:
278,208,151508,2,0,L|194:209,2,80
469,320,151857,2,0,P|428:309|386:320,1,80
316,314,152031,2,0,P|357:325|399:314,1,80
448,194,152205,1,0,0:0:0:0:
301,55,152380,6,0,P|232:74|299:83,1,179.999994506836,8|0,0:0|0:0,0:0:0:0:
96,161,152729,2,0,P|162:187|114:139,1,179.999994506836,8|0,0:0|0:0,0:0:0:0:
213,298,153078,1,0,0:0:0:0:
439,70,153252,6,0,B|404:115|410:161|410:161|416:207|379:258,1,200
165,51,153601,6,0,B|207:64|245:55|245:55|268:84|314:104,1,160,8|0,0:0|0:0,0:0:0:0:
77,114,153950,1,0,0:0:0:0:
172,347,154124,1,0,0:0:0:0:
147,315,154211,1,0,0:0:0:0:
138,276,154298,1,0,0:0:0:0:
145,236,154386,1,0,0:0:0:0:
169,194,154473,1,0,0:0:0:0:
408,137,154647,2,0,P|405:104|377:55,1,80
311,129,154822,2,0,P|314:162|342:211,1,80
445,306,154996,1,0,0:0:0:0:
413,320,155083,6,0,B|362:302|362:302|283:348|221:281,1,209.999993591309,8|0,0:0|0:0,0:0:0:0:
77,58,155519,1,0,0:0:0:0:
115,71,155607,6,0,L|199:52,1,80
137,155,155781,2,0,L|53:174,1,80
343,43,156043,6,0,B|362:61|369:88|369:88|364:120|364:120|376:154|376:154|375:216,1,179.999994506836,8|0,0:0|0:0,0:0:0:0:
457,113,156391,6,0,B|472:207|472:207|443:291,1,160,8|0,0:0|0:0,0:0:0:0:
252,341,156740,1,0,0:0:0:0:
86,104,156915,1,0,0:0:0:0:
119,126,157002,1,0,0:0:0:0:
158,133,157089,1,0,0:0:0:0:
197,128,157176,1,0,0:0:0:0:
233,110,157264,1,0,0:0:0:0:
167,312,157438,2,0,B|127:310|127:310|79:294,1,80
158,214,157612,2,0,B|198:216|198:216|246:232,1,80
311,294,157787,5,0,0:0:0:0:
317,26,157961,2,0,P|298:94|388:144,1,179.999994506836,8|0,0:0|0:0,0:0:0:0:
95,93,158310,2,0,P|170:130|157:213,1,179.999994506836,8|0,0:0|0:0,0:0:0:0:
354,205,158659,1,0,0:0:0:0:
299,352,158833,6,0,B|301:291|301:291|269:221|269:221|272:147,1,200
228,47,159182,5,0,0:0:0:0:
121,324,159357,2,0,L|83:251,1,80
40,164,159531,5,8,0:0:0:0:
414,250,159705,2,0,L|334:270,1,80
239,292,159880,5,8,0:0:0:0:
170,48,160054,1,0,0:0:0:0:
235,78,160141,1,0,0:0:0:0:
307,82,160229,6,0,P|365:97|317:106,1,160,8|0,0:0|0:0,0:0:0:0:
260,168,160490,6,0,P|246:274|280:323,1,160,8|0,0:0|0:0,0:0:0:0:
336,262,160752,6,0,P|376:217|361:264,1,160,8|0,0:0|0:0,0:0:0:0:
75,146,161101,6,0,B|137:192|137:192|194:234|182:295|85:286|52:257|87:197|179:148|179:148|281:93|255:27|139:13|76:99|218:157|254:161,1,675.000025749208,4|0,0:0|0:0,0:0:0:0:
333,167,161973,6,0,B|319:108|345:54|410:29|480:57|507:114|488:176,1,300,4|0,0:0|0:0,0:0:0:0:
411,142,162322,1,8,0:0:0:0:
454,287,162496,1,0,0:0:0:0:
454,287,162583,2,0,B|406:222|406:222|411:143,1,160
333,167,162845,1,0,0:0:0:0:
333,167,162932,1,0,0:0:0:0:
333,167,163019,1,0,0:0:0:0:
321,142,163107,1,0,0:0:0:0:
300,126,163194,1,0,0:0:0:0:
274,118,163281,1,0,0:0:0:0:
248,122,163368,5,0,0:0:0:0:
258,309,163543,2,0,P|161:317|144:248,1,179.999994506836,8|0,0:0|0:0,0:0:0:0:
142,73,163891,1,0,0:0:0:0:
133,104,163979,2,0,B|124:135|124:135|77:165|51:250,1,160
48,274,164240,1,0,0:0:0:0:
363,315,164415,1,0,0:0:0:0:
349,292,164502,2,0,B|453:260|453:260|403:180,1,179.999994506836
263,169,164764,6,0,B|246:216|246:216|261:253|261:253|245:288|245:288|259:344,1,179.999994506836,4|0,0:0|0:0,0:0:0:0:
185,346,165112,1,8,0:0:0:0:
276,71,165287,1,0,0:0:0:0:
251,67,165374,2,0,B|214:82|166:69|166:69|182:106|177:170,1,160
74,168,165636,2,0,P|91:204|226:237,1,179.999994506836
312,215,165897,1,0,0:0:0:0:
318,250,165985,1,0,0:0:0:0:
309,284,166072,1,0,0:0:0:0:
287,312,166159,1,0,0:0:0:0:
258,333,166246,1,0,0:0:0:0:
221,342,166333,6,0,P|326:351|377:291,1,179.999994506836,0|8,0:0|0:0,0:0:0:0:
243,64,166682,1,0,0:0:0:0:
265,76,166769,2,0,B|311:158|311:158|233:176,1,160
97,120,167031,2,0,B|153:235|153:235|194:271,1,179.999994506836
44,208,167293,2,0,B|83:288|83:288|152:349,1,179.999994506836
278,284,167554,6,0,P|290:341|304:276,1,179.999994506836,4|0,0:0|0:0,0:0:0:0:
300,309,167903,1,8,0:0:0:0:
470,262,168078,1,0,0:0:0:0:
438,270,168165,2,0,P|391:197|308:163,1,160
250,153,168426,1,0,0:0:0:0:
106,281,168601,1,0,0:0:0:0:
109,254,168688,1,0,0:0:0:0:
113,227,168775,1,0,0:0:0:0:
117,200,168862,1,0,0:0:0:0:
121,173,168950,5,0,0:0:0:0:
238,163,169124,2,0,P|222:99|256:143,1,179.999994506836,8|8,0:0|0:0,0:0:0:0:
200,15,169473,1,0,0:0:0:0:
239,13,169560,2,0,P|328:72|343:141,1,160
315,200,169822,2,0,B|373:218|373:218|454:316,1,179.999994506836
383,348,170083,1,0,0:0:0:0:
142,249,170258,1,0,0:0:0:0:
112,243,170345,6,0,B|111:205|111:205|97:172|100:144|100:144|89:116|89:116|94:83|94:83|88:49,1,179.999994506836,4|0,0:0|0:0,0:0:0:0:
90,43,170694,1,8,0:0:0:0:
152,306,170868,1,0,0:0:0:0:
152,306,170955,2,0,B|231:311|231:311|292:258,1,160
252,173,171217,2,0,P|375:212|409:179,1,179.999994506836
452,124,171479,1,0,0:0:0:0:
444,98,171566,1,0,0:0:0:0:
431,73,171653,1,0,0:0:0:0:
410,55,171740,5,0,0:0:0:0:
86,58,171915,1,0,0:0:0:0:
134,186,172089,1,8,0:0:0:0:
107,192,172176,1,0,0:0:0:0:
88,206,172264,2,0,L|46:250,1,59.9999981689454
135,276,172438,2,0,L|93:320,1,59.9999981689454
170,134,172612,2,0,L|228:121,1,59.9999981689454
272,187,172787,1,0,0:0:0:0:
289,183,172874,1,0,0:0:0:0:
309,181,172961,2,0,P|329:184|309:183,1,59.9999981689454
242,310,173136,6,0,B|273:296|273:296|306:304|306:304|339:292|339:292|370:300|370:300|421:287,1,179.999994506836,4|0,0:0|0:0,0:0:0:0:
437,284,173485,1,8,0:0:0:0:
46,203,173659,1,0,0:0:0:0:
37,170,173746,2,0,B|69:143|112:149|112:149|147:126|189:141,1,160
163,237,174008,2,0,B|226:238|226:238|338:197,1,179.999994506836
357,98,174269,1,0,0:0:0:0:
390,112,174357,1,0,0:0:0:0:
416,136,174444,1,0,0:0:0:0:
433,167,174531,1,0,0:0:0:0:
437,202,174618,1,0,0:0:0:0:
431,237,174705,6,0,P|421:275|294:308,1,179.999994506836,8|0,0:0|0:0,0:0:0:0:
78,238,175054,1,0,0:0:0:0:
101,259,175141,2,0,B|150:262|150:262|262:235,1,160
287,223,175403,1,0,0:0:0:0:
411,61,175578,1,0,0:0:0:0:
387,63,175665,1,0,0:0:0:0:
367,88,175752,1,0,0:0:0:0:
343,90,175839,1,0,0:0:0:0:
269,111,175926,6,0,B|265:64|265:64|239:75|239:75|212:64|212:64|186:75|186:75|161:63|161:63|134:75,1,179.999994506836,4|0,0:0|0:0,0:0:0:0:
119,75,176275,1,8,0:0:0:0:
316,321,176450,1,0,0:0:0:0:
316,321,176537,2,0,B|346:297|346:297|190:275,1,160
147,192,176798,2,0,L|337:220,1,179.999994506836
297,133,177060,2,0,L|375:124,1,75.0000028610231
339,49,177235,2,0,L|260:42,1,75.0000028610231
176,36,177409,1,0,0:0:0:0:
166,54,177496,6,0,P|162:121|176:55,1,179.999994506836,8|8,0:0|0:0,0:0:0:0:
131,298,177845,1,0,0:0:0:0:
115,276,177932,2,0,B|70:208|70:208|58:117,1,160
136,60,178194,1,0,0:0:0:0:
136,60,178281,2,0,L|213:52,1,75.0000028610231
172,172,178455,1,0,0:0:0:0:
172,172,178542,2,0,L|249:164,1,75.0000028610231
212,283,178717,6,0,B|264:269|294:310|341:306|383:249,1,179.999994506836,4|0,0:0|0:0,0:0:0:0:
389,235,179066,1,8,0:0:0:0:
173,62,179240,1,0,0:0:0:0:
178,86,179328,2,0,B|187:143|137:180|137:180|166:204|203:208,1,160
73,106,179589,2,0,P|37:196|99:269,1,179.999994506836
202,313,179851,1,0,0:0:0:0:
230,290,179938,1,0,0:0:0:0:
258,268,180025,1,0,0:0:0:0:
316,215,180112,6,0,P|384:238|423:338,1,179.999994506836
423,332,180374,1,0,0:0:0:0:
423,332,180461,1,0,0:0:0:0:
385,126,180636,1,0,0:0:0:0:
374,97,180723,2,0,B|331:47|264:62|242:113,1,160
312,141,180985,1,0,0:0:0:0:
100,210,181159,1,0,0:0:0:0:
120,227,181246,1,0,0:0:0:0:
137,51,181421,1,0,0:0:0:0:
166,47,181508,6,0,B|199:50|234:37|234:37|200:86|217:148,1,179.999994506836,4|0,0:0|0:0,0:0:0:0:
217,172,181857,1,8,0:0:0:0:
312,311,182031,1,0,0:0:0:0:
327,287,182118,2,0,B|281:287|281:287|223:249|223:249|167:249,1,160
121,316,182380,2,0,P|92:231|155:164,1,179.999994506836
217,172,182641,1,0,0:0:0:0:
428,279,182816,5,0,0:0:0:0:
417,254,182903,1,0,0:0:0:0:
405,229,182990,1,0,0:0:0:0:
394,204,183077,1,0,0:0:0:0:
172,183,183252,6,0,P|148:133|190:163,1,139.999995727539,8|0,0:0|0:0,0:0:0:0:
250,304,183514,2,0,P|196:317|234:281,1,139.999995727539
366,309,183775,6,0,B|424:277|418:185|337:168|337:168|266:153|264:61|340:29|402:70|412:128|348:176,1,450.000017166138
76,162,184647,5,0,0:0:0:0:
146,322,184909,2,0,L|172:168,1,150.000005722046
231,280,185171,2,0,L|257:126,1,150.000005722046
445,244,185519,1,0,0:0:0:0:
445,244,185607,1,0,0:0:0:0:
445,244,185694,5,0,0:0:0:0:
158,59,186043,1,0,0:0:0:0:
135,218,186304,1,0,0:0:0:0:
388,95,186479,1,0,0:0:0:0:
382,116,186566,1,0,0:0:0:0:
251,233,186740,1,0,0:0:0:0:
423,313,186915,1,0,0:0:0:0:
378,334,187002,1,0,0:0:0:0:
337,342,187089,6,0,B|360:227|274:129|274:129|250:216,1,300.000011444092
45,204,187700,2,0,B|90:240|90:240|195:252,1,150.000005722046
183,322,187961,1,0,0:0:0:0:
280,108,188136,1,0,0:0:0:0:
356,313,188310,2,0,P|397:306|437:274,1,75.0000028610231
476,224,188485,5,0,0:0:0:0:
144,65,188833,2,0,B|148:160|270:142|274:239,1,225.000008583069
381,44,189269,1,0,0:0:0:0:
361,55,189357,2,0,B|330:64|283:53|283:53|308:131,1,150.000005722046
133,248,189705,1,0,0:0:0:0:
150,234,189793,1,0,0:0:0:0:
167,220,189880,5,0,0:0:0:0:
377,305,190229,1,0,0:0:0:0:
278,152,190490,2,0,P|198:187|135:149,1,150.000005722046
339,92,190752,2,0,P|271:67|208:103,1,150.000005722046
233,278,191101,1,0,0:0:0:0:
247,295,191188,1,0,0:0:0:0:
264,309,191275,5,0,0:0:0:0:
183,45,191624,1,0,0:0:0:0:
405,159,191886,1,0,0:0:0:0:
194,318,192060,1,0,0:0:0:0:
206,336,192147,1,0,0:0:0:0:
428,308,192322,1,0,0:0:0:0:
366,46,192496,2,0,P|337:69|318:102,1,75.0000028610231
314,241,192671,6,0,B|245:255|186:215|186:215|215:46,1,300.000011444092
110,311,193281,2,0,B|213:330|213:330|263:323,1,150.000005722046
358,305,193543,1,0,0:0:0:0:
111,60,193717,2,0,P|94:142|114:209,1,150.000005722046
254,96,193979,1,0,0:0:0:0:
276,92,194066,5,0,0:0:0:0:
83,278,194415,2,0,B|156:282|156:282|221:324|221:324|308:330,1,225.000008583069
447,138,194851,1,0,0:0:0:0:
432,154,194938,2,0,B|387:194|374:245|374:245|353:205,1,150.000005722046
190,71,195287,6,0,P|209:143|214:70,1,179.999994506836
55,217,195810,5,0,0:0:0:0:
412,129,196159,1,0,0:0:0:0:
404,203,196246,1,0,0:0:0:0:
232,302,196508,2,0,L|183:303,1,50
271,229,196682,2,0,L|222:230,1,50
265,156,196857,5,0,0:0:0:0:
75,30,197205,2,0,B|46:115|95:174|95:174|143:92|239:74,1,320
311,79,197641,1,0,0:0:0:0:
413,230,197903,2,0,L|447:180,1,50
310,228,198078,2,0,L|276:278,1,50
410,351,198252,5,0,0:0:0:0:
92,260,198601,1,0,0:0:0:0:
342,73,198950,1,0,0:0:0:0:
265,78,199037,1,0,0:0:0:0:
208,333,199298,1,0,0:0:0:0:
219,323,199386,1,0,0:0:0:0:
246,310,199473,1,0,0:0:0:0:
274,300,199560,1,0,0:0:0:0:
321,293,199647,5,0,0:0:0:0:
113,80,199996,2,0,B|152:173|268:146|268:146|316:215|396:174,1,320
341,108,200432,1,0,0:0:0:0:
104,275,200694,1,0,0:0:0:0:
118,278,200781,1,0,0:0:0:0:
191,313,200868,1,0,0:0:0:0:
205,316,200955,1,0,0:0:0:0:
283,344,201043,6,0,B|323:285|323:285|323:200,1,139.999995727539
103,151,201391,2,0,P|167:187|245:177,1,139.999995727539
414,57,201740,1,0,0:0:0:0:
426,74,201828,2,0,L|382:133,1,69.9999978637696
191,256,202089,1,0,0:0:0:0:
212,83,202264,1,0,0:0:0:0:
339,188,202438,6,0,P|393:216|462:224,1,100
316,248,202787,2,0,P|334:305|377:360,1,100
258,274,203136,2,0,P|231:329|221:398,1,100
198,252,203485,2,0,P|141:270|85:313,1,100
203,34,203833,5,0,0:0:0:0:
229,64,203921,1,0,0:0:0:0:
254,80,204008,1,0,0:0:0:0:
278,85,204095,1,0,0:0:0:0:
293,81,204182,2,0,B|339:83|383:60|383:60|383:114|363:166|363:166|326:256|494:266|465:156|417:142,1,419.999987182618
154,325,204880,2,0,B|202:253|110:220|138:204|113:122|219:118,1,255.000004863739
243,188,205229,5,0,0:0:0:0:
41,276,205403,1,0,0:0:0:0:
330,306,205578,6,0,L|366:271,1,50
447,149,205717,6,0,L|427:202,1,50
321,173,205857,6,0,P|293:82|125:104,1,225.000008583069,4|0,0:0|0:0,0:0:0:0:
219,152,206187,2,0,L|206:217,1,50
179,268,206362,1,0,0:0:0:0:
197,275,206449,1,0,0:0:0:0:
380,54,206623,5,0,0:0:0:0:
365,54,206711,1,0,0:0:0:0:
350,55,206798,1,0,0:0:0:0:
335,56,206885,1,0,0:0:0:0:
320,57,206972,2,0,L|294:112,1,50
410,228,207147,1,0,0:0:0:0:
421,237,207234,1,0,0:0:0:0:
432,246,207321,1,0,0:0:0:0:
443,255,207408,1,0,0:0:0:0:
453,265,207496,2,0,L|381:294,1,50
223,272,207670,2,0,L|246:210,1,50
164,114,207844,2,0,L|181:182,1,50
115,281,208019,5,0,0:0:0:0:
99,276,208106,1,0,0:0:0:0:
84,271,208193,1,0,0:0:0:0:
70,266,208280,1,0,0:0:0:0:
54,262,208368,2,0,L|74:200,1,50
227,148,208542,1,0,0:0:0:0:
216,137,208629,1,0,0:0:0:0:
206,125,208717,1,0,0:0:0:0:
196,113,208804,1,0,0:0:0:0:
185,102,208891,2,0,L|124:91,1,50
251,37,209065,2,0,L|312:48,1,50
382,138,209240,2,0,L|321:127,1,50
227,229,209414,5,0,0:0:0:0:
236,240,209501,1,0,0:0:0:0:
246,250,209589,1,0,0:0:0:0:
256,260,209676,1,0,0:0:0:0:
267,269,209763,2,0,L|279:206,1,50
421,191,209937,1,0,0:0:0:0:
425,205,210025,1,0,0:0:0:0:
429,219,210112,1,0,0:0:0:0:
433,233,210199,1,0,0:0:0:0:
437,247,210286,2,0,L|373:288,1,50
284,315,210461,2,0,L|342:329,1,50
208,346,210635,2,0,L|146:356,1,50
220,264,210810,6,0,L|200:217,1,50
141,75,210984,1,0,0:0:0:0:
137,89,211071,1,0,0:0:0:0:
132,103,211158,2,0,L|188:118,1,50
398,148,211333,2,0,L|344:164,1,50
286,320,211507,1,0,0:0:0:0:
293,307,211594,1,0,0:0:0:0:
298,292,211682,2,0,L|274:233,1,50
167,223,211856,2,0,L|212:191,1,50
270,76,212030,2,0,L|299:139,1,50
376,232,212205,5,0,0:0:0:0:
395,216,212292,1,0,0:0:0:0:
417,204,212379,1,0,0:0:0:0:
441,197,212467,1,0,0:0:0:0:
465,194,212554,2,0,L|478:145,1,50
337,105,212728,1,0,0:0:0:0:
327,116,212815,1,0,0:0:0:0:
316,126,212903,1,0,0:0:0:0:
307,138,212990,1,0,0:0:0:0:
296,149,213077,2,0,L|271:199,1,50
132,152,213251,2,0,L|187:153,1,50
218,260,213426,2,0,L|162:258,1,50
219,73,213600,5,0,0:0:0:0:
233,76,213687,1,0,0:0:0:0:
248,77,213775,1,0,0:0:0:0:
262,77,213862,1,0,0:0:0:0:
276,74,213949,2,0,L|311:122,1,50
371,241,214124,1,0,0:0:0:0:
385,242,214211,1,0,0:0:0:0:
399,241,214298,1,0,0:0:0:0:
413,239,214385,1,0,0:0:0:0:
427,239,214472,2,0,L|355:202,1,50
294,332,214647,1,0,0:0:0:0:
289,312,214734,1,0,0:0:0:0:
285,292,214821,1,0,0:0:0:0:
282,272,214908,1,0,0:0:0:0:
281,251,214996,6,0,L|234:207,1,50
99,176,215170,1,0,0:0:0:0:
98,146,215257,1,0,0:0:0:0:
98,117,215344,2,0,L|151:139,1,50
256,85,215519,2,0,L|268:28,1,50
335,182,215693,1,0,0:0:0:0:
336,161,215780,1,0,0:0:0:0:
339,141,215868,2,0,L|361:189,1,50
434,266,216042,1,0,0:0:0:0:
435,241,216129,1,0,0:0:0:0:
436,215,216217,1,0,0:0:0:0:
437,190,216304,1,0,0:0:0:0:
437,165,216391,6,0,L|415:118,1,50
277,52,216565,1,0,0:0:0:0:
288,62,216653,1,0,0:0:0:0:
300,70,216740,1,0,0:0:0:0:
312,78,216827,1,0,0:0:0:0:
323,86,216914,2,0,L|311:152,1,50
289,293,217089,1,0,0:0:0:0:
283,279,217176,1,0,0:0:0:0:
277,265,217263,1,0,0:0:0:0:
271,251,217350,1,0,0:0:0:0:
263,238,217437,2,0,L|206:207,1,50
75,94,217612,2,0,L|116:138,1,50
207,123,217786,6,0,P|295:81|384:120,1,200
207,123,218484,1,0,0:0:0:0:
383,119,218833,1,0,0:0:0:0:
101,275,219182,2,0,B|149:290|149:290|246:276|246:276|303:294,1,200
101,275,219879,1,0,0:0:0:0:
294,291,220228,1,0,0:0:0:0:
232,50,220577,6,0,B|294:88|294:88|363:208,1,200
202,197,221275,2,0,B|358:198|358:198|337:244,1,200
66,190,221972,2,0,P|94:145|202:202,1,200
298,307,222670,2,0,B|199:294|199:294|220:245|197:183,1,200
256,192,223368,12,0,227205,0:0:0:0:
175,259,227554,6,0,L|128:256,1,37.5000014305115
124,170,227728,2,0,L|77:167,1,37.5000014305115
382,343,227903,6,0,L|373:292,1,37.5000014305115
290,289,228077,2,0,L|281:238,1,37.5000014305115
264,24,228251,6,0,L|306:42,1,37.5000014305115
317,125,228426,2,0,L|359:143,1,37.5000014305115
101,67,228600,6,0,P|164:59|119:95,1,160,8|0,0:0|0:0,0:0:0:0:
103,318,228949,6,0,B|149:308|188:267|188:267|285:316|383:293|433:206|433:157,1,400,4|8,0:0|0:0,0:0:0:0:
274,125,229472,1,0,0:0:0:0:
260,101,229560,2,0,B|293:84|293:84|229:35|150:54,1,179.999994506836
73,75,229821,1,0,0:0:0:0:
191,202,229996,2,0,B|168:133|168:133|237:188|297:200,1,200,8|0,0:0|0:0,0:0:0:0:
428,315,230344,5,0,0:0:0:0:
404,301,230432,1,0,0:0:0:0:
330,297,230519,1,0,0:0:0:0:
306,311,230606,1,0,0:0:0:0:
234,296,230693,2,0,B|199:296|177:321|177:321|151:266|103:227,1,179.999994506836,8|0,0:0|0:0,0:0:0:0:
54,313,230955,2,0,P|9:230|56:146,1,179.999994506836
65,45,231217,2,0,B|157:66|153:160|153:160|128:148,1,179.999994506836,0|8,0:0|0:0,0:0:0:0:
204,40,231478,1,0,0:0:0:0:
213,65,231565,2,0,P|234:114|273:142,1,89.9999972534181
312,49,231740,6,0,B|357:81|363:126|363:126|369:171|418:204,1,179.999994506836
223,218,232089,2,0,P|207:127|278:131,1,179.999994506836,8|0,0:0|0:0,0:0:0:0:
223,218,232350,2,0,P|152:277|120:213,1,179.999994506836
223,218,232612,2,0,P|309:249|270:309,1,179.999994506836,0|8,0:0|0:0,0:0:0:0:
34,218,232961,2,0,P|42:180|89:144,1,89.9999972534181
160,102,233135,5,0,0:0:0:0:
194,73,233222,1,0,0:0:0:0:
237,58,233310,1,0,0:0:0:0:
281,55,233397,1,0,0:0:0:0:
319,77,233484,2,0,B|395:184|395:184|399:120,1,179.999994506836,8|0,0:0|0:0,0:0:0:0:
316,209,233746,2,0,P|405:266|474:206,1,179.999994506836
483,158,234007,1,0,0:0:0:0:
251,336,234182,1,8,0:0:0:0:
270,322,234269,2,0,B|222:295|222:295|113:309,1,160
59,250,234530,6,0,B|43:151|43:151|150:177|198:107|198:107|250:31|312:44,1,400,4|8,0:0|0:0,0:0:0:0:
299,240,235054,1,0,0:0:0:0:
319,257,235141,2,0,P|411:277|474:204,1,179.999994506836
381,189,235403,1,0,0:0:0:0:
388,163,235490,1,0,0:0:0:0:
394,133,235577,2,0,B|407:65|407:65|350:116|289:140,1,200,8|0,0:0|0:0,0:0:0:0:
142,308,235926,6,0,P|184:298|242:321,1,89.9999972534181
142,308,236100,2,0,P|99:317|41:294,1,89.9999972534181
103,221,236275,2,0,B|46:104|46:104|97:129,1,179.999994506836,8|0,0:0|0:0,0:0:0:0:
197,173,236536,2,0,B|315:225|315:225|289:175,1,179.999994506836
241,70,236798,2,0,B|218:25|218:25|336:80,1,179.999994506836,0|8,0:0|0:0,0:0:0:0:
431,287,237147,1,0,0:0:0:0:
174,320,237321,6,0,P|240:301|169:292,1,179.999994506836
63,331,237583,1,0,0:0:0:0:
76,307,237670,2,0,B|103:220|103:220|81:129,1,179.999994506836,8|0,0:0|0:0,0:0:0:0:
188,169,237932,2,0,B|173:110|173:110|234:131|311:130,1,179.999994506836
218,39,238193,1,0,0:0:0:0:
253,32,238280,1,0,0:0:0:0:
285,30,238368,2,0,P|371:39|434:81,1,160,8|0,0:0|0:0,0:0:0:0:
357,282,238717,5,0,0:0:0:0:
378,297,238804,1,0,0:0:0:0:
455,294,238891,2,0,P|453:237|468:187,1,89.9999972534181
392,162,239065,1,8,0:0:0:0:
346,165,239153,1,0,0:0:0:0:
305,185,239240,1,0,0:0:0:0:
278,220,239327,1,0,0:0:0:0:
229,281,239414,6,0,B|189:293|154:331|154:331|128:76|-23:132|5:281|72:275|136:200|136:200|186:142,1,560,4|0,0:0|0:0,0:0:0:0:
123,88,240112,6,0,P|209:63|269:142,1,200,4|0,0:0|0:0,0:0:0:0:
268,334,240374,1,0,0:0:0:0:
293,326,240461,2,0,B|316:284|352:254|352:254|306:251|267:215,1,179.999994506836,8|0,0:0|0:0,0:0:0:0:
404,335,240722,2,0,P|448:252|410:176,1,179.999994506836
329,130,240984,1,0,0:0:0:0:
36,233,241158,2,0,B|71:293|71:293|86:210|127:172,1,200,8|0,0:0|0:0,0:0:0:0:
231,272,241507,5,0,0:0:0:0:
213,230,241594,1,0,0:0:0:0:
231,188,241682,1,0,0:0:0:0:
213,146,241769,1,0,0:0:0:0:
163,87,241856,2,0,B|139:42|139:42|268:49,1,179.999994506836,8|0,0:0|0:0,0:0:0:0:
439,184,242118,2,0,P|382:153|359:40,1,179.999994506836
455,83,242379,1,0,0:0:0:0:
327,251,242554,2,0,P|366:258|445:319,1,139.999995727539,8|0,0:0|0:0,0:0:0:0:
126,324,242903,6,0,B|146:235|146:235|214:171,1,179.999994506836
270,281,243164,1,0,0:0:0:0:
234,283,243251,2,0,P|128:223|85:166,1,179.999994506836,8|0,0:0|0:0,0:0:0:0:
103,84,243513,2,0,B|135:78|188:99|188:99|234:63|281:53,1,179.999994506836
361,35,243775,1,0,0:0:0:0:
441,209,243949,2,0,P|376:210|445:232,1,200,8|0,0:0|0:0,0:0:0:0:
92,182,244298,6,0,P|127:212|126:264,1,89.9999972534181
167,324,244472,2,0,P|132:294|133:242,1,89.9999972534181
171,146,244647,1,8,0:0:0:0:
201,112,244734,1,0,0:0:0:0:
234,99,244821,2,0,L|157:48,1,69.9999978637696
245,182,244996,2,0,L|322:233,1,69.9999978637696
462,269,245170,2,0,B|395:276|395:276|303:331|303:331|221:340,1,240
170,251,245519,1,0,0:0:0:0:
153,268,245606,1,0,0:0:0:0:
96,324,245693,6,0,P|42:276|69:151,1,200,4|0,0:0|0:0,0:0:0:0:
157,180,245955,1,0,0:0:0:0:
156,149,246042,2,0,B|163:66|163:66|189:109|228:136,1,179.999994506836,8|0,0:0|0:0,0:0:0:0:
270,238,246304,1,0,0:0:0:0:
309,217,246391,1,0,0:0:0:0:
353,215,246478,1,0,0:0:0:0:
396,227,246565,1,0,0:0:0:0:
351,86,246740,2,0,B|395:57|395:57|324:20|246:56,1,200,8|0,0:0|0:0,0:0:0:0:
69,175,247089,6,0,B|102:38|102:37|102:37|119:89,1,179.999994506836
179,294,247437,1,8,0:0:0:0:
224,135,247612,1,0,0:0:0:0:
233,160,247699,2,0,B|285:182|350:148|350:148|379:209,1,179.999994506836
373,227,247961,1,0,0:0:0:0:
43,270,248135,2,0,B|79:243|79:243|204:218,1,160,8|0,0:0|0:0,0:0:0:0:
409,337,248484,6,0,P|356:330|405:324,1,134.999995880127,8|0,0:0|0:0,0:0:0:0:
441,261,248833,1,0,0:0:0:0:
245,80,249007,1,0,0:0:0:0:
281,100,249094,1,0,0:0:0:0:
322,107,249182,1,0,0:0:0:0:
363,102,249269,1,0,0:0:0:0:
399,81,249356,1,0,0:0:0:0:
95,278,249530,2,0,P|114:296|128:326,1,55.0000016784668
172,93,249705,2,0,P|153:75|139:45,1,55.0000016784668
343,182,249967,6,0,B|300:193|300:193|256:184|256:184|207:200|197:250,1,179.999994506836
443,290,250315,6,0,B|400:290|358:305|358:305|408:225|408:225|473:190|473:128|473:128|431:112|431:112|365:85|273:42|390:-87|558:75|315:117|315:117|293:117,1,699.999978637696,4|0,0:0|0:0,0:0:0:0:
250,90,251275,6,0,P|155:66|69:231,1,300,4|0,0:0|0:0,0:0:0:0:
171,175,251624,2,0,P|168:264|102:326,1,179.999994506836,8|0,0:0|0:0,0:0:0:0:
63,216,251885,2,0,B|113:227|113:227|171:278|171:278|224:291,1,179.999994506836
365,322,252147,2,0,B|277:270|314:168,1,160
412,60,252408,1,0,0:0:0:0:
413,69,252495,1,0,0:0:0:0:
414,78,252583,1,0,0:0:0:0:
385,110,252670,6,0,B|311:112|311:112|212:55,1,179.999994506836
164,208,252932,1,0,0:0:0:0:
172,232,253019,2,0,P|217:260|146:259,1,179.999994506836,8|0,0:0|0:0,0:0:0:0:
281,202,253280,2,0,B|310:245|306:299|280:336|280:336|321:328,1,179.999994506836
471,191,253542,2,0,B|383:179|339:79,1,160
224,56,253804,1,0,0:0:0:0:
224,56,253891,2,0,P|264:31|306:38,1,89.9999972534181
243,158,254065,6,0,B|219:185|188:200|188:200|221:220|221:220|190:235|164:267,1,179.999994506836
75,188,254414,2,0,B|56:330|56:330|105:297,1,179.999994506836,8|0,0:0|0:0,0:0:0:0:
276,307,254676,2,0,P|190:333|165:265,1,179.999994506836
300,232,254937,2,0,B|356:204|407:220|407:220|407:183|428:146,1,160
388,65,255199,1,0,0:0:0:0:
366,39,255286,1,0,0:0:0:0:
350,61,255374,1,0,0:0:0:0:
333,82,255461,6,0,P|291:60|235:55,1,89.9999972534181
92,57,255635,2,0,B|103:95|73:127|73:127|135:129|181:176,1,179.999994506836,0|8,0:0|0:0,0:0:0:0:
94,277,255984,2,0,L|31:334,1,80
193,323,256158,2,0,L|256:266,1,80
375,209,256333,2,0,B|422:215|422:215|455:277|413:329,1,160
375,209,256594,2,0,B|328:203|328:203|295:141|337:89,1,160
408,133,256856,6,0,B|379:153|379:153|352:149|352:149|327:166|327:166|297:162|297:162|273:180|273:180|245:177,1,179.999994506836,4|0,0:0|0:0,0:0:0:0:
183,96,257205,2,0,P|144:197|183:260,1,179.999994506836,8|0,0:0|0:0,0:0:0:0:
89,320,257467,2,0,B|44:357|44:357|167:351,1,179.999994506836
272,354,257728,2,0,P|238:272|149:259,1,160
63,222,257990,1,0,0:0:0:0:
48,179,258077,1,0,0:0:0:0:
57,135,258164,1,0,0:0:0:0:
83,98,258251,6,0,B|148:109|148:109|263:60,1,179.999994506836
220,189,258513,1,0,0:0:0:0:
245,196,258600,2,0,B|364:144|364:144|363:194,1,179.999994506836,8|0,0:0|0:0,0:0:0:0:
342,323,258862,2,0,P|246:334|184:272,1,179.999994506836
130,183,259124,2,0,B|116:260|116:260|62:322,1,160
32,190,259385,1,0,0:0:0:0:
39,164,259472,1,0,0:0:0:0:
47,138,259560,1,0,0:0:0:0:
68,65,259647,6,0,B|113:60|113:60|140:71|140:71|163:48|163:48|189:79|241:79,1,179.999994506836
371,61,259996,2,0,B|356:126|382:181|382:181|320:161,1,179.999994506836,8|0,0:0|0:0,0:0:0:0:
253,154,260257,1,0,0:0:0:0:
375,301,260432,1,0,0:0:0:0:
392,275,260519,2,0,B|276:236|276:236|230:248,1,160
99,264,260780,1,0,0:0:0:0:
119,246,260868,1,0,0:0:0:0:
131,222,260955,1,0,0:0:0:0:
135,195,261042,5,0,0:0:0:0:
251,44,261217,2,0,P|144:42|98:97,1,179.999994506836,0|8,0:0|0:0,0:0:0:0:
194,126,261478,1,0,0:0:0:0:
188,139,261565,2,0,L|147:188,1,50
265,176,261740,2,0,L|253:238,1,50
350,165,261914,2,0,L|371:225,1,50
448,154,262070,2,0,L|408:121,1,50
434,53,262224,2,0,L|483:59,2,50
312,56,262437,6,0,B|280:76|275:109|275:109|235:75|162:48|90:127|103:186,1,300,4|0,0:0|0:0,0:0:0:0:
201,178,262785,2,0,B|145:49|145:49|74:32,1,200,8|0,0:0|0:0,0:0:0:0:
127,248,263047,2,0,P|216:278|302:173,2,240
50,219,263657,2,0,P|44:260|72:308,1,80
129,345,263832,6,0,B|217:318|217:318|306:320,1,179.999994506836
455,319,264093,1,0,0:0:0:0:
435,299,264181,2,0,B|394:245|325:222|325:222|343:198|373:200,1,179.999994506836,8|0,0:0|0:0,0:0:0:0:
299,131,264442,2,0,P|400:122|445:168,1,160
391,22,264704,2,0,P|321:56|299:131,1,160
439,157,264966,2,0,P|338:166|293:120,1,160
206,47,265227,6,0,B|197:95|173:130|173:130|198:162|211:222,1,179.999994506836,4|0,0:0|0:0,0:0:0:0:
93,325,265576,1,8,0:0:0:0:
97,298,265663,1,0,0:0:0:0:
100,271,265750,1,0,0:0:0:0:
102,246,265838,2,0,B|166:287|166:287|259:284,1,160
385,356,266099,2,0,B|409:282|454:247|454:247|420:248,1,160
330,157,266361,2,0,L|261:197,2,80
433,68,266623,6,0,B|402:79|402:79|369:64|338:73|338:73|306:60|306:60|262:72,1,165.000005035401,4|0,0:0|0:0,0:0:0:0:
91,62,266971,2,0,P|125:68|184:87,1,80,8|0,0:0|0:0,0:0:0:0:
209,249,267146,1,0,0:0:0:0:
191,268,267233,2,0,P|133:227|194:157,1,160
281,301,267495,2,0,P|300:219|268:137,1,160
378,199,267756,1,0,0:0:0:0:
370,171,267843,1,0,0:0:0:0:
363,141,267931,1,0,0:0:0:0:
358,113,268018,6,0,B|425:54|425:54|310:34,1,179.999994506836,4|0,0:0|0:0,0:0:0:0:
215,44,268367,1,8,0:0:0:0:
176,66,268454,1,0,0:0:0:0:
152,104,268541,1,0,0:0:0:0:
140,147,268628,2,0,B|128:185|86:218|86:218|162:244,1,160
156,337,268890,2,0,P|227:301|243:208,1,160
306,62,269152,1,0,0:0:0:0:
339,83,269239,1,0,0:0:0:0:
344,106,269326,1,0,0:0:0:0:
379,128,269413,6,0,P|421:171|404:281,1,179.999994506836
334,215,269675,2,0,P|283:213|235:237,1,89.9999972534181,0|8,0:0|0:0,0:0:0:0:
124,327,269849,1,0,0:0:0:0:
116,304,269937,1,0,0:0:0:0:
108,281,270024,2,0,B|94:223|108:180|108:180|48:209,1,160
200,159,270285,2,0,P|140:93|57:103,1,160
183,245,270547,1,0,0:0:0:0:
222,248,270634,1,0,0:0:0:0:
259,233,270721,1,0,0:0:0:0:
349,169,270809,6,0,P|398:208|332:189,1,179.999994506836,4|0,0:0|0:0,0:0:0:0:
364,200,271157,2,0,B|336:175|330:127|330:127|324:78|291:50,1,160,8|0,0:0|0:0,0:0:0:0:
176,114,271419,2,0,B|209:120|209:120|170:63|98:55,1,160
43,267,271681,2,0,B|65:237|113:228|113:228|161:219|186:184,1,160
240,258,271942,1,0,0:0:0:0:
251,296,272030,1,0,0:0:0:0:
282,321,272117,1,0,0:0:0:0:
321,328,272204,5,0,0:0:0:0:
320,249,272291,1,0,0:0:0:0:
340,237,272378,1,0,0:0:0:0:
361,225,272466,1,0,0:0:0:0:
379,215,272553,2,0,P|407:150|350:33,1,189.999994926453,8|0,0:0|0:0,0:0:0:0:
296,105,272814,2,0,P|289:171|276:104,1,189.999994926453,8|0,0:0|0:0,0:0:0:0:
289,33,273076,1,8,0:0:0:0:
253,257,273250,2,0,P|192:220|169:92,1,189.999994926453,8|0,0:0|0:0,0:0:0:0:
333,255,273599,5,4,0:0:0:0:
108,295,273948,1,8,0:0:0:0:
118,275,274035,2,0,B|129:232|129:232|108:183|118:117,1,150.000005722046
309,289,274471,1,0,0:0:0:0:
454,168,274646,1,8,0:0:0:0:
205,89,274820,2,0,L|283:88,1,75.0000028610231
364,32,274995,6,0,B|380:61|389:95|381:144|322:180|322:180|278:208|277:258|318:299,1,300.000011444092,0|8,0:0|0:0,0:0:0:0:
180,235,275431,2,0,P|246:238|315:300,1,150.000005722046
67,34,275867,2,0,B|69:75|69:75|97:139|97:139|100:186,1,150.000005722046,0|8,0:0|0:0,0:0:0:0:
273,48,276216,2,0,L|233:108,1,64.9999970245363
193,163,276390,5,0,0:0:0:0:
449,286,276739,1,8,0:0:0:0:
430,298,276826,1,0,0:0:0:0:
121,303,277000,2,0,P|197:322|301:218,1,225.000008583069
186,207,277437,1,8,0:0:0:0:
423,186,277611,2,0,P|394:168|377:124,1,64.9999970245363
366,67,277785,6,0,B|279:27|241:104|202:151|141:149|90:104,1,300.000011444092,0|8,0:0|0:0,0:0:0:0:
158,47,278221,1,0,0:0:0:0:
298,239,278396,1,0,0:0:0:0:
191,255,278657,1,0,0:0:0:0:
83,268,278919,1,0,0:0:0:0:
77,246,279006,1,0,0:0:0:0:
291,335,279181,5,4,0:0:0:0:
408,89,279530,1,8,0:0:0:0:
388,100,279617,2,0,B|335:87|335:87|227:106,1,150.000005722046
358,255,280053,1,0,0:0:0:0:
117,149,280227,1,8,0:0:0:0:
281,333,280402,2,0,P|259:293|255:264,1,64.9999970245363
151,265,280576,6,0,P|195:189|360:274,1,300.000011444092,0|8,0:0|0:0,0:0:0:0:
332,145,281012,2,0,L|249:285,1,150.000005722046
68,41,281448,2,0,B|111:64|129:85|129:85|155:76|218:78,1,150.000005722046,0|8,0:0|0:0,0:0:0:0:
78,210,281797,2,0,L|58:278,1,64.9999970245363
35,343,281971,5,0,0:0:0:0:
348,260,282320,1,8,0:0:0:0:
326,254,282407,1,0,0:0:0:0:
176,77,282582,2,0,B|204:147|204:147|184:220|184:220|213:294,1,225.000008583069
301,144,283018,1,8,0:0:0:0:
105,346,283192,2,0,L|88:284,1,64.9999970245363
55,208,283367,5,0,0:0:0:0:
61,191,283454,1,0,0:0:0:0:
114,136,283541,1,0,0:0:0:0:
120,119,283628,1,0,0:0:0:0:
167,53,283716,6,0,L|194:100,1,50
256,20,283857,6,0,L|265:73,1,50
351,23,283997,6,0,L|341:76,1,50
440,54,284136,6,0,L|412:100,1,50
511,116,284276,6,0,L|469:150,1,50
383,210,284415,5,0,0:0:0:0:
354,234,284502,1,0,0:0:0:0:
339,268,284589,1,0,0:0:0:0:
340,305,284676,1,0,0:0:0:0:
351,333,284763,6,0,P|265:349|219:321,1,139.999995727539
202,296,285024,1,0,0:0:0:0:
192,262,285111,1,0,0:0:0:0:
141,74,285286,2,0,L|107:139,1,69.9999978637696
244,45,285460,1,0,0:0:0:0:
404,193,285635,1,0,0:0:0:0:
369,195,285722,1,0,0:0:0:0:
334,201,285809,1,0,0:0:0:0:
300,209,285896,1,0,0:0:0:0:
68,240,286071,1,0,0:0:0:0:
75,220,286158,5,0,0:0:0:0:
321,313,286332,1,0,0:0:0:0:
321,313,286419,1,0,0:0:0:0:
321,313,286507,2,0,B|255:292|255:292|169:302,1,139.999995727539
109,322,286768,1,0,0:0:0:0:
106,300,286856,1,0,0:0:0:0:
165,60,287030,1,0,0:0:0:0:
171,79,287117,1,0,0:0:0:0:
319,182,287292,2,0,P|368:161|447:196,1,139.999995727539
453,267,287553,5,0,0:0:0:0:
241,340,287728,1,0,0:0:0:0:
261,345,287815,1,0,0:0:0:0:
281,348,287902,2,0,P|280:286|198:224,1,139.999995727539
122,144,288164,2,0,L|201:146,1,69.9999978637696
468,99,288425,1,0,0:0:0:0:
448,106,288513,1,0,0:0:0:0:
440,175,288600,1,0,0:0:0:0:
420,182,288687,1,0,0:0:0:0:
94,289,288861,1,0,0:0:0:0:
89,309,288949,5,0,0:0:0:0:
246,344,289123,2,0,L|198:284,1,69.9999978637696
133,185,289297,2,0,B|175:156|192:98|192:98|249:78,1,139.999995727539
249,76,289559,1,0,0:0:0:0:
275,67,289646,1,0,0:0:0:0:
265,205,289821,1,0,0:0:0:0:
270,185,289908,2,0,L|340:183,1,69.9999978637696
436,142,290082,2,0,P|437:222|368:284,1,139.999995727539
241,312,290344,5,0,0:0:0:0:
107,128,290518,1,0,0:0:0:0:
323,198,290693,1,0,0:0:0:0:
107,268,290867,1,0,0:0:0:0:
241,85,291042,5,0,0:0:0:0:
371,266,291216,1,0,0:0:0:0:
371,39,291390,1,0,0:0:0:0:
238,224,291565,1,0,0:0:0:0:
453,153,291739,5,0,0:0:0:0:
238,82,291914,2,0,P|168:112|81:93,1,139.999995727539
208,317,292263,1,0,0:0:0:0:
360,78,292437,5,0,0:0:0:0:
399,337,292611,2,0,P|352:282|286:252,1,139.999995727539
53,271,292960,1,0,0:0:0:0:
137,53,293135,5,0,0:0:0:0:
142,73,293222,1,0,0:0:0:0:
147,93,293309,2,0,L|221:120,1,69.9999978637696
399,195,293483,1,0,0:0:0:0:
381,164,293571,1,0,0:0:0:0:
354,141,293658,1,0,0:0:0:0:
319,135,293745,1,0,0:0:0:0:
287,149,293832,6,0,L|268:226,1,69.9999978637696
104,333,294007,2,0,L|123:256,1,69.9999978637696
195,282,294181,2,0,L|179:350,1,69.9999978637696
73,177,294356,2,0,L|89:109,1,69.9999978637696
199,160,294530,5,0,0:0:0:0:
206,125,294617,1,0,0:0:0:0:
225,96,294704,1,0,0:0:0:0:
254,75,294792,1,0,0:0:0:0:
300,61,294879,1,0,0:0:0:0:
347,70,294966,1,0,0:0:0:0:
386,99,295053,1,0,0:0:0:0:
408,142,295140,1,0,0:0:0:0:
409,184,295228,6,0,L|354:212,1,59.9999981689454
179,237,295402,2,0,L|234:265,1,59.9999981689454
350,316,295576,6,0,L|395:340,4,50
329,303,295924,6,0,B|283:212|283:212|290:119|221:63|114:73|82:174,1,400,4|8,0:0|0:0,0:0:0:0:
167,268,296447,2,0,P|169:230|188:185,1,80
368,42,296621,2,0,P|366:80|347:125,1,80
385,213,296796,1,0,0:0:0:0:
155,345,296970,2,0,B|249:340|249:340|252:280|292:234,1,200
85,75,297319,5,0,0:0:0:0:
110,82,297406,1,0,0:0:0:0:
188,64,297493,1,0,0:0:0:0:
213,71,297580,1,0,0:0:0:0:
202,156,297668,2,0,P|285:117|282:19,1,179.999994506836,8|0,0:0|0:0,0:0:0:0:
377,188,297929,2,0,B|335:156|335:156|290:32,1,179.999994506836
429,87,298191,1,0,0:0:0:0:
308,303,298365,2,0,B|155:315|155:315|207:279,1,200
25,159,298714,6,0,B|72:170|133:127|133:127|170:101|208:113,1,179.999994506836
176,192,298976,1,0,0:0:0:0:
201,183,299063,1,8,0:0:0:0:
334,91,299237,2,0,P|356:56|398:35,1,80
334,90,299412,2,0,P|353:127|350:174,1,80
259,70,299586,1,0,0:0:0:0:
381,267,299761,2,0,P|422:310|353:284,1,200
207,246,300110,5,0,0:0:0:0:
190,204,300197,1,0,0:0:0:0:
192,156,300284,1,0,0:0:0:0:
212,116,300371,1,0,0:0:0:0:
242,88,300458,2,0,P|299:189|372:175,1,179.999994506836,8|0,0:0|0:0,0:0:0:0:
320,112,300720,2,0,P|275:219|331:268,1,179.999994506836
349,187,300982,2,0,P|237:217|233:292,1,179.999994506836
266,339,301243,2,0,B|345:343|345:343|435:284,1,160
474,239,301505,6,0,B|433:169|452:88|452:88|368:117|368:117|334:34|246:35,1,400,4|8,0:0|0:0,0:0:0:0:
163,268,302028,2,0,L|186:346,1,80
71,248,302203,2,0,L|48:170,1,80
144,195,302377,1,0,0:0:0:0:
368,267,302551,2,0,B|385:329|385:329|254:268,1,200
134,54,302900,5,0,0:0:0:0:
113,70,302987,1,0,0:0:0:0:
140,143,303075,1,0,0:0:0:0:
161,127,303162,1,0,0:0:0:0:
182,111,303249,2,0,P|266:78|341:134,1,179.999994506836,8|0,0:0|0:0,0:0:0:0:
248,250,303511,2,0,P|179:197|182:111,1,179.999994506836
334,121,303772,2,0,P|323:207|247:249,1,179.999994506836
255,161,304034,1,0,0:0:0:0:
295,180,304121,1,0,0:0:0:0:
335,200,304208,1,0,0:0:0:0:
403,232,304296,6,0,B|443:252|443:252|388:381|249:331,1,269.999991760254
132,344,304644,2,0,B|101:210|101:210|161:231,1,179.999994506836,8|0,0:0|0:0,0:0:0:0:
219,230,304906,1,0,0:0:0:0:
245,193,304993,1,0,0:0:0:0:
244,148,305080,1,0,0:0:0:0:
228,105,305168,1,0,0:0:0:0:
454,129,305342,2,0,B|398:143|379:184|379:184|374:139|306:93,1,200
100,68,305691,5,0,0:0:0:0:
123,80,305778,1,0,0:0:0:0:
147,91,305865,2,0,P|144:129|121:183,1,89.9999972534181
75,298,306040,2,0,B|145:278|145:278|266:280,1,179.999994506836,8|0,0:0|0:0,0:0:0:0:
373,149,306389,6,0,L|412:258,2,106.666666666667
189,64,306737,5,0,0:0:0:0:
260,52,306825,1,0,0:0:0:0:
331,42,306912,1,0,0:0:0:0:
349,343,307086,6,0,B|277:292|277:292|154:305|154:305|76:247,1,300,4|0,0:0|0:0,0:0:0:0:
83,346,307435,2,0,P|158:306|167:213,1,179.999994506836,8|0,0:0|0:0,0:0:0:0:
64,110,307697,1,0,0:0:0:0:
81,89,307784,2,0,L|160:77,2,80
307,67,308133,2,0,B|312:154|406:151|406:151|450:120,1,200
390,339,308482,5,0,0:0:0:0:
381,304,308569,1,0,0:0:0:0:
354,276,308656,1,0,0:0:0:0:
320,262,308743,1,0,0:0:0:0:
284,263,308830,1,8,0:0:0:0:
108,204,309005,1,0,0:0:0:0:
126,234,309092,2,0,L|121:318,1,80
227,177,309267,2,0,L|232:93,1,80
39,95,309528,2,0,B|39:35|39:35|128:151,1,200
274,289,309877,6,0,P|378:245|398:177,1,179.999994506836
178,87,310226,1,8,0:0:0:0:
146,296,310400,1,0,0:0:0:0:
150,272,310487,2,0,L|212:214,1,80
356,132,310662,2,0,L|294:190,1,80
94,346,310924,2,0,B|91:297|55:255|55:255|89:209|92:158,1,200
196,63,311272,6,0,P|160:73|104:53,1,89.9999972534181
196,63,311447,2,0,P|232:53|288:73,1,89.9999972534181
236,131,311621,1,8,0:0:0:0:
323,286,311796,2,0,L|390:342,1,80
241,286,311970,2,0,L|174:342,1,80
99,297,312144,2,0,P|76:221|130:148,1,160
256,160,312406,2,0,P|168:189|109:147,1,160
187,93,312668,6,0,P|270:64|318:232,1,300,4|0,0:0|0:0,0:0:0:0:
267,266,313017,1,8,0:0:0:0:
422,340,313191,2,0,P|412:299|417:251,1,80
471,150,313365,1,0,0:0:0:0:
453,166,313453,1,0,0:0:0:0:
435,182,313540,1,0,0:0:0:0:
301,341,313714,2,0,B|252:351|206:335|206:335|157:316|99:327,1,200
117,51,314063,5,0,0:0:0:0:
132,73,314150,1,0,0:0:0:0:
150,145,314237,1,0,0:0:0:0:
165,167,314325,1,0,0:0:0:0:
183,240,314412,2,0,B|221:218|221:218|280:89,1,179.999994506836,8|0,0:0|0:0,0:0:0:0:
328,177,314674,2,0,B|283:280|283:280|310:273|358:277,1,179.999994506836
432,280,314935,1,0,0:0:0:0:
453,21,315110,2,0,P|484:98|367:52,1,284.999992389679
425,78,315458,6,0,B|334:144|334:144|275:134,1,165.000005035401,8|0,0:0|0:0,0:0:0:0:
217,197,315807,1,0,0:0:0:0:
206,163,315894,1,0,0:0:0:0:
196,128,315982,1,0,0:0:0:0:
188,93,316069,2,0,L|112:97,1,69.9999978637696
119,208,316243,2,0,L|65:270,1,69.9999978637696
397,301,316505,6,0,P|328:275|315:224,1,119.999996337891
316,205,316767,1,0,0:0:0:0:
181,339,316941,6,0,B|202:284|202:284|194:196|194:196|220:131,1,209.999993591309,8|0,0:0|0:0,0:0:0:0:
83,263,317290,6,0,B|184:218|285:230|285:230|406:245|410:307|296:369|224:366|285:150|399:145|399:145|358:113|352:66|352:66|292:51,1,750.000028610231,4|0,0:0|0:0,0:0:0:0:
233,43,318249,6,0,P|147:136|211:135,1,300,4|0,0:0|0:0,0:0:0:0:
233,43,318598,2,0,P|300:106|265:216,1,179.999994506836,8|0,0:0|0:0,0:0:0:0:
244,244,318860,1,0,0:0:0:0:
448,301,319034,1,0,0:0:0:0:
428,287,319121,2,0,B|412:209|412:209|437:121,1,160
428,287,319383,2,0,B|358:326|358:326|267:329,1,160
205,330,319644,5,0,0:0:0:0:
118,189,319819,2,0,P|185:197|121:217,1,179.999994506836,8|8,0:0|0:0,0:0:0:0:
259,242,320168,2,0,P|254:146|182:87,1,179.999994506836,8|0,0:0|0:0,0:0:0:0:
422,60,320517,2,0,B|367:76|367:76|392:127|381:182,1,160
469,188,320778,2,0,B|445:231|442:263|442:263|409:270|367:302,1,160
284,285,321040,6,0,B|294:246|294:246|285:211|285:211|297:175|297:175|247:118,1,179.999994506836,4|0,0:0|0:0,0:0:0:0:
174,188,321389,2,0,P|164:76|229:27,1,179.999994506836,8|0,0:0|0:0,0:0:0:0:
313,53,321650,1,0,0:0:0:0:
334,69,321737,1,0,0:0:0:0:
355,85,321825,1,0,0:0:0:0:
373,100,321912,2,0,B|406:133|438:145|438:145|425:178|434:244,1,160
338,262,322174,2,0,P|395:318|494:304,1,160
180,325,322522,5,0,0:0:0:0:
194,298,322610,2,0,B|215:288|240:286|240:286|189:242|191:132,1,200,0|8,0:0|0:0,0:0:0:0:
135,54,322871,2,0,L|74:74,2,59.9999981689454
262,28,323133,2,0,L|276:120,1,80
278,207,323307,2,0,B|186:227|186:227|102:216,1,160
55,290,323569,2,0,L|247:315,1,170.000003242493
330,325,323830,6,0,B|336:302|356:288|356:288|357:260|383:240|383:240|386:165|326:161,1,179.999994506836,4|0,0:0|0:0,0:0:0:0:
336,142,324179,1,8,0:0:0:0:
93,54,324354,1,0,0:0:0:0:
103,88,324441,2,0,B|140:127|140:127|192:77|270:103,1,179.999994506836
345,34,324703,2,0,B|373:70|373:70|433:101|433:101|467:144,1,160
478,268,324964,2,0,B|449:231|449:231|390:201|390:201|355:157,1,160
397,292,325226,5,0,0:0:0:0:
141,263,325400,2,0,B|210:331|283:271|283:271|223:209,1,200,8|8,0:0|0:0,0:0:0:0:
155,110,325749,1,0,0:0:0:0:
187,133,325836,2,0,B|232:166|232:166|85:187,1,179.999994506836
46,285,326098,2,0,B|28:183|28:183|40:113,1,160
80,35,326360,2,0,P|123:43|255:28,1,160
351,38,326621,6,0,B|334:89|352:127|352:127|369:164|351:220,1,179.999994506836,4|0,0:0|0:0,0:0:0:0:
342,251,326970,1,8,0:0:0:0:
132,167,327144,1,0,0:0:0:0:
147,199,327232,1,0,0:0:0:0:
155,234,327319,1,0,0:0:0:0:
151,269,327406,1,0,0:0:0:0:
137,302,327493,2,0,P|222:281|265:206,1,160
274,305,327755,6,0,P|254:210|209:159,1,160
199,51,328017,1,0,0:0:0:0:
226,66,328104,1,0,0:0:0:0:
254,80,328191,1,0,0:0:0:0:
330,77,328278,2,0,L|320:169,1,80
430,230,328453,2,0,L|438:150,1,80
310,238,328627,2,0,L|300:330,1,80
189,318,328801,1,0,0:0:0:0:
176,295,328889,1,0,0:0:0:0:
171,269,328976,1,0,0:0:0:0:
174,243,329063,2,0,L|91:257,1,64.9999970245363,8|0,0:0|0:0,0:0:0:0:
183,153,329237,2,0,L|266:139,1,64.9999970245363,8|0,0:0|0:0,0:0:0:0:
89,35,329412,6,0,B|108:73|103:112|103:112|156:46|241:35|306:58,1,300,4|0,0:0|0:0,0:0:0:0:
436,107,329761,2,0,B|407:193|407:193|422:295,1,179.999994506836,8|0,0:0|0:0,0:0:0:0:
329,334,330022,2,0,B|243:297|243:297|200:240,1,160
141,161,330284,2,0,P|233:154|305:128,1,160
175,65,330546,2,0,P|83:79|40:151,1,160
62,227,330807,5,0,0:0:0:0:
97,229,330894,1,0,0:0:0:0:
129,230,330982,2,0,P|157:284|169:202,1,200,8|8,0:0|0:0,0:0:0:0:
261,340,331330,1,0,0:0:0:0:
283,316,331418,2,0,P|303:227|201:109,2,240
377,321,332028,1,0,0:0:0:0:
393,293,332115,1,0,0:0:0:0:
402,270,332203,6,0,B|394:221|394:221|404:182|404:182|382:146|382:146|373:88,1,179.999994506836,4|0,0:0|0:0,0:0:0:0:
451,62,332551,2,0,P|366:14|298:59,1,179.999994506836,8|0,0:0|0:0,0:0:0:0:
268,142,332813,2,0,B|158:78|158:78|174:107,1,160
205,211,333075,2,0,B|95:147|95:147|111:176,1,160
140,279,333336,2,0,B|30:215|30:215|46:244,1,160
105,348,333598,6,0,B|140:353|140:353|168:337|197:346|197:346|225:353|270:331,1,165.000005035401,8|0,0:0|0:0,0:0:0:0:
299,321,333947,2,0,P|303:245|391:195,1,179.999994506836,8|0,0:0|0:0,0:0:0:0:
390,291,334208,2,0,P|466:250|477:168,1,160
454,105,334470,2,0,P|380:124|395:203,1,160
454,105,334732,2,0,B|412:97|412:97|335:108|335:108|291:101,1,160
208,79,334993,6,0,B|174:62|155:33|155:33|117:77|135:138,1,179.999994506836,4|0,0:0|0:0,0:0:0:0:
57,230,335342,2,0,B|108:246|144:236|144:236|181:224|238:242,1,179.999994506836,8|0,0:0|0:0,0:0:0:0:
348,255,335604,2,0,B|405:312|405:312|446:241,1,160
465,135,335865,2,0,P|386:122|325:58,1,160
222,48,336127,2,0,P|281:142|331:185,1,160
330,68,336389,6,0,L|173:171,1,179.999994506836
50,202,336650,1,0,0:0:0:0:
52,237,336737,2,0,B|106:253|106:253|97:115,1,179.999994506836,8|0,0:0|0:0,0:0:0:0:
97,89,336999,1,0,0:0:0:0:
255,229,337174,1,0,0:0:0:0:
234,253,337261,2,0,B|296:303|296:303|392:287,1,160
459,347,337522,2,0,P|468:252|401:192,1,160
354,144,337784,6,0,P|326:111|374:142,1,179.999994506836,4|0,0:0|0:0,0:0:0:0:
361,112,338133,2,0,B|268:46|268:46|193:35,1,179.999994506836,8|0,0:0|0:0,0:0:0:0:
123,107,338394,2,0,B|233:124|233:124|200:178,1,160
123,107,338656,2,0,B|139:150|139:150|118:211|154:259,1,160
176,291,338918,1,0,0:0:0:0:
391,228,339092,5,0,0:0:0:0:
225,48,339267,1,8,0:0:0:0:
248,48,339354,1,8,0:0:0:0:
302,342,339528,6,0,P|282:257|257:198,1,150
174,158,339877,6,0,P|115:136|174:180,1,200,8|0,0:0|0:0,0:0:0:0:
