osu file format v14

[General]
AudioFilename: audio.mp3
AudioLeadIn: 0
PreviewTime: 66893
Countdown: 1
SampleSet: Normal
StackLeniency: 0.7
Mode: 1
LetterboxInBreaks: 0
WidescreenStoryboard: 0

[Editor]
Bookmarks: 256,11418,22581,39325,44907,50488,56069,67232,78395,89558,100721,111883,122872,134209,145372,156535,167697,178860,223510,234673,245836,268162,279324,290487,301650,312813,323976,334092
DistanceSpacing: 0.73
BeatDivisor: 4
GridSize: 16
TimelineZoom: 1.6

[Metadata]
Title:Feed For Speed
TitleUnicode:Feed For Speed
Artist:Billain & Kodin
ArtistUnicode:Billain & Kodin
Creator:KaEDe1106
Version:Overdrive
Source:osu!
Tags:instrumental electronic Drum & Bass dnb Colonize EP Eatbrain FFS Neurofunk featured artist fa
BeatmapID:2526042
BeatmapSetID:1213713

[Difficulty]
HPDrainRate:5
CircleSize:5
OverallDifficulty:6
ApproachRate:5
SliderMultiplier:1.4
SliderTickRate:1

[Events]
//Background and Video events
0,0,"1748138.jpg",0,70
//Break Periods
2,22791,28281
2,201396,208368
//Storyboard Layer 0 (Background)
//Storyboard Layer 1 (Fail)
//Storyboard Layer 2 (Pass)
//Storyboard Layer 3 (Foreground)
//Storyboard Layer 4 (Overlay)
//Storyboard Sound Samples

[TimingPoints]
266,348.837209302326,4,1,0,60,1,0
266,-200,4,1,0,60,0,0
614,-198.412698412698,4,1,0,60,0,0
963,-196.850393700787,4,1,0,60,0,0
1138,-196.078431372549,4,1,0,60,0,0
1312,-195.3125,4,1,0,60,0,0
1399,-194.931773879142,4,1,0,60,0,0
1661,-193.798449612403,4,1,0,60,0,0
2010,-192.307692307692,4,1,0,60,0,0
2359,-190.839694656489,4,1,0,60,0,0
2533,-190.114068441065,4,1,0,60,0,0
2707,-189.393939393939,4,1,0,60,0,0
2795,-188.679245283019,4,1,0,60,0,0
3056,-185.185185185185,4,1,0,60,0,0
3405,-183.823529411765,4,1,0,60,0,0
3754,-182.481751824818,4,1,0,60,0,0
3928,-181.818181818182,4,1,0,60,0,0
4103,-181.159420289855,4,1,0,60,0,0
4190,-180.831826401447,4,1,0,60,0,0
4452,-179.856115107914,4,1,0,60,0,0
4800,-178.571428571429,4,1,0,60,0,0
5149,-142.857142857143,4,1,0,60,0,0
5266,-142.857142857143,4,1,0,55,0,0
5324,-151.515151515152,4,1,0,55,0,0
5367,-151.515151515152,4,1,0,55,0,0
5411,-153.846153846154,4,1,0,55,0,0
5454,-153.846153846154,4,1,0,50,0,0
5498,-156.25,4,1,0,50,0,0
5542,-156.25,4,1,0,53,0,0
5585,-158.730158730159,4,1,0,53,0,0
5629,-158.730158730159,4,1,0,56,0,0
5672,-161.290322580645,4,1,0,56,0,0
5716,-161.290322580645,4,1,0,59,0,0
5760,-163.934426229508,4,1,0,59,0,0
5803,-163.934426229508,4,1,0,60,0,0
5847,-166.666666666667,4,1,0,60,0,0
6196,-164.473684210526,4,1,0,60,0,0
6545,-162.337662337662,4,1,0,60,0,0
6719,-161.290322580645,4,1,0,60,0,0
6893,-160.25641025641,4,1,0,60,0,0
6981,-159.744408945687,4,1,0,60,0,0
7242,-158.227848101266,4,1,0,60,0,0
7591,-156.25,4,1,0,60,0,0
7940,-154.320987654321,4,1,0,60,0,0
8114,-153.374233128834,4,1,0,60,0,0
8289,-152.439024390244,4,1,0,60,0,0
8376,-151.975683890578,4,1,0,60,0,0
8638,-117.647058823529,4,1,0,60,0,0
10382,-105.263157894737,4,1,0,60,0,0
10731,-138.888888888889,4,1,0,60,0,0
10818,-136.986301369863,4,1,0,60,0,0
10905,-135.135135135135,4,1,0,60,0,0
10992,-133.333333333333,4,1,0,60,0,0
11079,-131.578947368421,4,1,0,60,0,0
11254,-128.205128205128,4,1,0,60,0,0
11428,-125,4,1,0,60,0,0
12824,-123.456790123457,4,1,0,60,0,0
14219,-121.951219512195,4,1,0,60,0,0
15614,-120.481927710843,4,1,0,60,0,0
17010,-111.111111111111,4,1,0,60,0,0
17707,-110.497237569061,4,1,0,60,0,0
17795,-109.89010989011,4,1,0,60,0,0
18405,-108.695652173913,4,1,0,60,0,0
19103,-108.108108108108,4,1,0,60,0,0
19190,-107.52688172043,4,1,0,60,0,0
19800,-101.010101010101,4,1,0,60,0,0
19975,-100,4,1,0,60,0,0
20062,-99.502487562189,4,1,0,60,0,0
20149,-99.009900990099,4,1,0,60,0,0
20324,-98.0392156862745,4,1,0,60,0,0
20411,-97.5609756097561,4,1,0,60,0,0
20498,-97.0873786407767,4,1,0,60,0,0
20672,-96.1538461538461,4,1,0,60,0,0
20847,-95.2380952380952,4,1,0,60,0,0
20934,-94.7867298578199,4,1,0,60,0,0
21021,-94.3396226415094,4,1,0,60,0,0
21109,-93.8967136150235,4,1,0,60,0,0
21196,-93.4579439252336,4,1,0,60,0,0
21370,-86.9565217391304,4,1,0,60,0,0
21893,-87.260034904014,4,1,0,60,0,0
21952,-87.4890638670166,4,1,0,60,0,0
22010,-87.719298245614,4,1,0,60,0,0
22068,-88.0281690140845,4,1,0,60,0,0
22126,-88.261253309797,4,1,0,60,0,0
22242,-88.4955752212389,4,1,0,60,0,0
22329,-89.2857142857143,4,1,0,60,0,0
22417,-90.0900900900901,4,1,0,60,0,0
22591,-95.2380952380952,4,1,0,60,0,0
22678,-95.2380952380952,4,1,0,40,0,0
23986,-142.857142857143,4,1,0,40,0,0
29393,-133.333333333333,4,1,0,50,0,0
30222,-133.333333333333,4,1,0,40,0,0
30396,-133.333333333333,4,1,0,30,0,0
30963,-133.333333333333,4,1,0,50,0,0
32359,-142.857142857143,4,1,0,50,0,0
33696,-142.857142857143,4,1,0,60,0,0
33754,-133.333333333333,4,1,0,60,0,0
44859,-133.333333333333,4,1,0,75,0,0
44917,-102.564102564103,4,1,0,75,0,0
55382,-102.040816326531,4,1,0,75,0,0
55469,-101.781170483461,4,1,0,75,0,0
55556,-101.522842639594,4,1,0,75,0,0
55643,-101.26582278481,4,1,0,75,0,0
55731,-101.010101010101,4,1,0,75,0,0
55818,-100.755667506297,4,1,0,75,0,0
55905,-100.502512562814,4,1,0,75,0,0
55992,-100.250626566416,4,1,0,75,0,0
56036,-100.250626566416,4,1,0,80,0,0
56079,-100,4,1,0,80,0,0
56254,-99.009900990099,4,1,0,80,0,0
56428,-98.0392156862745,4,1,0,80,0,0
56603,-97.0873786407767,4,1,0,80,0,0
56777,-96.1538461538461,4,1,0,80,0,0
56952,-95.2380952380952,4,1,0,80,0,0
57126,-94.3396226415094,4,1,0,80,0,0
57300,-93.4579439252336,4,1,0,80,0,0
57475,-92.5925925925926,4,1,0,80,0,0
57649,-91.743119266055,4,1,0,80,0,0
57824,-90.9090909090909,4,1,0,80,0,0
57998,-90.0900900900901,4,1,0,80,0,0
58172,-89.2857142857143,4,1,0,80,0,0
58347,-88.4955752212389,4,1,0,80,0,0
58521,-87.719298245614,4,1,0,80,0,0
58696,-86.9565217391304,4,1,0,80,0,0
58754,-86.7302688638335,4,1,0,80,0,0
58812,-86.5051903114187,4,1,0,80,0,0
58870,-86.2068965517241,4,1,0,80,0,0
59045,-85.4700854700855,4,1,0,80,0,0
59219,-84.7457627118644,4,1,0,80,0,0
59393,-84.0336134453781,4,1,0,80,0,0
59568,-83.3333333333333,4,1,0,80,0,0
59742,-82.6446280991736,4,1,0,80,0,0
59917,-81.9672131147541,4,1,0,80,0,0
60091,-81.3008130081301,4,1,0,80,0,0
60266,-80.6451612903226,4,1,0,80,0,0
60440,-80,4,1,0,80,0,0
61661,-75.187969924812,4,1,0,80,0,0
64452,-74.9063670411985,4,1,0,80,0,0
64539,-74.6268656716418,4,1,0,80,0,0
64626,-74.3494423791822,4,1,0,80,0,0
64713,-74.0740740740741,4,1,0,80,0,0
64800,-73.8007380073801,4,1,0,80,0,0
64888,-73.5294117647059,4,1,0,80,0,0
64975,-73.2600732600733,4,1,0,80,0,0
65062,-72.992700729927,4,1,0,80,0,0
65149,-72.463768115942,4,1,0,80,0,0
65236,-71.9424460431655,4,1,0,80,0,0
65324,-71.4285714285714,4,1,0,80,0,0
65411,-70.9219858156028,4,1,0,80,0,0
65498,-70.4225352112676,4,1,0,80,0,0
65585,-69.9300699300699,4,1,0,80,0,0
65672,-69.4444444444444,4,1,0,80,0,0
65760,-68.9655172413793,4,1,0,80,0,0
65847,-40,4,1,0,60,0,0
67184,-40,4,1,0,85,0,0
67242,-83.3333333333333,4,1,0,85,0,1
77707,-66.6666666666667,4,1,0,85,0,0
78405,-83.3333333333333,4,1,0,85,0,1
87824,-80,4,1,0,85,0,1
87882,-80.6451612903226,4,1,0,85,0,1
87940,-81.3008130081301,4,1,0,85,0,1
87998,-81.9672131147541,4,1,0,85,0,1
88172,-82.6446280991736,4,1,0,85,0,1
88231,-83.3333333333333,4,1,0,85,0,1
88289,-84.0336134453781,4,1,0,85,0,1
88347,-84.7457627118644,4,1,0,85,0,1
88521,-86.9565217391304,4,1,0,85,0,1
88609,-88.4955752212389,4,1,0,85,0,1
88870,-95.2380952380952,4,1,0,85,0,1
89510,-95.2380952380952,4,1,0,75,0,1
89568,-86.9565217391304,4,1,0,75,0,0
89742,-98.0392156862745,4,1,0,75,0,0
92359,-86.9565217391304,4,1,0,75,0,0
92707,-98.0392156862745,4,1,0,75,0,0
95149,-86.9565217391304,4,1,0,75,0,0
95324,-98.0392156862745,4,1,0,75,0,0
97940,-66.6666666666667,4,1,0,75,0,0
98289,-98.0392156862745,4,1,0,75,0,0
100033,-98.0392156862745,4,1,0,50,0,0
100672,-98.0392156862745,4,1,0,75,0,0
100731,-101.010101010101,4,1,0,75,0,0
111893,-74.0740740740741,4,1,0,75,0,0
111981,-75.7575757575758,4,1,0,75,0,0
112068,-77.5193798449612,4,1,0,75,0,0
112155,-79.3650793650794,4,1,0,75,0,0
112242,-81.3008130081301,4,1,0,75,0,0
112329,-83.3333333333333,4,1,0,75,0,0
112417,-85.4700854700855,4,1,0,75,0,0
112504,-87.719298245614,4,1,0,75,0,0
112591,-90.0900900900901,4,1,0,75,0,0
112678,-92.5925925925926,4,1,0,75,0,0
112766,-95.2380952380952,4,1,0,75,0,0
112853,-98.0392156862745,4,1,0,75,0,0
112940,-83.3333333333333,4,1,0,75,0,0
113288,-80.6451612903226,4,1,0,75,0,0
113376,-82.6446280991736,4,1,0,75,0,0
113463,-84.7457627118644,4,1,0,75,0,0
113550,-86.9565217391304,4,1,0,75,0,0
113638,-89.2857142857143,4,1,0,75,0,0
113725,-91.743119266055,4,1,0,75,0,0
113812,-94.3396226415094,4,1,0,75,0,0
113899,-97.0873786407767,4,1,0,75,0,0
113986,-100,4,1,0,75,0,0
114074,-103.092783505155,4,1,0,75,0,0
114161,-106.382978723404,4,1,0,75,0,0
114248,-109.89010989011,4,1,0,75,0,0
114335,-90.9090909090909,4,1,0,75,0,0
114684,-74.0740740740741,4,1,0,75,0,0
114771,-75.7575757575758,4,1,0,75,0,0
114859,-77.5193798449612,4,1,0,75,0,0
114946,-79.3650793650794,4,1,0,75,0,0
115033,-81.3008130081301,4,1,0,75,0,0
115120,-83.3333333333333,4,1,0,75,0,0
115207,-85.4700854700855,4,1,0,75,0,0
115295,-87.719298245614,4,1,0,75,0,0
115382,-90.0900900900901,4,1,0,75,0,0
115469,-92.5925925925926,4,1,0,75,0,0
115556,-95.2380952380952,4,1,0,75,0,0
115643,-98.0392156862745,4,1,0,75,0,0
115731,-83.3333333333333,4,1,0,75,0,0
116079,-80.6451612903226,4,1,0,75,0,0
116167,-82.6446280991736,4,1,0,75,0,0
116254,-84.7457627118644,4,1,0,75,0,0
116341,-86.9565217391304,4,1,0,75,0,0
116428,-89.2857142857143,4,1,0,75,0,0
116515,-91.743119266055,4,1,0,75,0,0
116603,-94.3396226415094,4,1,0,75,0,0
116690,-97.0873786407767,4,1,0,75,0,0
116777,-100,4,1,0,75,0,0
116864,-103.092783505155,4,1,0,75,0,0
116952,-106.382978723404,4,1,0,75,0,0
117039,-109.89010989011,4,1,0,75,0,0
117126,-90.9090909090909,4,1,0,75,0,0
117474,-84.7457627118644,4,1,0,75,0,0
117562,-86.9565217391304,4,1,0,75,0,0
117649,-89.2857142857143,4,1,0,75,0,0
117736,-91.743119266055,4,1,0,75,0,0
117823,-94.3396226415094,4,1,0,75,0,0
117910,-97.0873786407767,4,1,0,75,0,0
117998,-100,4,1,0,75,0,0
118085,-103.092783505155,4,1,0,75,0,0
118172,-106.382978723404,4,1,0,75,0,0
118259,-109.89010989011,4,1,0,75,0,0
118343,-113.636363636364,4,1,0,75,0,0
118433,-117.647058823529,4,1,0,75,0,0
118521,-90.9090909090909,4,1,0,75,0,0
118870,-87.719298245614,4,1,0,75,0,0
118957,-90.0900900900901,4,1,0,75,0,0
119045,-92.5925925925926,4,1,0,75,0,0
119132,-95.2380952380952,4,1,0,75,0,0
119219,-98.0392156862745,4,1,0,75,0,0
119306,-101.010101010101,4,1,0,75,0,0
119393,-104.166666666667,4,1,0,75,0,0
119481,-107.52688172043,4,1,0,75,0,0
119568,-111.111111111111,4,1,0,75,0,0
119655,-114.942528735632,4,1,0,75,0,0
119742,-119.047619047619,4,1,0,75,0,0
119829,-123.456790123457,4,1,0,75,0,0
119917,-95.2380952380952,4,1,0,75,0,0
120264,-92.5925925925926,4,1,0,75,0,0
120353,-95.2380952380952,4,1,0,75,0,0
120440,-98.0392156862745,4,1,0,75,0,0
120527,-101.010101010101,4,1,0,75,0,0
120614,-104.166666666667,4,1,0,75,0,0
120702,-107.52688172043,4,1,0,75,0,0
120789,-111.111111111111,4,1,0,75,0,0
120876,-114.942528735632,4,1,0,75,0,0
120963,-119.047619047619,4,1,0,75,0,0
121050,-123.456790123457,4,1,0,75,0,0
121138,-128.205128205128,4,1,0,75,0,0
121225,-133.333333333333,4,1,0,75,0,0
121312,-103.092783505155,4,1,0,75,0,0
121661,-96.1538461538461,4,1,0,75,0,0
121748,-100,4,1,0,75,0,0
121835,-104.166666666667,4,1,0,75,0,0
121922,-108.695652173913,4,1,0,75,0,0
122010,-113.636363636364,4,1,0,75,0,0
122119,-119.047619047619,4,1,0,75,0,0
122242,-125,4,1,0,75,0,0
122359,-129.87012987013,4,1,0,75,0,0
122707,-121.951219512195,4,1,0,75,0,0
122882,-133.333333333333,4,1,0,75,0,0
122969,-137.931034482759,4,1,0,75,0,0
123056,-142.857142857143,4,1,0,75,0,0
123405,-140.845070422535,4,1,0,75,0,0
123579,-139.86013986014,4,1,0,75,0,0
123754,-138.888888888889,4,1,0,75,0,0
123928,-137.931034482759,4,1,0,75,0,0
124016,-137.45704467354,4,1,0,75,0,0
124103,-136.986301369863,4,1,0,75,0,0
124190,-136.518771331058,4,1,0,75,0,0
124364,-135.593220338983,4,1,0,75,0,0
124452,-135.135135135135,4,1,0,75,0,0
124713,-133.779264214047,4,1,0,75,0,0
124800,-131.578947368421,4,1,0,75,0,0
124975,-130.718954248366,4,1,0,75,0,0
125149,-129.87012987013,4,1,0,75,0,0
125324,-129.032258064516,4,1,0,75,0,0
125411,-128.617363344051,4,1,0,75,0,0
125498,-128.205128205128,4,1,0,75,0,0
125585,-127.79552715655,4,1,0,75,0,0
125760,-126.984126984127,4,1,0,75,0,0
125847,-126.582278481013,4,1,0,75,0,0
126109,-125.391849529781,4,1,0,75,0,0
126196,-125,4,1,0,75,0,0
126370,-124.223602484472,4,1,0,75,0,0
126545,-123.456790123457,4,1,0,75,0,0
126719,-122.699386503067,4,1,0,75,0,0
126806,-122.324159021407,4,1,0,75,0,0
126893,-121.951219512195,4,1,0,75,0,0
126981,-121.580547112462,4,1,0,75,0,0
127155,-120.845921450151,4,1,0,75,0,0
127242,-120.481927710843,4,1,0,75,0,0
127504,-119.402985074627,4,1,0,75,0,0
127591,-119.047619047619,4,1,0,75,0,0
127766,-118.343195266272,4,1,0,75,0,0
127940,-117.647058823529,4,1,0,75,0,0
128114,-116.959064327485,4,1,0,75,0,0
128202,-116.618075801749,4,1,0,75,0,0
128289,-116.279069767442,4,1,0,75,0,0
128376,-115.942028985507,4,1,0,75,0,0
128550,-115.273775216138,4,1,0,75,0,0
128638,-114.942528735632,4,1,0,75,0,0
128812,-111.111111111111,4,1,0,75,0,0
128986,-107.52688172043,4,1,0,75,0,0
129159,-104.166666666667,4,1,0,75,0,0
129333,-101.010101010101,4,1,0,75,0,0
129509,-98.0392156862745,4,1,0,75,0,0
129684,-95.2380952380952,4,1,0,75,0,0
129859,-92.5925925925926,4,1,0,75,0,0
130033,-90.0900900900901,4,1,0,75,0,0
130207,-87.719298245614,4,1,0,75,0,0
130382,-85.4700854700855,4,1,0,75,0,0
130556,-83.3333333333333,4,1,0,75,0,0
130731,-81.3008130081301,4,1,0,75,0,0
130905,-79.3650793650794,4,1,0,75,0,0
131079,-77.5193798449612,4,1,0,75,0,0
131254,-75.7575757575758,4,1,0,75,0,0
131428,-71.4285714285714,4,1,0,75,0,0
134161,-71.4285714285714,4,1,0,80,0,0
134219,-86.2068965517241,4,1,0,80,0,1
144277,-90.9090909090909,4,1,0,100,0,1
144335,-100,4,1,0,100,0,0
144800,-100,4,1,0,85,0,0
144975,-100,4,1,0,80,0,0
145149,-100,4,1,0,75,0,0
145324,-100,4,1,0,80,0,0
145382,-86.2068965517241,4,1,0,80,0,1
154800,-88.4955752212389,4,1,0,80,0,1
155324,-89.6860986547085,4,1,0,80,0,1
155498,-92.5925925925926,4,1,0,80,0,1
156486,-95.2380952380952,4,1,0,75,0,1
156545,-100,4,1,0,75,0,0
159334,-96.1538461538461,4,1,0,75,0,0
162125,-91.743119266055,4,1,0,75,0,0
164916,-86.9565217391304,4,1,0,75,0,0
166834,-74.0740740740741,4,1,0,75,0,0
167706,-81.9672131147541,4,1,0,75,0,0
170497,-76.9230769230769,4,1,0,75,0,0
173288,-71.9424460431655,4,1,0,75,0,0
176078,-67.1140939597315,4,1,0,75,0,0
177475,-67.1140939597315,5,1,0,75,0,0
178870,-111.111111111111,5,1,0,75,0,0
181660,-107.52688172043,5,1,0,75,0,0
184451,-104.166666666667,5,1,0,75,0,0
187242,-101.010101010101,5,1,0,75,0,0
190032,-96.1538461538461,5,1,0,75,0,0
192823,-92.5925925925926,5,1,0,75,0,0
195614,-86.2068965517241,4,1,0,75,0,0
197358,-84.7457627118644,4,1,0,75,0,0
198405,-74.0740740740741,4,1,0,75,0,0
198753,-66.6666666666667,4,1,0,75,0,0
199800,-100,4,1,0,75,0,0
201282,-100,4,1,0,50,0,0
202590,-142.857142857143,4,1,0,50,0,0
206776,-125,4,1,0,50,0,0
208172,-117.647058823529,4,1,0,50,0,0
209481,-117.647058823529,4,1,0,40,0,0
209567,-100,4,1,0,40,0,0
209916,-100,4,1,0,45,0,0
210265,-100,4,1,0,50,0,0
210613,-100,4,1,0,55,0,0
210962,-100,4,1,0,60,0,0
211311,-100,4,1,0,65,0,0
212300,-100,4,1,0,75,0,0
212358,-86.9565217391304,4,1,0,75,0,0
217766,-86.9565217391304,4,1,0,50,0,0
217939,-86.9565217391304,4,1,0,50,0,0
218637,-86.9565217391304,4,1,0,60,0,0
219334,-80,4,1,0,70,0,0
220032,-80,4,1,0,75,0,0
220730,-74.0740740740741,4,1,0,75,0,0
222125,-76.9230769230769,4,1,0,75,0,0
223172,-66.6666666666667,4,1,0,75,0,0
223463,-66.6666666666667,4,1,0,85,0,0
223521,-83.3333333333333,4,1,0,85,0,1
242881,-86.9565217391304,4,1,0,85,0,1
242939,-90.9090909090909,4,1,0,85,0,1
242997,-95.2380952380952,4,1,0,85,0,1
243027,-100,4,1,0,70,0,1
243056,-100,4,1,0,70,0,0
245789,-100,4,1,0,75,0,0
245846,-86.9565217391304,4,1,0,75,0,0
246020,-98.0392156862745,4,1,0,75,0,0
248637,-86.9565217391304,4,1,0,75,0,0
248811,-98.0392156862745,4,1,0,75,0,0
248985,-98.0392156862745,4,1,0,75,0,0
251427,-86.9565217391304,4,1,0,75,0,0
251601,-98.0392156862745,4,1,0,75,0,0
254218,-86.9565217391304,4,1,0,75,0,0
254393,-98.0392156862745,4,1,0,75,0,0
254566,-98.0392156862745,4,1,0,75,0,0
257009,-101.010101010101,4,1,0,75,0,0
268172,-97.0873786407767,4,1,0,75,0,0
268259,-97.4658869395711,4,1,0,75,0,0
268346,-97.8473581213307,4,1,0,75,0,0
268433,-98.2318271119843,4,1,0,75,0,0
268520,-98.6193293885601,4,1,0,75,0,0
268608,-99.009900990099,4,1,0,75,0,0
268695,-99.403578528827,4,1,0,75,0,0
268782,-99.8003992015968,4,1,0,75,0,0
268869,-100.200400801603,4,1,0,75,0,0
268956,-100.603621730382,4,1,0,75,0,0
269044,-101.010101010101,4,1,0,75,0,0
269131,-101.419878296146,4,1,0,75,0,0
269218,-101.419878296146,4,1,0,75,0,0
269393,-92.5925925925926,4,1,0,75,0,0
269567,-102.040816326531,4,1,0,75,0,0
269654,-102.459016393443,4,1,0,75,0,0
269741,-102.880658436214,4,1,0,75,0,0
269829,-103.734439834025,4,1,0,75,0,0
269916,-104.166666666667,4,1,0,75,0,0
270003,-104.602510460251,4,1,0,75,0,0
270090,-105.042016806723,4,1,0,75,0,0
270177,-105.485232067511,4,1,0,75,0,0
270265,-105.932203389831,4,1,0,75,0,0
270352,-106.382978723404,4,1,0,75,0,0
270439,-106.837606837607,4,1,0,75,0,0
270526,-107.296137339056,4,1,0,75,0,0
270613,-107.758620689655,4,1,0,75,0,0
270788,-97.0873786407767,4,1,0,75,0,0
270962,-107.52688172043,4,1,0,75,0,0
271050,-107.991360691145,4,1,0,75,0,0
271137,-108.459869848156,4,1,0,75,0,0
271224,-108.932461873638,4,1,0,75,0,0
271311,-109.409190371991,4,1,0,75,0,0
271398,-109.89010989011,4,1,0,75,0,0
271486,-110.37527593819,4,1,0,75,0,0
271573,-110.864745011086,4,1,0,75,0,0
271660,-111.358574610245,4,1,0,75,0,0
271747,-111.856823266219,4,1,0,75,0,0
271834,-112.359550561798,4,1,0,75,0,0
271922,-112.866817155756,4,1,0,75,0,0
272009,-113.378684807256,4,1,0,75,0,0
272183,-102.040816326531,4,1,0,75,0,0
272358,-113.636363636364,4,1,0,75,0,0
272445,-114.155251141552,4,1,0,75,0,0
272532,-114.678899082569,4,1,0,75,0,0
272619,-115.207373271889,4,1,0,75,0,0
272706,-115.740740740741,4,1,0,75,0,0
272794,-116.279069767442,4,1,0,75,0,0
272881,-116.822429906542,4,1,0,75,0,0
272968,-117.370892018779,4,1,0,75,0,0
273055,-117.924528301887,4,1,0,75,0,0
273143,-118.483412322275,4,1,0,75,0,0
273230,-119.047619047619,4,1,0,75,0,0
273317,-119.617224880383,4,1,0,75,0,0
273404,-120.192307692308,4,1,0,75,0,0
273491,-120.772946859903,4,1,0,75,0,0
273753,-120.481927710843,4,1,0,75,0,0
273840,-121.065375302663,4,1,0,75,0,0
273927,-121.654501216545,4,1,0,75,0,0
274015,-122.249388753056,4,1,0,75,0,0
274102,-122.850122850123,4,1,0,75,0,0
274189,-123.456790123457,4,1,0,75,0,0
274276,-124.069478908189,4,1,0,75,0,0
274363,-124.378109452736,4,1,0,75,0,0
274451,-125,4,1,0,75,0,0
274538,-125.628140703518,4,1,0,75,0,0
274625,-126.262626262626,4,1,0,75,0,0
274712,-127.226463104326,4,1,0,75,0,0
274800,-127.877237851662,4,1,0,75,0,0
274974,-113.636363636364,4,1,0,75,0,0
275148,-128.205128205128,4,1,0,75,0,0
275236,-128.865979381443,4,1,0,75,0,0
275323,-129.533678756477,4,1,0,75,0,0
275410,-130.208333333333,4,1,0,75,0,0
275497,-130.208333333333,4,1,0,75,0,0
275584,-130.890052356021,4,1,0,75,0,0
275672,-131.578947368421,4,1,0,75,0,0
275759,-132.275132275132,4,1,0,75,0,0
275846,-132.978723404255,4,1,0,75,0,0
275933,-133.689839572192,4,1,0,75,0,0
276020,-134.408602150538,4,1,0,75,0,0
276108,-135.135135135135,4,1,0,75,0,0
276195,-135.869565217391,4,1,0,75,0,0
276369,-120.481927710843,4,1,0,75,0,0
276544,-136.986301369863,4,1,0,75,0,0
276631,-137.741046831956,4,1,0,75,0,0
276718,-138.504155124654,4,1,0,75,0,0
276805,-139.275766016713,4,1,0,75,0,0
276893,-140.056022408964,4,1,0,75,0,0
276980,-140.845070422535,4,1,0,75,0,0
277067,-141.643059490085,4,1,0,75,0,0
277154,-142.450142450142,4,1,0,75,0,0
277241,-143.266475644699,4,1,0,75,0,0
277329,-144.092219020173,4,1,0,75,0,0
277416,-144.927536231884,4,1,0,75,0,0
277503,-145.772594752187,4,1,0,75,0,0
277590,-146.627565982405,4,1,0,75,0,0
277765,-128.205128205128,4,1,0,75,0,0
277882,-128.205128205128,4,1,0,60,0,0
277939,-147.058823529412,4,1,0,60,0,0
278288,-138.888888888889,4,1,0,60,0,0
278986,-138.888888888889,4,1,0,75,0,0
279073,-125,4,1,0,75,0,0
279334,-111.111111111111,4,1,0,75,0,0
280730,-107.52688172043,4,1,0,75,0,0
282125,-104.166666666667,4,1,0,75,0,0
283520,-101.010101010101,4,1,0,75,0,0
284916,-95.2380952380952,4,1,0,75,0,0
285090,-94.6969696969697,4,1,0,75,0,0
285265,-94.1619585687382,4,1,0,75,0,0
285439,-93.6329588014981,4,1,0,75,0,0
285613,-93.1098696461825,4,1,0,75,0,0
285788,-92.5925925925926,4,1,0,75,0,0
285962,-92.0810313075506,4,1,0,75,0,0
286137,-91.5750915750916,4,1,0,75,0,0
286311,-91.0746812386157,4,1,0,75,0,0
286486,-90.5797101449275,4,1,0,75,0,0
286660,-90.0900900900901,4,1,0,75,0,0
286834,-89.6057347670251,4,1,0,75,0,0
287009,-89.126559714795,4,1,0,75,0,0
287183,-88.6524822695036,4,1,0,75,0,0
287358,-88.1834215167548,4,1,0,75,0,0
287532,-87.719298245614,4,1,0,75,0,0
287706,-86.9565217391304,4,1,0,75,0,0
289800,-86.5051903114187,4,1,0,75,0,0
289888,-86.0585197934596,4,1,0,75,0,0
289975,-85.6164383561644,4,1,0,75,0,0
290062,-85.1788756388416,4,1,0,75,0,0
290149,-84.7457627118644,4,1,0,75,0,0
290207,-84.5594452900389,4,1,0,75,0,0
290266,-84.3668269636379,4,1,0,75,0,0
290324,-84.1750841750842,4,1,0,75,0,0
290411,-83.8926174496644,4,1,0,75,0,0
290469,-83.3333333333333,4,1,0,85,0,0
290498,-83.3333333333333,4,1,0,85,0,1
300920,-83.3333333333333,4,1,0,80,0,1
300963,-83.3333333333333,4,1,0,80,0,0
301603,-83.3333333333333,4,1,0,85,0,0
301661,-83.3333333333333,4,1,0,85,0,1
309858,-86.9565217391304,4,1,0,85,0,1
309916,-90.9090909090909,4,1,0,85,0,1
309974,-95.2380952380952,4,1,0,85,0,1
310004,-95.2380952380952,4,1,0,75,0,1
310033,-100,4,1,0,75,0,0
312823,-98.0392156862745,4,1,0,75,0,0
312824,-90.9090909090909,4,1,0,75,0,0
312997,-98.0392156862745,4,1,0,75,0,0
315614,-90.9090909090909,4,1,0,75,0,0
315787,-98.0392156862745,4,1,0,75,0,0
318405,-90.9090909090909,4,1,0,75,0,0
318578,-98.0392156862745,4,1,0,75,0,0
321196,-90.9090909090909,4,1,0,75,0,0
321368,-98.0392156862745,4,1,0,75,0,0
323267,-98.0392156862745,4,1,0,35,0,0
323288,-98.0392156862745,4,1,0,35,0,0
323420,-98.0392156862745,4,1,0,75,0,0
323462,-98.0392156862745,4,1,0,75,0,0
323616,-98.0392156862745,4,1,0,60,0,0
323637,-98.0392156862745,4,1,0,60,0,0
323790,-98.0392156862745,4,1,0,55,0,0
323811,-98.0392156862745,4,1,0,55,0,0
323877,-98.0392156862745,4,1,0,50,0,0
323898,-98.0392156862745,4,1,0,50,0,0
323943,-98.0392156862745,4,1,0,75,0,0
323986,-98.0392156862745,4,1,0,75,0,0
324160,-97.0873786407767,4,1,0,75,0,0
324770,-96.6183574879227,4,1,0,75,0,0
325032,-96.1538461538461,4,1,0,75,0,0
325294,-95.6937799043062,4,1,0,75,0,0
325555,-95.2380952380952,4,1,0,75,0,0
326166,-95.2380952380952,4,1,0,75,0,0
326427,-94.7867298578199,4,1,0,75,0,0
326951,-94.3396226415094,4,1,0,75,0,0
327561,-93.8967136150235,4,1,0,75,0,0
327823,-93.4579439252336,4,1,0,75,0,0
328084,-93.0232558139535,4,1,0,75,0,0
328695,-92.5925925925926,4,1,0,75,0,0
328956,-92.1658986175115,4,1,0,75,0,0
329741,-91.743119266055,4,1,0,75,0,0
330352,-91.324200913242,4,1,0,75,0,0
330613,-90.9090909090909,4,1,0,75,0,0
330875,-90.4977375565611,4,1,0,75,0,0
331137,-90.0900900900901,4,1,0,75,0,0
331747,-89.6860986547085,4,1,0,75,0,0
332009,-89.2857142857143,4,1,0,75,0,0
332532,-88.8888888888889,4,1,0,75,0,0
333143,-88.4955752212389,4,1,0,75,0,0
333404,-88.1057268722467,4,1,0,75,0,0
333840,-87.719298245614,4,1,0,75,0,0
334102,-86.9565217391304,4,1,0,75,0,0
334277,-86.9565217391304,4,1,0,75,0,0
334451,-86.9565217391304,4,1,0,70,0,0
334800,-86.9565217391304,4,1,0,65,0,0
335148,-86.9565217391304,4,1,0,55,0,0
335497,-125,4,1,0,50,0,0
335846,-125,4,1,0,45,0,0
336195,-125,4,1,0,40,0,0
336544,-100,4,1,0,20,0,0

[HitObjects]
256,192,266,5,0,0:0:0:0:
256,192,614,1,0,0:0:0:0:
256,192,963,1,8,0:0:0:0:
256,192,1138,1,0,0:0:0:0:
256,192,1312,1,8,0:0:0:0:
256,192,1399,1,0,0:0:0:0:
256,192,1661,1,0,0:0:0:0:
256,192,2010,1,0,0:0:0:0:
256,192,2359,1,8,0:0:0:0:
256,192,2533,1,0,0:0:0:0:
256,192,2707,1,8,0:0:0:0:
256,192,2795,1,0,0:0:0:0:
256,192,3056,1,0,0:0:0:0:
256,192,3405,1,0,0:0:0:0:
256,192,3754,1,8,0:0:0:0:
256,192,3928,1,0,0:0:0:0:
256,192,4103,1,8,0:0:0:0:
256,192,4190,1,0,0:0:0:0:
256,192,4452,1,0,0:0:0:0:
256,192,4800,1,8,0:0:0:0:
256,192,5149,1,8,0:0:0:0:
256,192,5324,1,8,0:0:0:0:
256,192,5411,1,8,0:0:0:0:
256,192,5498,1,0,0:0:0:0:
256,192,5585,1,8,0:0:0:0:
256,192,5672,1,8,0:0:0:0:
256,192,5760,1,8,0:0:0:0:
256,192,5847,5,0,0:0:0:0:
256,192,6196,1,0,0:0:0:0:
256,192,6545,1,8,0:0:0:0:
256,192,6719,1,0,0:0:0:0:
256,192,6893,1,8,0:0:0:0:
256,192,6981,1,0,0:0:0:0:
256,192,7242,5,0,0:0:0:0:
256,192,7591,1,8,0:0:0:0:
256,192,7940,1,8,0:0:0:0:
256,192,8114,1,8,0:0:0:0:
256,192,8289,1,8,0:0:0:0:
256,192,8376,1,0,0:0:0:0:
256,192,8638,5,4,0:0:0:0:
256,192,8986,1,0,0:0:0:0:
256,192,9161,1,0,0:0:0:0:
256,192,9335,1,8,0:0:0:0:
256,192,9510,1,0,0:0:0:0:
256,192,9684,1,8,0:0:0:0:
256,192,9771,1,0,0:0:0:0:
256,192,9946,1,0,0:0:0:0:
256,192,10033,1,0,0:0:0:0:
256,192,10382,1,12,0:0:0:0:
256,192,10731,1,0,0:0:0:0:
256,192,10818,1,8,0:0:0:0:
256,192,10905,1,0,0:0:0:0:
256,192,10992,1,0,0:0:0:0:
256,192,11079,1,8,0:0:0:0:
256,192,11254,1,8,0:0:0:0:
256,192,11428,1,0,0:0:0:0:
256,192,11690,1,8,0:0:0:0:
256,192,11777,1,0,0:0:0:0:
256,192,11952,1,0,0:0:0:0:
256,192,12126,1,8,0:0:0:0:
256,192,12213,1,0,0:0:0:0:
256,192,12300,1,0,0:0:0:0:
256,192,12475,1,8,0:0:0:0:
256,192,12562,1,0,0:0:0:0:
256,192,12736,1,0,0:0:0:0:
256,192,12824,1,0,0:0:0:0:
256,192,13085,1,8,0:0:0:0:
256,192,13172,1,0,0:0:0:0:
256,192,13347,1,0,0:0:0:0:
256,192,13521,1,8,0:0:0:0:
256,192,13609,1,0,0:0:0:0:
256,192,13696,1,0,0:0:0:0:
256,192,13870,1,8,0:0:0:0:
256,192,13957,1,0,0:0:0:0:
256,192,14219,1,0,0:0:0:0:
256,192,14481,1,0,0:0:0:0:
256,192,14568,1,8,0:0:0:0:
256,192,14742,1,0,0:0:0:0:
256,192,14917,1,0,0:0:0:0:
256,192,15004,1,0,0:0:0:0:
256,192,15091,1,8,0:0:0:0:
256,192,15266,1,8,0:0:0:0:
256,192,15353,1,0,0:0:0:0:
256,192,15527,1,0,0:0:0:0:
256,192,15614,1,0,0:0:0:0:
256,192,15876,1,0,0:0:0:0:
256,192,15963,1,8,0:0:0:0:
256,192,16138,1,0,0:0:0:0:
256,192,16312,1,8,0:0:0:0:
256,192,16486,1,0,0:0:0:0:
256,192,16661,1,8,0:0:0:0:
256,192,16748,1,0,0:0:0:0:
256,192,17010,1,0,0:0:0:0:
256,192,17184,1,0,0:0:0:0:
256,192,17271,1,0,0:0:0:0:
256,192,17359,1,8,0:0:0:0:
256,192,17533,1,0,0:0:0:0:
256,192,17707,1,0,0:0:0:0:
256,192,17795,1,0,0:0:0:0:
256,192,17882,1,0,0:0:0:0:
256,192,18056,1,8,0:0:0:0:
256,192,18143,1,0,0:0:0:0:
256,192,18318,1,0,0:0:0:0:
256,192,18405,1,0,0:0:0:0:
256,192,18579,1,0,0:0:0:0:
256,192,18667,1,0,0:0:0:0:
256,192,18754,1,8,0:0:0:0:
256,192,18928,1,0,0:0:0:0:
256,192,19103,1,0,0:0:0:0:
256,192,19190,1,0,0:0:0:0:
256,192,19277,1,0,0:0:0:0:
256,192,19452,1,8,0:0:0:0:
256,192,19539,1,0,0:0:0:0:
256,192,19800,1,0,0:0:0:0:
256,192,19975,1,0,0:0:0:0:
256,192,20062,1,0,0:0:0:0:
256,192,20149,1,0,0:0:0:0:
256,192,20324,1,0,0:0:0:0:
256,192,20411,1,0,0:0:0:0:
256,192,20498,1,0,0:0:0:0:
256,192,20672,1,8,0:0:0:0:
256,192,20847,1,8,0:0:0:0:
256,192,20934,1,0,0:0:0:0:
256,192,21021,1,8,0:0:0:0:
256,192,21109,1,8,0:0:0:0:
256,192,21196,1,0,0:0:0:0:
256,192,21370,1,4,0:0:0:0:
256,192,21545,1,0,0:0:0:0:
256,192,21632,1,0,0:0:0:0:
256,192,21719,1,0,0:0:0:0:
256,192,21806,1,0,0:0:0:0:
256,192,21893,1,8,0:0:0:0:
256,192,21959,1,0,0:0:0:0:
256,192,22024,1,0,0:0:0:0:
256,192,22090,1,0,0:0:0:0:
256,192,22166,1,0,0:0:0:0:
256,192,22242,1,0,0:0:0:0:
256,192,22329,1,0,0:0:0:0:
256,192,22417,1,0,0:0:0:0:
256,192,22591,1,8,0:0:0:0:
256,192,29481,5,8,0:0:0:0:
256,192,29655,1,8,0:0:0:0:
256,192,29742,1,8,0:0:0:0:
256,192,30266,1,8,0:0:0:0:
256,192,30353,1,8,0:0:0:0:
256,192,30527,1,8,0:0:0:0:
256,192,33754,1,4,0:0:0:0:
256,192,34452,1,8,0:0:0:0:
256,192,35149,1,8,0:0:0:0:
256,192,35847,1,8,0:0:0:0:
256,192,36545,1,8,0:0:0:0:
256,192,37242,1,8,0:0:0:0:
256,192,37940,1,8,0:0:0:0:
256,192,38638,1,8,0:0:0:0:
256,192,39335,1,8,0:0:0:0:
256,192,39684,1,8,0:0:0:0:
256,192,40033,1,8,0:0:0:0:
256,192,40382,1,8,0:0:0:0:
256,192,40731,1,8,0:0:0:0:
256,192,41079,1,8,0:0:0:0:
256,192,41428,1,8,0:0:0:0:
256,192,41777,1,8,0:0:0:0:
256,192,42126,1,8,0:0:0:0:
256,192,42475,1,8,0:0:0:0:
256,192,42824,1,8,0:0:0:0:
256,192,43172,1,8,0:0:0:0:
256,192,43521,1,8,0:0:0:0:
256,192,44917,5,0,0:0:0:0:
256,192,45178,1,8,0:0:0:0:
256,192,45266,1,0,0:0:0:0:
256,192,45353,1,8,0:0:0:0:
256,192,45440,1,8,0:0:0:0:
256,192,45614,1,0,0:0:0:0:
256,192,45789,1,8,0:0:0:0:
256,192,45876,1,8,0:0:0:0:
256,192,45963,1,0,0:0:0:0:
256,192,46050,1,8,0:0:0:0:
256,192,46225,1,8,0:0:0:0:
256,192,46312,1,0,0:0:0:0:
256,192,46574,1,8,0:0:0:0:
256,192,46661,1,0,0:0:0:0:
256,192,46748,1,0,0:0:0:0:
256,192,46835,1,8,0:0:0:0:
256,192,47010,1,0,0:0:0:0:
256,192,47184,1,0,0:0:0:0:
256,192,47271,1,8,0:0:0:0:
256,192,47359,1,0,0:0:0:0:
256,192,47446,1,0,0:0:0:0:
256,192,47533,1,8,0:0:0:0:
256,192,47591,1,8,0:0:0:0:
256,192,47649,1,8,0:0:0:0:
256,192,47707,1,0,0:0:0:0:
256,192,47969,1,8,0:0:0:0:
256,192,48056,1,0,0:0:0:0:
256,192,48143,1,8,0:0:0:0:
256,192,48231,1,8,0:0:0:0:
256,192,48405,1,0,0:0:0:0:
256,192,48579,1,8,0:0:0:0:
256,192,48667,1,8,0:0:0:0:
256,192,48754,1,0,0:0:0:0:
256,192,48841,1,8,0:0:0:0:
256,192,49016,1,8,0:0:0:0:
256,192,49103,1,0,0:0:0:0:
256,192,49277,1,8,0:0:0:0:
256,192,49364,1,0,0:0:0:0:
256,192,49539,1,8,0:0:0:0:
256,192,49626,1,0,0:0:0:0:
256,192,49713,1,8,0:0:0:0:
256,192,49800,1,0,0:0:0:0:
256,192,49975,1,8,0:0:0:0:
256,192,50062,1,8,0:0:0:0:
256,192,50149,1,0,0:0:0:0:
256,192,50236,1,0,0:0:0:0:
256,192,50324,1,8,0:0:0:0:
256,192,50411,1,8,0:0:0:0:
256,192,50498,1,0,0:0:0:0:
256,192,50672,1,8,0:0:0:0:
256,192,50760,1,8,0:0:0:0:
256,192,50847,1,0,0:0:0:0:
256,192,50934,1,8,0:0:0:0:
256,192,51021,1,8,0:0:0:0:
256,192,51196,1,0,0:0:0:0:
256,192,51283,1,0,0:0:0:0:
256,192,51370,1,8,0:0:0:0:
256,192,51457,1,0,0:0:0:0:
256,192,51545,1,0,0:0:0:0:
256,192,51632,1,8,0:0:0:0:
256,192,51806,1,8,0:0:0:0:
256,192,51893,1,0,0:0:0:0:
256,192,52068,1,0,0:0:0:0:
256,192,52155,1,8,0:0:0:0:
256,192,52242,1,0,0:0:0:0:
256,192,52329,1,8,0:0:0:0:
256,192,52417,1,8,0:0:0:0:
256,192,52591,1,0,0:0:0:0:
256,192,52678,1,0,0:0:0:0:
256,192,52766,1,8,0:0:0:0:
256,192,52853,1,8,0:0:0:0:
256,192,52940,1,0,0:0:0:0:
256,192,53027,1,8,0:0:0:0:
256,192,53114,1,8,0:0:0:0:
256,192,53172,1,8,0:0:0:0:
256,192,53231,1,8,0:0:0:0:
256,192,53289,1,0,0:0:0:0:
256,192,53463,1,0,0:0:0:0:
256,192,53550,1,0,0:0:0:0:
256,192,53638,1,0,0:0:0:0:
256,192,53725,1,8,0:0:0:0:
256,192,53812,1,8,0:0:0:0:
256,192,53986,1,0,0:0:0:0:
256,192,54074,1,0,0:0:0:0:
256,192,54161,1,8,0:0:0:0:
256,192,54248,1,0,0:0:0:0:
256,192,54335,1,0,0:0:0:0:
256,192,54422,1,8,0:0:0:0:
256,192,54597,1,8,0:0:0:0:
256,192,54684,1,0,0:0:0:0:
256,192,54859,1,0,0:0:0:0:
256,192,54946,1,8,0:0:0:0:
256,192,55033,1,0,0:0:0:0:
256,192,55120,1,8,0:0:0:0:
256,192,55207,1,8,0:0:0:0:
256,192,55382,1,0,0:0:0:0:
256,192,55469,1,8,0:0:0:0:
256,192,55556,1,0,0:0:0:0:
256,192,55643,1,0,0:0:0:0:
256,192,55731,1,0,0:0:0:0:
256,192,55818,1,8,0:0:0:0:
256,192,55905,1,8,0:0:0:0:
256,192,55992,1,8,0:0:0:0:
256,192,56079,1,0,0:0:0:0:
256,192,56254,1,0,0:0:0:0:
256,192,56428,1,0,0:0:0:0:
256,192,56603,1,0,0:0:0:0:
256,192,56777,1,0,0:0:0:0:
256,192,56952,1,0,0:0:0:0:
256,192,57126,1,0,0:0:0:0:
256,192,57300,1,0,0:0:0:0:
256,192,57475,1,0,0:0:0:0:
256,192,57649,1,0,0:0:0:0:
256,192,57824,1,0,0:0:0:0:
256,192,57998,1,0,0:0:0:0:
256,192,58172,1,0,0:0:0:0:
256,192,58347,1,0,0:0:0:0:
256,192,58521,1,0,0:0:0:0:
256,192,58696,1,8,0:0:0:0:
256,192,58754,1,0,0:0:0:0:
256,192,58812,1,0,0:0:0:0:
256,192,58870,1,8,0:0:0:0:
256,192,59045,1,0,0:0:0:0:
256,192,59219,1,0,0:0:0:0:
256,192,59393,1,0,0:0:0:0:
256,192,59568,1,0,0:0:0:0:
256,192,59742,1,0,0:0:0:0:
256,192,59917,1,0,0:0:0:0:
256,192,60091,1,0,0:0:0:0:
256,192,60266,1,0,0:0:0:0:
256,192,60440,1,0,0:0:0:0:
256,192,60614,1,0,0:0:0:0:
256,192,60789,1,0,0:0:0:0:
256,192,60963,1,0,0:0:0:0:
256,192,61138,1,0,0:0:0:0:
256,192,61312,1,0,0:0:0:0:
256,192,61486,1,0,0:0:0:0:
256,192,61661,1,8,0:0:0:0:
256,192,61748,1,0,0:0:0:0:
256,192,61835,1,0,0:0:0:0:
256,192,61922,1,0,0:0:0:0:
256,192,62010,1,8,0:0:0:0:
256,192,62097,1,0,0:0:0:0:
256,192,62184,1,0,0:0:0:0:
256,192,62271,1,0,0:0:0:0:
256,192,62359,1,8,0:0:0:0:
256,192,62446,1,0,0:0:0:0:
256,192,62533,1,0,0:0:0:0:
256,192,62620,1,0,0:0:0:0:
256,192,62707,1,8,0:0:0:0:
256,192,62795,1,0,0:0:0:0:
256,192,62882,1,0,0:0:0:0:
256,192,62969,1,0,0:0:0:0:
256,192,63056,1,8,0:0:0:0:
256,192,63143,1,0,0:0:0:0:
256,192,63231,1,0,0:0:0:0:
256,192,63318,1,0,0:0:0:0:
256,192,63405,1,8,0:0:0:0:
256,192,63492,1,0,0:0:0:0:
256,192,63579,1,0,0:0:0:0:
256,192,63667,1,0,0:0:0:0:
256,192,63754,1,8,0:0:0:0:
256,192,63841,1,0,0:0:0:0:
256,192,63928,1,0,0:0:0:0:
256,192,64016,1,0,0:0:0:0:
256,192,64103,1,8,0:0:0:0:
256,192,64190,1,0,0:0:0:0:
256,192,64277,1,0,0:0:0:0:
256,192,64364,1,0,0:0:0:0:
256,192,64452,1,8,0:0:0:0:
256,192,64539,1,0,0:0:0:0:
256,192,64626,1,8,0:0:0:0:
256,192,64713,1,0,0:0:0:0:
256,192,64800,1,8,0:0:0:0:
256,192,64888,1,0,0:0:0:0:
256,192,64975,1,8,0:0:0:0:
256,192,65062,1,0,0:0:0:0:
256,192,65149,1,8,0:0:0:0:
256,192,65236,1,0,0:0:0:0:
256,192,65324,1,8,0:0:0:0:
256,192,65411,1,0,0:0:0:0:
256,192,65498,1,8,0:0:0:0:
256,192,65585,1,0,0:0:0:0:
256,192,65672,1,8,0:0:0:0:
256,192,65760,1,0,0:0:0:0:
256,192,67242,5,4,0:0:0:0:
256,192,67417,1,0,0:0:0:0:
256,192,67504,1,0,0:0:0:0:
256,192,67591,1,8,0:0:0:0:
256,192,67766,1,0,0:0:0:0:
256,192,67853,1,8,0:0:0:0:
256,192,68027,1,8,0:0:0:0:
256,192,68114,1,0,0:0:0:0:
256,192,68202,1,0,0:0:0:0:
256,192,68289,1,8,0:0:0:0:
256,192,68463,1,8,0:0:0:0:
256,192,68550,1,8,0:0:0:0:
256,192,68638,1,0,0:0:0:0:
256,192,68812,1,0,0:0:0:0:
256,192,68899,1,0,0:0:0:0:
256,192,68986,1,8,0:0:0:0:
256,192,69161,1,0,0:0:0:0:
256,192,69248,1,8,0:0:0:0:
256,192,69422,1,8,0:0:0:0:
256,192,69510,1,0,0:0:0:0:
256,192,69684,1,8,0:0:0:0:
256,192,69771,1,8,0:0:0:0:
256,192,69859,1,0,0:0:0:0:
256,192,69917,1,8,0:0:0:0:
256,192,69975,1,8,0:0:0:0:
256,192,70033,1,0,0:0:0:0:
256,192,70207,1,0,0:0:0:0:
256,192,70295,1,0,0:0:0:0:
256,192,70382,1,8,0:0:0:0:
256,192,70556,1,0,0:0:0:0:
256,192,70643,1,8,0:0:0:0:
256,192,70818,1,8,0:0:0:0:
256,192,70905,1,0,0:0:0:0:
256,192,70992,1,0,0:0:0:0:
256,192,71079,1,8,0:0:0:0:
256,192,71254,1,8,0:0:0:0:
256,192,71341,1,8,0:0:0:0:
256,192,71428,1,0,0:0:0:0:
256,192,71603,1,0,0:0:0:0:
256,192,71690,1,0,0:0:0:0:
256,192,71777,1,8,0:0:0:0:
256,192,71864,1,8,0:0:0:0:
256,192,72039,1,8,0:0:0:0:
256,192,72126,1,0,0:0:0:0:
256,192,72213,1,8,0:0:0:0:
256,192,72300,1,0,0:0:0:0:
256,192,72475,1,8,0:0:0:0:
256,192,72649,1,0,0:0:0:0:
256,192,72707,1,0,0:0:0:0:
256,192,72766,1,0,0:0:0:0:
256,192,72824,1,0,0:0:0:0:
256,192,72998,1,0,0:0:0:0:
256,192,73085,1,0,0:0:0:0:
256,192,73172,1,8,0:0:0:0:
256,192,73347,1,0,0:0:0:0:
256,192,73434,1,8,0:0:0:0:
256,192,73609,1,8,0:0:0:0:
256,192,73696,1,0,0:0:0:0:
256,192,73783,1,0,0:0:0:0:
256,192,73870,1,8,0:0:0:0:
256,192,74045,1,8,0:0:0:0:
256,192,74132,1,8,0:0:0:0:
256,192,74219,1,0,0:0:0:0:
256,192,74393,1,0,0:0:0:0:
256,192,74481,1,0,0:0:0:0:
256,192,74568,1,8,0:0:0:0:
256,192,74742,1,0,0:0:0:0:
256,192,74829,1,8,0:0:0:0:
256,192,75004,1,8,0:0:0:0:
256,192,75091,1,0,0:0:0:0:
256,192,75266,1,8,0:0:0:0:
256,192,75353,1,8,0:0:0:0:
256,192,75440,1,0,0:0:0:0:
256,192,75498,1,8,0:0:0:0:
256,192,75556,1,8,0:0:0:0:
256,192,75614,1,0,0:0:0:0:
256,192,75789,1,0,0:0:0:0:
256,192,75876,1,0,0:0:0:0:
256,192,75963,1,8,0:0:0:0:
256,192,76138,1,0,0:0:0:0:
256,192,76225,1,8,0:0:0:0:
256,192,76399,1,8,0:0:0:0:
256,192,76486,1,0,0:0:0:0:
256,192,76574,1,0,0:0:0:0:
256,192,76661,1,8,0:0:0:0:
256,192,76835,1,8,0:0:0:0:
256,192,76922,1,8,0:0:0:0:
256,192,77010,1,0,0:0:0:0:
256,192,77184,1,0,0:0:0:0:
256,192,77271,1,0,0:0:0:0:
256,192,77359,1,8,0:0:0:0:
256,192,77417,1,8,0:0:0:0:
256,192,77475,1,8,0:0:0:0:
256,192,77533,1,0,0:0:0:0:
256,192,77620,1,8,0:0:0:0:
256,192,77707,1,4,0:0:0:0:
256,192,78405,1,0,0:0:0:0:
256,192,78579,1,0,0:0:0:0:
256,192,78667,1,0,0:0:0:0:
256,192,78754,1,8,0:0:0:0:
256,192,78928,1,0,0:0:0:0:
256,192,79016,1,8,0:0:0:0:
256,192,79190,1,8,0:0:0:0:
256,192,79277,1,0,0:0:0:0:
256,192,79364,1,0,0:0:0:0:
256,192,79452,1,8,0:0:0:0:
256,192,79626,1,8,0:0:0:0:
256,192,79713,1,8,0:0:0:0:
256,192,79800,1,0,0:0:0:0:
256,192,79975,1,0,0:0:0:0:
256,192,80062,1,0,0:0:0:0:
256,192,80149,1,8,0:0:0:0:
256,192,80324,1,0,0:0:0:0:
256,192,80411,1,8,0:0:0:0:
256,192,80585,1,8,0:0:0:0:
256,192,80672,1,0,0:0:0:0:
256,192,80847,1,8,0:0:0:0:
256,192,80934,1,8,0:0:0:0:
256,192,81021,1,0,0:0:0:0:
256,192,81079,1,8,0:0:0:0:
256,192,81138,1,8,0:0:0:0:
256,192,81196,1,0,0:0:0:0:
256,192,81370,1,0,0:0:0:0:
256,192,81457,1,0,0:0:0:0:
256,192,81545,1,8,0:0:0:0:
256,192,81719,1,0,0:0:0:0:
256,192,81806,1,8,0:0:0:0:
256,192,81981,1,8,0:0:0:0:
256,192,82068,1,0,0:0:0:0:
256,192,82155,1,0,0:0:0:0:
256,192,82242,1,8,0:0:0:0:
256,192,82417,1,8,0:0:0:0:
256,192,82504,1,8,0:0:0:0:
256,192,82591,1,0,0:0:0:0:
256,192,82766,1,0,0:0:0:0:
256,192,82853,1,0,0:0:0:0:
256,192,82940,1,8,0:0:0:0:
256,192,83027,1,0,0:0:0:0:
256,192,83114,1,0,0:0:0:0:
256,192,83202,1,8,0:0:0:0:
256,192,83289,1,0,0:0:0:0:
256,192,83376,1,8,0:0:0:0:
256,192,83463,1,0,0:0:0:0:
256,192,83550,1,0,0:0:0:0:
256,192,83638,1,8,0:0:0:0:
256,192,83812,1,0,0:0:0:0:
256,192,83870,1,0,0:0:0:0:
256,192,83928,1,0,0:0:0:0:
256,192,83986,1,0,0:0:0:0:
256,192,84161,1,0,0:0:0:0:
256,192,84248,1,0,0:0:0:0:
256,192,84335,1,8,0:0:0:0:
256,192,84510,1,0,0:0:0:0:
256,192,84597,1,8,0:0:0:0:
256,192,84771,1,8,0:0:0:0:
256,192,84859,1,0,0:0:0:0:
256,192,85033,1,8,0:0:0:0:
256,192,85120,1,0,0:0:0:0:
256,192,85295,1,0,0:0:0:0:
256,192,85382,1,0,0:0:0:0:
256,192,85556,1,0,0:0:0:0:
256,192,85643,1,0,0:0:0:0:
256,192,85731,1,8,0:0:0:0:
256,192,85905,1,0,0:0:0:0:
256,192,85992,1,8,0:0:0:0:
256,192,86167,1,8,0:0:0:0:
256,192,86254,1,0,0:0:0:0:
256,192,86428,1,8,0:0:0:0:
256,192,86516,1,0,0:0:0:0:
256,192,86690,1,8,0:0:0:0:
256,192,86777,1,0,0:0:0:0:
256,192,86864,1,8,0:0:0:0:
256,192,86952,1,0,0:0:0:0:
256,192,87126,1,8,0:0:0:0:
256,192,87300,1,0,0:0:0:0:
256,192,87388,1,8,0:0:0:0:
256,192,87475,1,0,0:0:0:0:
256,192,87562,1,8,0:0:0:0:
256,192,87649,1,0,0:0:0:0:
256,192,87736,1,8,0:0:0:0:
256,192,87824,1,8,0:0:0:0:
256,192,87882,1,8,0:0:0:0:
256,192,87940,1,8,0:0:0:0:
256,192,87998,1,0,0:0:0:0:
256,192,88172,1,8,0:0:0:0:
256,192,88231,1,8,0:0:0:0:
256,192,88289,1,8,0:0:0:0:
256,192,88347,1,0,0:0:0:0:
256,192,88521,1,8,0:0:0:0:
256,192,88609,1,0,0:0:0:0:
96,128,88870,2,0,L|170:128,3,73.4999977569581
256,192,89568,1,4,0:0:0:0:
256,192,89742,1,0,0:0:0:0:
262,192,89829,1,0,0:0:0:0:
262,192,89917,1,8,0:0:0:0:
262,192,90091,1,8,0:0:0:0:
262,192,90178,1,8,0:0:0:0:
262,192,90266,1,0,0:0:0:0:
262,192,90353,1,8,0:0:0:0:
263,190,90440,1,0,0:0:0:0:
263,190,90527,1,0,0:0:0:0:
263,190,90614,1,8,0:0:0:0:
262,192,90789,1,8,0:0:0:0:
262,192,90876,1,8,0:0:0:0:
262,192,90963,1,0,0:0:0:0:
262,192,91138,1,0,0:0:0:0:
262,192,91225,1,0,0:0:0:0:
262,192,91312,1,8,0:0:0:0:
192,64,91486,1,8,0:0:0:0:
192,64,91574,1,0,0:0:0:0:
192,64,91661,1,8,0:0:0:0:
256,192,91748,1,0,0:0:0:0:
256,192,91835,1,0,0:0:0:0:
256,192,91922,1,0,0:0:0:0:
256,192,92010,1,8,0:0:0:0:
256,192,92184,1,8,0:0:0:0:
256,192,92271,1,8,0:0:0:0:
256,192,92359,1,4,0:0:0:0:
256,192,92707,1,8,0:0:0:0:
256,192,92882,1,8,0:0:0:0:
256,192,92969,1,8,0:0:0:0:
256,192,93056,1,0,0:0:0:0:
256,192,93143,1,8,0:0:0:0:
256,192,93231,1,0,0:0:0:0:
256,192,93318,1,0,0:0:0:0:
256,192,93405,1,8,0:0:0:0:
256,192,93579,1,8,0:0:0:0:
256,192,93667,1,8,0:0:0:0:
256,192,93754,1,0,0:0:0:0:
256,192,93928,1,0,0:0:0:0:
256,192,94016,1,0,0:0:0:0:
256,192,94103,1,8,0:0:0:0:
256,192,94277,1,8,0:0:0:0:
256,192,94364,1,0,0:0:0:0:
256,192,94452,1,8,0:0:0:0:
256,192,94539,1,0,0:0:0:0:
256,192,94626,1,8,0:0:0:0:
256,192,94713,1,8,0:0:0:0:
256,192,94800,1,0,0:0:0:0:
256,192,94888,1,8,0:0:0:0:
256,192,94975,1,0,0:0:0:0:
256,192,95149,1,4,0:0:0:0:
224,192,95498,1,8,0:0:0:0:
262,192,95672,1,8,0:0:0:0:
262,192,95760,1,8,0:0:0:0:
262,192,95847,1,0,0:0:0:0:
262,192,95934,1,8,0:0:0:0:
263,190,96021,1,0,0:0:0:0:
263,190,96109,1,0,0:0:0:0:
263,190,96196,1,8,0:0:0:0:
262,192,96370,1,8,0:0:0:0:
262,192,96457,1,8,0:0:0:0:
262,192,96545,1,0,0:0:0:0:
262,192,96719,1,0,0:0:0:0:
262,192,96806,1,0,0:0:0:0:
262,192,96893,1,8,0:0:0:0:
192,64,97068,1,8,0:0:0:0:
192,64,97155,1,0,0:0:0:0:
192,64,97242,1,8,0:0:0:0:
256,192,97329,1,0,0:0:0:0:
256,192,97417,1,0,0:0:0:0:
256,192,97504,1,0,0:0:0:0:
256,192,97591,1,8,0:0:0:0:
256,192,97766,1,8,0:0:0:0:
256,192,97853,1,8,0:0:0:0:
256,192,97940,1,4,0:0:0:0:
256,192,98289,1,8,0:0:0:0:
256,192,98463,1,0,0:0:0:0:
256,192,98550,1,8,0:0:0:0:
256,192,98725,1,8,0:0:0:0:
256,192,98812,1,0,0:0:0:0:
256,192,98899,1,0,0:0:0:0:
256,192,98986,1,8,0:0:0:0:
256,192,99161,1,8,0:0:0:0:
256,192,99248,1,8,0:0:0:0:
256,192,99335,1,0,0:0:0:0:
256,192,99510,1,0,0:0:0:0:
256,192,99597,1,8,0:0:0:0:
256,192,99684,1,0,0:0:0:0:
256,192,99859,1,0,0:0:0:0:
256,192,99946,1,8,0:0:0:0:
256,192,100731,5,4,0:0:0:0:
256,192,100905,1,0,0:0:0:0:
256,192,100992,1,0,0:0:0:0:
256,192,101079,1,8,0:0:0:0:
256,192,101167,1,0,0:0:0:0:
256,192,101341,1,8,0:0:0:0:
256,192,101516,1,8,0:0:0:0:
256,192,101603,1,0,0:0:0:0:
256,192,101777,1,8,0:0:0:0:
256,192,101864,1,8,0:0:0:0:
256,192,101952,1,0,0:0:0:0:
256,192,102039,1,0,0:0:0:0:
256,192,102126,1,0,0:0:0:0:
256,192,102300,1,0,0:0:0:0:
256,192,102388,1,0,0:0:0:0:
256,192,102475,1,8,0:0:0:0:
256,192,102562,1,0,0:0:0:0:
256,192,102736,1,8,0:0:0:0:
256,192,102911,1,8,0:0:0:0:
256,192,102998,1,0,0:0:0:0:
256,192,103172,1,8,0:0:0:0:
256,192,103260,1,0,0:0:0:0:
256,192,103347,1,8,0:0:0:0:
256,192,103434,1,8,0:0:0:0:
256,192,103521,1,4,0:0:0:0:
256,192,103696,1,0,0:0:0:0:
256,192,103783,1,0,0:0:0:0:
256,192,103870,1,8,0:0:0:0:
256,192,103957,1,0,0:0:0:0:
256,192,104132,1,8,0:0:0:0:
256,192,104306,1,8,0:0:0:0:
256,192,104393,1,0,0:0:0:0:
256,192,104568,1,8,0:0:0:0:
256,192,104655,1,0,0:0:0:0:
256,192,104742,1,0,0:0:0:0:
256,192,104829,1,0,0:0:0:0:
256,192,105004,1,0,0:0:0:0:
256,192,105091,1,0,0:0:0:0:
256,192,105266,1,8,0:0:0:0:
256,192,105324,1,0,0:0:0:0:
256,192,105382,1,0,0:0:0:0:
256,192,105440,1,0,0:0:0:0:
256,192,105527,1,8,0:0:0:0:
256,192,105614,1,0,0:0:0:0:
256,192,105702,1,8,0:0:0:0:
256,192,105789,1,0,0:0:0:0:
256,192,105963,1,8,0:0:0:0:
256,192,106050,1,0,0:0:0:0:
256,192,106138,1,8,0:0:0:0:
256,192,106225,1,8,0:0:0:0:
256,192,106312,1,4,0:0:0:0:
256,192,106486,1,0,0:0:0:0:
256,192,106574,1,0,0:0:0:0:
256,192,106661,1,8,0:0:0:0:
256,192,106748,1,0,0:0:0:0:
256,192,106922,1,8,0:0:0:0:
256,192,107097,1,8,0:0:0:0:
256,192,107184,1,0,0:0:0:0:
256,192,107359,1,8,0:0:0:0:
256,192,107446,1,8,0:0:0:0:
256,192,107533,1,0,0:0:0:0:
256,192,107620,1,0,0:0:0:0:
256,192,107707,1,0,0:0:0:0:
256,192,107882,1,0,0:0:0:0:
256,192,107969,1,0,0:0:0:0:
256,192,108056,1,8,0:0:0:0:
256,192,108143,1,0,0:0:0:0:
256,192,108318,1,8,0:0:0:0:
256,192,108492,1,8,0:0:0:0:
256,192,108579,1,0,0:0:0:0:
256,192,108754,1,8,0:0:0:0:
256,192,108841,1,0,0:0:0:0:
256,192,108928,1,8,0:0:0:0:
256,192,109016,1,8,0:0:0:0:
256,192,109103,1,4,0:0:0:0:
256,192,109277,1,0,0:0:0:0:
256,192,109364,1,0,0:0:0:0:
256,192,109452,1,8,0:0:0:0:
256,192,109539,1,0,0:0:0:0:
256,192,109713,1,8,0:0:0:0:
256,192,109888,1,8,0:0:0:0:
256,192,109975,1,0,0:0:0:0:
256,192,110149,1,8,0:0:0:0:
256,192,110236,1,0,0:0:0:0:
256,192,110324,1,0,0:0:0:0:
256,192,110411,1,8,0:0:0:0:
256,192,110585,1,8,0:0:0:0:
256,192,110672,1,0,0:0:0:0:
256,192,110760,5,0,0:0:0:0:
256,192,110847,1,8,0:0:0:0:
256,192,111021,1,0,0:0:0:0:
256,192,111109,1,8,0:0:0:0:
256,192,111196,1,0,0:0:0:0:
256,192,111283,1,8,0:0:0:0:
256,192,111370,1,0,0:0:0:0:
256,192,111545,1,8,0:0:0:0:
256,192,111893,1,8,0:0:0:0:
256,192,111981,1,0,0:0:0:0:
256,192,112068,1,0,0:0:0:0:
256,192,112155,1,0,0:0:0:0:
256,192,112242,1,8,0:0:0:0:
256,192,112329,1,0,0:0:0:0:
256,192,112417,1,0,0:0:0:0:
256,192,112504,1,8,0:0:0:0:
256,192,112591,1,0,0:0:0:0:
256,192,112678,1,8,0:0:0:0:
256,192,112766,1,0,0:0:0:0:
256,192,112853,1,0,0:0:0:0:
256,192,112940,1,8,0:0:0:0:
256,192,112984,1,8,0:0:0:0:
256,192,113289,5,8,0:0:0:0:
256,192,113376,1,0,0:0:0:0:
256,192,113463,1,0,0:0:0:0:
256,192,113550,1,0,0:0:0:0:
256,192,113638,1,8,0:0:0:0:
256,192,113725,1,0,0:0:0:0:
256,192,113812,1,0,0:0:0:0:
256,192,113899,1,8,0:0:0:0:
256,192,113986,1,0,0:0:0:0:
256,192,114074,1,8,0:0:0:0:
256,192,114161,1,0,0:0:0:0:
256,192,114248,1,0,0:0:0:0:
256,192,114335,1,8,0:0:0:0:
256,192,114379,1,8,0:0:0:0:
256,192,114684,5,8,0:0:0:0:
256,192,114771,1,0,0:0:0:0:
256,192,114859,1,0,0:0:0:0:
256,192,114946,1,8,0:0:0:0:
256,192,115033,1,8,0:0:0:0:
256,192,115120,1,0,0:0:0:0:
256,192,115207,1,0,0:0:0:0:
256,192,115295,1,8,0:0:0:0:
256,192,115382,1,0,0:0:0:0:
256,192,115469,1,8,0:0:0:0:
256,192,115556,1,8,0:0:0:0:
256,192,115643,1,0,0:0:0:0:
256,192,115731,1,8,0:0:0:0:
256,192,115774,1,8,0:0:0:0:
256,192,116079,5,8,0:0:0:0:
256,192,116167,1,0,0:0:0:0:
256,192,116254,1,0,0:0:0:0:
256,192,116341,1,8,0:0:0:0:
256,192,116428,1,8,0:0:0:0:
256,192,116516,1,0,0:0:0:0:
256,192,116603,1,0,0:0:0:0:
256,192,116690,1,8,0:0:0:0:
256,192,116777,1,0,0:0:0:0:
256,192,116864,1,8,0:0:0:0:
256,192,116952,1,8,0:0:0:0:
256,192,117039,1,0,0:0:0:0:
256,192,117126,1,8,0:0:0:0:
256,192,117170,1,8,0:0:0:0:
256,192,117475,5,0,0:0:0:0:
256,192,117562,1,0,0:0:0:0:
256,192,117649,1,0,0:0:0:0:
256,192,117736,1,0,0:0:0:0:
256,192,117824,1,8,0:0:0:0:
256,192,117911,1,0,0:0:0:0:
256,192,117998,1,0,0:0:0:0:
256,192,118085,1,8,0:0:0:0:
256,192,118172,1,0,0:0:0:0:
256,192,118260,1,8,0:0:0:0:
256,192,118347,1,0,0:0:0:0:
256,192,118434,1,0,0:0:0:0:
256,192,118521,1,8,0:0:0:0:
256,192,118565,1,8,0:0:0:0:
256,192,118870,5,0,0:0:0:0:
256,192,118957,1,0,0:0:0:0:
256,192,119045,1,0,0:0:0:0:
256,192,119132,1,0,0:0:0:0:
256,192,119219,1,8,0:0:0:0:
256,192,119306,1,0,0:0:0:0:
256,192,119393,1,0,0:0:0:0:
256,192,119481,1,8,0:0:0:0:
256,192,119568,1,0,0:0:0:0:
256,192,119655,1,8,0:0:0:0:
256,192,119742,1,0,0:0:0:0:
256,192,119829,1,0,0:0:0:0:
256,192,119917,1,8,0:0:0:0:
256,192,119960,1,8,0:0:0:0:
256,192,120266,5,8,0:0:0:0:
256,192,120353,1,0,0:0:0:0:
256,192,120440,1,0,0:0:0:0:
256,192,120527,1,0,0:0:0:0:
256,192,120614,1,8,0:0:0:0:
256,192,120702,1,0,0:0:0:0:
256,192,120789,1,0,0:0:0:0:
256,192,120876,1,8,0:0:0:0:
256,192,120963,1,0,0:0:0:0:
256,192,121050,1,8,0:0:0:0:
256,192,121138,1,0,0:0:0:0:
256,192,121225,1,0,0:0:0:0:
256,192,121312,1,8,0:0:0:0:
256,192,121356,1,8,0:0:0:0:
256,192,121661,1,8,0:0:0:0:
256,192,121748,1,0,0:0:0:0:
256,192,121835,1,0,0:0:0:0:
256,192,121922,1,0,0:0:0:0:
256,192,122010,1,8,0:0:0:0:
256,192,122119,12,0,122446,0:0:0:0:
256,192,122707,5,8,0:0:0:0:
256,192,122751,1,8,0:0:0:0:
256,192,122882,1,0,0:0:0:0:
256,192,122969,1,0,0:0:0:0:
256,192,123056,1,0,0:0:0:0:
256,192,123318,1,8,0:0:0:0:
256,192,123405,1,0,0:0:0:0:
256,192,123579,1,8,0:0:0:0:
256,192,123754,1,0,0:0:0:0:
256,192,123928,1,0,0:0:0:0:
256,192,124016,1,8,0:0:0:0:
256,192,124190,1,0,0:0:0:0:
256,192,124364,1,8,0:0:0:0:
256,192,124452,1,0,0:0:0:0:
256,192,124713,1,8,0:0:0:0:
256,192,124800,1,0,0:0:0:0:
256,192,124975,1,8,0:0:0:0:
256,192,125149,1,0,0:0:0:0:
256,192,125324,1,0,0:0:0:0:
256,192,125411,1,8,0:0:0:0:
256,192,125585,1,0,0:0:0:0:
256,192,125760,1,8,0:0:0:0:
256,192,125847,1,0,0:0:0:0:
256,192,126109,1,8,0:0:0:0:
256,192,126196,1,0,0:0:0:0:
256,192,126370,1,8,0:0:0:0:
256,192,126545,1,0,0:0:0:0:
256,192,126719,1,0,0:0:0:0:
256,192,126806,1,8,0:0:0:0:
256,192,126981,1,0,0:0:0:0:
256,192,127155,1,8,0:0:0:0:
256,192,127242,1,0,0:0:0:0:
256,192,127504,1,8,0:0:0:0:
256,192,127591,1,0,0:0:0:0:
256,192,127766,1,8,0:0:0:0:
256,192,127940,1,0,0:0:0:0:
256,192,128114,1,0,0:0:0:0:
256,192,128202,1,8,0:0:0:0:
256,192,128376,1,0,0:0:0:0:
256,192,128550,1,8,0:0:0:0:
256,192,128638,1,0,0:0:0:0:
256,192,128812,1,0,0:0:0:0:
256,192,128986,1,0,0:0:0:0:
256,192,129161,1,0,0:0:0:0:
256,192,129335,1,0,0:0:0:0:
256,192,129510,1,0,0:0:0:0:
256,192,129684,1,0,0:0:0:0:
256,192,129859,1,0,0:0:0:0:
256,192,130033,1,0,0:0:0:0:
256,192,130207,1,0,0:0:0:0:
256,192,130382,1,0,0:0:0:0:
256,192,130556,1,0,0:0:0:0:
256,192,130731,1,0,0:0:0:0:
256,192,130905,1,0,0:0:0:0:
256,192,131079,1,0,0:0:0:0:
256,192,131254,1,0,0:0:0:0:
256,192,131428,1,8,0:0:0:0:
256,192,131516,1,8,0:0:0:0:
256,192,131603,1,8,0:0:0:0:
256,192,131690,1,8,0:0:0:0:
256,192,131777,1,8,0:0:0:0:
256,192,131864,1,8,0:0:0:0:
256,192,131952,1,8,0:0:0:0:
256,192,132039,1,8,0:0:0:0:
256,192,132126,1,8,0:0:0:0:
256,192,132213,1,8,0:0:0:0:
256,192,132300,1,8,0:0:0:0:
256,192,132388,1,8,0:0:0:0:
256,192,132475,1,8,0:0:0:0:
256,192,132562,1,8,0:0:0:0:
256,192,132649,1,8,0:0:0:0:
256,192,132736,1,8,0:0:0:0:
256,192,132824,1,0,0:0:0:0:
256,192,132911,1,0,0:0:0:0:
256,192,132998,1,0,0:0:0:0:
256,192,133085,5,0,0:0:0:0:
256,192,133172,1,0,0:0:0:0:
256,192,133260,1,0,0:0:0:0:
256,192,133347,1,0,0:0:0:0:
256,192,133434,1,0,0:0:0:0:
256,192,133521,1,8,0:0:0:0:
256,192,133609,1,8,0:0:0:0:
256,192,133696,1,0,0:0:0:0:
256,192,133783,1,8,0:0:0:0:
256,192,133870,1,0,0:0:0:0:
256,192,133957,1,0,0:0:0:0:
256,192,134045,1,8,0:0:0:0:
256,192,134219,1,4,0:0:0:0:
256,192,134393,1,0,0:0:0:0:
256,192,134481,1,0,0:0:0:0:
256,192,134568,1,8,0:0:0:0:
256,192,134742,1,0,0:0:0:0:
256,192,134829,1,0,0:0:0:0:
256,192,134917,1,0,0:0:0:0:
256,192,135004,1,0,0:0:0:0:
256,192,135091,1,0,0:0:0:0:
256,192,135266,1,8,0:0:0:0:
256,192,135440,1,0,0:0:0:0:
256,192,135527,1,0,0:0:0:0:
256,192,135614,1,0,0:0:0:0:
256,192,135702,1,0,0:0:0:0:
256,192,135789,1,0,0:0:0:0:
256,192,135876,1,0,0:0:0:0:
256,192,135963,1,8,0:0:0:0:
256,192,136138,1,0,0:0:0:0:
256,192,136225,1,0,0:0:0:0:
256,192,136312,1,0,0:0:0:0:
256,192,136399,1,0,0:0:0:0:
256,192,136486,1,0,0:0:0:0:
256,192,136574,1,0,0:0:0:0:
256,192,136661,1,8,0:0:0:0:
256,192,136835,1,8,0:0:0:0:
256,192,136893,1,8,0:0:0:0:
256,192,136952,1,8,0:0:0:0:
256,192,137010,1,0,0:0:0:0:
256,192,137184,1,0,0:0:0:0:
256,192,137271,1,0,0:0:0:0:
256,192,137359,1,8,0:0:0:0:
256,192,137533,1,0,0:0:0:0:
256,192,137620,1,0,0:0:0:0:
256,192,137707,1,0,0:0:0:0:
256,192,137795,1,0,0:0:0:0:
256,192,137882,1,0,0:0:0:0:
256,192,138056,1,8,0:0:0:0:
256,192,138231,1,0,0:0:0:0:
256,192,138318,1,0,0:0:0:0:
256,192,138405,1,0,0:0:0:0:
256,192,138579,1,0,0:0:0:0:
256,192,138667,1,0,0:0:0:0:
256,192,138754,1,8,0:0:0:0:
256,192,138841,1,0,0:0:0:0:
256,192,138928,1,8,0:0:0:0:
256,192,138986,1,8,0:0:0:0:
256,192,139045,1,8,0:0:0:0:
256,192,139103,1,0,0:0:0:0:
256,192,139190,1,8,0:0:0:0:
288,192,139277,1,0,0:0:0:0:
256,192,139364,1,0,0:0:0:0:
256,192,139452,1,8,0:0:0:0:
256,192,139626,1,8,0:0:0:0:
256,192,139713,1,8,0:0:0:0:
256,192,139800,1,4,0:0:0:0:
256,192,139975,1,0,0:0:0:0:
256,192,140062,1,0,0:0:0:0:
256,192,140149,1,8,0:0:0:0:
256,192,140324,1,0,0:0:0:0:
256,192,140411,1,0,0:0:0:0:
256,192,140498,1,0,0:0:0:0:
256,192,140585,1,0,0:0:0:0:
256,192,140672,1,0,0:0:0:0:
256,192,140847,1,8,0:0:0:0:
256,192,140934,1,0,0:0:0:0:
256,192,141021,1,0,0:0:0:0:
256,192,141196,1,0,0:0:0:0:
256,192,141283,1,0,0:0:0:0:
256,192,141370,1,0,0:0:0:0:
256,192,141457,1,0,0:0:0:0:
256,192,141545,1,8,0:0:0:0:
256,192,141719,1,0,0:0:0:0:
256,192,141806,1,0,0:0:0:0:
256,192,141893,1,0,0:0:0:0:
256,192,141981,1,0,0:0:0:0:
256,192,142068,1,0,0:0:0:0:
256,192,142155,1,0,0:0:0:0:
256,192,142242,1,8,0:0:0:0:
256,192,142417,1,8,0:0:0:0:
256,192,142504,1,8,0:0:0:0:
256,192,142591,1,0,0:0:0:0:
256,192,142853,1,0,0:0:0:0:
256,192,142940,1,8,0:0:0:0:
256,192,143202,1,8,0:0:0:0:
256,192,143550,1,0,0:0:0:0:
256,192,143638,1,8,0:0:0:0:
256,192,143812,1,0,0:0:0:0:
256,192,143986,1,8,0:0:0:0:
256,192,144335,1,8,0:0:0:0:
256,192,144859,1,8,0:0:0:0:
256,192,145033,1,0,0:0:0:0:
256,192,145207,1,8,0:0:0:0:
256,192,145382,1,4,0:0:0:0:
256,192,145556,1,0,0:0:0:0:
256,192,145643,1,0,0:0:0:0:
256,192,145731,1,8,0:0:0:0:
256,192,145905,1,0,0:0:0:0:
256,192,145992,1,8,0:0:0:0:
256,192,146079,1,0,0:0:0:0:
256,192,146167,1,8,0:0:0:0:
256,192,146254,1,0,0:0:0:0:
256,192,146341,1,0,0:0:0:0:
256,192,146428,1,8,0:0:0:0:
256,192,146516,1,0,0:0:0:0:
256,192,146690,1,0,0:0:0:0:
256,192,146777,1,0,0:0:0:0:
256,192,146952,1,8,0:0:0:0:
256,192,147010,1,8,0:0:0:0:
256,192,147068,1,8,0:0:0:0:
256,192,147126,1,0,0:0:0:0:
256,192,147300,1,8,0:0:0:0:
256,192,147359,1,8,0:0:0:0:
256,192,147417,1,8,0:0:0:0:
256,192,147475,1,0,0:0:0:0:
256,192,147649,1,0,0:0:0:0:
256,192,147824,1,8,0:0:0:0:
256,192,147911,1,0,0:0:0:0:
256,192,147998,1,0,0:0:0:0:
256,192,148056,1,8,0:0:0:0:
256,192,148114,1,8,0:0:0:0:
256,192,148172,1,0,0:0:0:0:
256,192,148347,1,0,0:0:0:0:
256,192,148434,1,0,0:0:0:0:
256,192,148521,1,8,0:0:0:0:
256,192,148696,1,0,0:0:0:0:
256,192,148783,1,8,0:0:0:0:
256,192,148870,1,0,0:0:0:0:
256,192,148957,1,8,0:0:0:0:
256,192,149045,1,0,0:0:0:0:
256,192,149132,1,0,0:0:0:0:
256,192,149219,1,8,0:0:0:0:
256,192,149306,1,0,0:0:0:0:
256,192,149481,1,0,0:0:0:0:
256,192,149568,1,0,0:0:0:0:
256,192,149742,1,8,0:0:0:0:
256,192,149829,1,0,0:0:0:0:
256,192,149917,1,8,0:0:0:0:
256,192,150004,1,8,0:0:0:0:
256,192,150091,1,0,0:0:0:0:
256,192,150178,1,8,0:0:0:0:
256,192,150266,1,0,0:0:0:0:
256,192,150440,1,0,0:0:0:0:
256,192,150614,1,8,0:0:0:0:
256,192,150672,1,8,0:0:0:0:
256,192,150731,1,8,0:0:0:0:
256,192,150789,1,8,0:0:0:0:
256,192,150963,1,4,0:0:0:0:
256,192,151138,1,0,0:0:0:0:
256,192,151225,1,0,0:0:0:0:
256,192,151312,1,8,0:0:0:0:
256,192,151486,1,0,0:0:0:0:
256,192,151574,1,8,0:0:0:0:
256,192,151661,1,0,0:0:0:0:
256,192,151748,1,8,0:0:0:0:
256,192,151835,1,0,0:0:0:0:
256,192,151922,1,0,0:0:0:0:
256,192,152010,1,8,0:0:0:0:
256,192,152097,1,0,0:0:0:0:
256,192,152271,1,0,0:0:0:0:
256,192,152359,1,0,0:0:0:0:
256,192,152533,1,8,0:0:0:0:
256,192,152591,1,8,0:0:0:0:
256,192,152649,1,8,0:0:0:0:
256,192,152707,1,0,0:0:0:0:
256,192,152882,1,8,0:0:0:0:
256,192,152940,1,8,0:0:0:0:
256,192,152998,1,8,0:0:0:0:
256,192,153056,1,0,0:0:0:0:
256,192,153231,1,0,0:0:0:0:
256,192,153405,1,8,0:0:0:0:
256,192,153492,1,0,0:0:0:0:
256,192,153579,1,0,0:0:0:0:
256,192,153638,1,8,0:0:0:0:
256,192,153696,1,8,0:0:0:0:
256,192,153754,1,0,0:0:0:0:
256,192,153928,1,0,0:0:0:0:
256,192,154016,1,0,0:0:0:0:
256,192,154103,1,8,0:0:0:0:
256,192,154146,1,8,0:0:0:0:
256,192,154277,1,0,0:0:0:0:
256,192,154452,1,8,0:0:0:0:
256,192,154495,1,8,0:0:0:0:
256,192,154626,1,0,0:0:0:0:
256,192,154800,1,0,0:0:0:0:
256,192,154859,1,0,0:0:0:0:
256,192,154917,1,0,0:0:0:0:
256,192,154975,1,0,0:0:0:0:
256,192,155062,1,0,0:0:0:0:
256,192,155149,1,8,0:0:0:0:
256,192,155324,1,0,0:0:0:0:
96,192,155498,2,0,L|173:193,5,75.6000018457032
256,192,156545,1,4,0:0:0:0:
256,192,156806,1,0,0:0:0:0:
256,192,156893,1,8,0:0:0:0:
256,192,157155,1,8,0:0:0:0:
256,192,157417,1,0,0:0:0:0:
256,192,157591,1,8,0:0:0:0:
256,192,157678,1,0,0:0:0:0:
256,192,157853,1,0,0:0:0:0:
256,192,157940,1,0,0:0:0:0:
256,192,158202,1,0,0:0:0:0:
256,192,158289,1,8,0:0:0:0:
256,192,158550,1,8,0:0:0:0:
256,192,158812,1,0,0:0:0:0:
256,192,158986,1,8,0:0:0:0:
256,192,159074,1,0,0:0:0:0:
256,192,159335,1,4,0:0:0:0:
256,192,159597,1,0,0:0:0:0:
256,192,159684,1,8,0:0:0:0:
256,192,159946,1,8,0:0:0:0:
256,192,160207,1,0,0:0:0:0:
256,192,160382,1,8,0:0:0:0:
256,192,160469,1,0,0:0:0:0:
256,192,160731,1,0,0:0:0:0:
256,192,160905,1,0,0:0:0:0:
256,192,160992,1,0,0:0:0:0:
256,192,161079,1,8,0:0:0:0:
256,192,161341,1,8,0:0:0:0:
256,192,161603,1,0,0:0:0:0:
256,192,161777,1,8,0:0:0:0:
256,192,161864,1,0,0:0:0:0:
256,192,162126,1,4,0:0:0:0:
256,192,162388,1,0,0:0:0:0:
256,192,162475,1,8,0:0:0:0:
256,192,162736,1,8,0:0:0:0:
256,192,162998,1,0,0:0:0:0:
256,192,163172,1,8,0:0:0:0:
256,192,163260,1,0,0:0:0:0:
256,192,163434,1,0,0:0:0:0:
256,192,163521,1,0,0:0:0:0:
256,192,163696,1,0,0:0:0:0:
256,192,163783,1,0,0:0:0:0:
256,192,163870,1,8,0:0:0:0:
256,192,164132,1,8,0:0:0:0:
256,192,164393,1,0,0:0:0:0:
256,192,164568,1,8,0:0:0:0:
256,192,164655,1,0,0:0:0:0:
256,192,164917,1,4,0:0:0:0:
256,192,165178,1,0,0:0:0:0:
256,192,165266,1,8,0:0:0:0:
256,192,165527,1,8,0:0:0:0:
256,192,165789,1,0,0:0:0:0:
256,192,165963,1,8,0:0:0:0:
256,192,166050,1,0,0:0:0:0:
256,192,166225,1,0,0:0:0:0:
256,192,166312,1,0,0:0:0:0:
256,192,166486,1,0,0:0:0:0:
256,192,166661,1,8,0:0:0:0:
256,192,166835,1,0,0:0:0:0:
256,192,166922,1,8,0:0:0:0:
256,192,167010,1,0,0:0:0:0:
256,192,167184,1,8,0:0:0:0:
256,192,167271,1,8,0:0:0:0:
256,192,167359,1,0,0:0:0:0:
256,192,167446,1,0,0:0:0:0:
256,192,167533,1,8,0:0:0:0:
256,192,167707,5,0,0:0:0:0:
256,192,167766,1,0,0:0:0:0:
256,192,167824,1,0,0:0:0:0:
256,192,167882,1,0,0:0:0:0:
256,192,168056,1,8,0:0:0:0:
256,192,168318,1,8,0:0:0:0:
256,192,168579,1,0,0:0:0:0:
256,192,168754,1,8,0:0:0:0:
256,192,168841,1,0,0:0:0:0:
256,192,169103,1,0,0:0:0:0:
256,192,169277,1,8,0:0:0:0:
256,192,169335,1,8,0:0:0:0:
256,192,169393,1,8,0:0:0:0:
256,192,169452,1,0,0:0:0:0:
256,192,169713,1,8,0:0:0:0:
256,192,169888,1,0,0:0:0:0:
256,192,169975,1,0,0:0:0:0:
256,192,170149,1,8,0:0:0:0:
256,192,170236,1,0,0:0:0:0:
256,192,170324,1,8,0:0:0:0:
256,192,170411,1,8,0:0:0:0:
256,192,170498,1,0,0:0:0:0:
256,192,170556,1,0,0:0:0:0:
256,192,170614,1,0,0:0:0:0:
256,192,170672,1,0,0:0:0:0:
256,192,170847,1,8,0:0:0:0:
256,192,171109,1,8,0:0:0:0:
256,192,171370,1,0,0:0:0:0:
256,192,171545,1,8,0:0:0:0:
256,192,171632,1,0,0:0:0:0:
256,192,171893,1,0,0:0:0:0:
256,192,172068,1,8,0:0:0:0:
256,192,172126,1,8,0:0:0:0:
256,192,172184,1,8,0:0:0:0:
256,192,172242,1,0,0:0:0:0:
256,192,172504,1,8,0:0:0:0:
256,192,172678,1,0,0:0:0:0:
256,192,172766,1,0,0:0:0:0:
256,192,172940,1,8,0:0:0:0:
256,192,173027,1,0,0:0:0:0:
256,192,173114,1,8,0:0:0:0:
256,192,173202,1,8,0:0:0:0:
256,192,173289,1,0,0:0:0:0:
256,192,173347,1,0,0:0:0:0:
256,192,173405,1,0,0:0:0:0:
256,192,173463,1,0,0:0:0:0:
256,192,173638,1,8,0:0:0:0:
256,192,173812,1,0,0:0:0:0:
256,192,173899,1,8,0:0:0:0:
256,192,174161,1,0,0:0:0:0:
256,192,174335,1,8,0:0:0:0:
256,192,174422,1,0,0:0:0:0:
256,192,174510,1,0,0:0:0:0:
256,192,174597,1,0,0:0:0:0:
256,192,174684,1,0,0:0:0:0:
256,192,174859,1,8,0:0:0:0:
256,192,174946,1,8,0:0:0:0:
256,192,175033,1,0,0:0:0:0:
256,192,175207,1,0,0:0:0:0:
256,192,175295,1,8,0:0:0:0:
256,192,175469,1,0,0:0:0:0:
256,192,175556,1,0,0:0:0:0:
256,192,175731,1,8,0:0:0:0:
256,192,175818,1,0,0:0:0:0:
256,192,175905,1,8,0:0:0:0:
256,192,175992,1,8,0:0:0:0:
256,192,176079,1,0,0:0:0:0:
256,192,176138,1,0,0:0:0:0:
256,192,176196,1,0,0:0:0:0:
256,192,176254,1,0,0:0:0:0:
256,192,176428,1,8,0:0:0:0:
256,192,176603,1,0,0:0:0:0:
256,192,176690,1,8,0:0:0:0:
256,192,176864,1,8,0:0:0:0:
256,192,176952,1,0,0:0:0:0:
256,192,177126,1,8,0:0:0:0:
256,192,177213,1,0,0:0:0:0:
256,192,177388,1,8,0:0:0:0:
256,192,177475,1,0,0:0:0:0:
256,192,177562,1,8,0:0:0:0:
256,192,177649,1,0,0:0:0:0:
256,192,177824,1,8,0:0:0:0:
256,192,178347,1,0,0:0:0:0:
256,192,178870,1,8,0:0:0:0:
256,192,179219,1,0,0:0:0:0:
256,192,179481,1,8,0:0:0:0:
256,192,179655,1,0,0:0:0:0:
256,192,179917,1,8,0:0:0:0:
256,192,180266,1,0,0:0:0:0:
256,192,180614,1,0,0:0:0:0:
256,192,180876,1,8,0:0:0:0:
256,192,181050,1,0,0:0:0:0:
256,192,181312,1,8,0:0:0:0:
256,192,181661,1,8,0:0:0:0:
256,192,182010,1,0,0:0:0:0:
256,192,182271,1,8,0:0:0:0:
256,192,182446,1,0,0:0:0:0:
256,192,182707,1,8,0:0:0:0:
256,192,183056,1,0,0:0:0:0:
256,192,183405,1,0,0:0:0:0:
256,192,183667,1,8,0:0:0:0:
256,192,183841,1,0,0:0:0:0:
256,192,184103,1,8,0:0:0:0:
256,192,184452,1,8,0:0:0:0:
256,192,184800,1,0,0:0:0:0:
256,192,185062,1,8,0:0:0:0:
256,192,185236,1,0,0:0:0:0:
256,192,185498,1,8,0:0:0:0:
256,192,185847,1,0,0:0:0:0:
256,192,186196,1,0,0:0:0:0:
256,192,186457,1,8,0:0:0:0:
256,192,186632,1,0,0:0:0:0:
256,192,186893,1,8,0:0:0:0:
256,192,187242,1,8,0:0:0:0:
256,192,187591,1,0,0:0:0:0:
256,192,187853,1,8,0:0:0:0:
256,192,188027,1,0,0:0:0:0:
256,192,188289,1,8,0:0:0:0:
256,192,188638,1,0,0:0:0:0:
256,192,188986,1,0,0:0:0:0:
256,192,189248,1,8,0:0:0:0:
256,192,189422,1,0,0:0:0:0:
256,192,189684,1,8,0:0:0:0:
256,192,189859,1,0,0:0:0:0:
256,192,190033,1,8,0:0:0:0:
256,192,190382,1,0,0:0:0:0:
256,192,190731,1,0,0:0:0:0:
256,192,190818,1,0,0:0:0:0:
256,192,191079,1,8,0:0:0:0:
256,192,191428,1,0,0:0:0:0:
256,192,191777,1,0,0:0:0:0:
256,192,192126,1,0,0:0:0:0:
256,192,192213,1,0,0:0:0:0:
256,192,192475,1,8,0:0:0:0:
256,192,192824,1,0,0:0:0:0:
256,192,193172,1,0,0:0:0:0:
256,192,193521,1,0,0:0:0:0:
256,192,193609,1,0,0:0:0:0:
256,192,193870,1,8,0:0:0:0:
256,192,194219,1,0,0:0:0:0:
256,192,194568,1,0,0:0:0:0:
256,192,194917,1,0,0:0:0:0:
256,192,195004,1,0,0:0:0:0:
256,192,195266,1,8,0:0:0:0:
256,192,195614,1,0,0:0:0:0:
256,192,195789,1,0,0:0:0:0:
256,192,195963,1,8,0:0:0:0:
256,192,196138,1,0,0:0:0:0:
256,192,196312,1,0,0:0:0:0:
256,192,196486,1,0,0:0:0:0:
256,192,196661,1,8,0:0:0:0:
256,192,196835,1,0,0:0:0:0:
256,192,197010,1,0,0:0:0:0:
256,192,197184,1,0,0:0:0:0:
256,192,197359,1,0,0:0:0:0:
256,192,197533,1,0,0:0:0:0:
256,192,197707,1,0,0:0:0:0:
256,192,197882,1,0,0:0:0:0:
256,192,198056,1,8,0:0:0:0:
256,192,198231,1,0,0:0:0:0:
256,192,198405,12,0,199452,0:0:0:0:
256,192,199800,5,8,0:0:0:0:
256,192,199975,1,0,0:0:0:0:
256,192,200149,1,0,0:0:0:0:
256,192,200215,1,0,0:0:0:0:
256,192,200280,1,0,0:0:0:0:
256,192,200345,1,0,0:0:0:0:
256,192,200411,1,8,0:0:0:0:
256,192,200760,1,8,0:0:0:0:
256,192,200934,1,0,0:0:0:0:
256,192,201021,1,0,0:0:0:0:
256,192,201196,1,8,0:0:0:0:
224,192,209568,6,0,L|384:192,7,140
256,192,212359,1,8,0:0:0:0:
256,192,213056,1,8,0:0:0:0:
256,192,213754,1,8,0:0:0:0:
256,192,214452,1,8,0:0:0:0:
256,192,215149,1,8,0:0:0:0:
256,192,215847,1,8,0:0:0:0:
256,192,216545,1,8,0:0:0:0:
256,192,217242,1,8,0:0:0:0:
256,192,217940,12,0,221777,0:0:0:0:
256,192,222126,5,8,0:0:0:0:
256,192,222213,1,8,0:0:0:0:
256,192,222300,1,0,0:0:0:0:
256,192,222388,1,8,0:0:0:0:
256,192,222475,1,0,0:0:0:0:
256,192,222562,1,0,0:0:0:0:
256,192,222649,1,8,0:0:0:0:
256,192,222736,1,0,0:0:0:0:
256,192,222824,1,8,0:0:0:0:
256,192,222911,1,8,0:0:0:0:
256,192,222998,1,8,0:0:0:0:
256,192,223085,1,8,0:0:0:0:
256,192,223172,1,4,0:0:0:0:
256,192,223521,5,0,0:0:0:0:
256,192,223696,1,0,0:0:0:0:
256,192,223783,1,0,0:0:0:0:
256,192,223870,1,8,0:0:0:0:
256,192,224045,1,0,0:0:0:0:
256,192,224132,1,8,0:0:0:0:
256,192,224306,1,8,0:0:0:0:
256,192,224393,1,0,0:0:0:0:
256,192,224481,1,0,0:0:0:0:
256,192,224568,1,8,0:0:0:0:
256,192,224655,1,0,0:0:0:0:
256,192,224742,1,8,0:0:0:0:
256,192,224800,1,0,0:0:0:0:
256,192,224859,1,0,0:0:0:0:
256,192,224917,1,8,0:0:0:0:
256,192,225091,1,0,0:0:0:0:
256,192,225149,1,0,0:0:0:0:
256,192,225207,1,0,0:0:0:0:
256,192,225266,1,8,0:0:0:0:
256,192,225440,1,0,0:0:0:0:
256,192,225527,1,8,0:0:0:0:
256,192,225614,1,0,0:0:0:0:
256,192,225702,1,8,0:0:0:0:
256,192,225789,1,8,0:0:0:0:
256,192,225876,1,0,0:0:0:0:
256,192,225963,1,8,0:0:0:0:
256,192,226138,1,8,0:0:0:0:
256,192,226196,1,8,0:0:0:0:
256,192,226254,1,8,0:0:0:0:
256,192,226312,1,0,0:0:0:0:
256,192,226486,1,0,0:0:0:0:
256,192,226574,1,0,0:0:0:0:
256,192,226661,1,8,0:0:0:0:
256,192,226835,1,0,0:0:0:0:
256,192,226922,1,8,0:0:0:0:
256,192,227010,1,0,0:0:0:0:
256,192,227097,1,8,0:0:0:0:
256,192,227184,1,0,0:0:0:0:
256,192,227359,1,8,0:0:0:0:
256,192,227533,1,0,0:0:0:0:
256,192,227620,1,0,0:0:0:0:
256,192,227707,1,8,0:0:0:0:
256,192,227795,1,0,0:0:0:0:
256,192,227882,1,0,0:0:0:0:
256,192,228056,1,8,0:0:0:0:
256,192,228143,1,0,0:0:0:0:
256,192,228231,1,0,0:0:0:0:
256,192,228318,1,8,0:0:0:0:
256,192,228492,1,8,0:0:0:0:
256,192,228579,1,0,0:0:0:0:
256,192,228667,1,0,0:0:0:0:
256,192,228754,1,8,0:0:0:0:
256,192,228841,1,0,0:0:0:0:
256,192,228928,1,8,0:0:0:0:
256,192,229016,1,8,0:0:0:0:
256,192,229103,1,0,0:0:0:0:
256,192,229277,1,0,0:0:0:0:
256,192,229364,1,0,0:0:0:0:
256,192,229452,1,8,0:0:0:0:
256,192,229626,1,0,0:0:0:0:
256,192,229713,1,8,0:0:0:0:
256,192,229888,1,8,0:0:0:0:
256,192,229975,1,0,0:0:0:0:
256,192,230062,1,0,0:0:0:0:
256,192,230149,1,8,0:0:0:0:
256,192,230236,1,0,0:0:0:0:
256,192,230324,1,8,0:0:0:0:
256,192,230382,1,0,0:0:0:0:
256,192,230440,1,0,0:0:0:0:
256,192,230498,1,8,0:0:0:0:
256,192,230672,1,0,0:0:0:0:
256,192,230731,1,0,0:0:0:0:
256,192,230789,1,0,0:0:0:0:
256,192,230847,1,8,0:0:0:0:
256,192,231021,1,8,0:0:0:0:
256,192,231109,1,8,0:0:0:0:
256,192,231196,1,0,0:0:0:0:
256,192,231283,1,8,0:0:0:0:
256,192,231370,1,0,0:0:0:0:
256,192,231457,1,0,0:0:0:0:
256,192,231545,1,8,0:0:0:0:
256,192,231719,1,8,0:0:0:0:
256,192,231777,1,8,0:0:0:0:
256,192,231835,1,8,0:0:0:0:
256,192,231893,1,0,0:0:0:0:
256,192,232068,1,0,0:0:0:0:
256,192,232155,1,0,0:0:0:0:
256,192,232242,1,8,0:0:0:0:
256,192,232417,1,0,0:0:0:0:
256,192,232504,1,8,0:0:0:0:
256,192,232591,1,0,0:0:0:0:
256,192,232678,1,8,0:0:0:0:
256,192,232766,1,0,0:0:0:0:
256,192,232853,1,0,0:0:0:0:
256,192,232940,1,8,0:0:0:0:
256,192,233027,1,0,0:0:0:0:
256,192,233114,1,8,0:0:0:0:
256,192,233172,1,8,0:0:0:0:
256,192,233231,1,8,0:0:0:0:
256,192,233289,1,0,0:0:0:0:
256,192,233463,1,0,0:0:0:0:
256,192,233638,1,8,0:0:0:0:
256,192,233696,1,0,0:0:0:0:
256,192,233754,1,0,0:0:0:0:
256,192,233812,1,8,0:0:0:0:
256,192,233899,1,8,0:0:0:0:
256,192,233986,1,0,0:0:0:0:
256,192,234045,1,0,0:0:0:0:
256,192,234103,1,0,0:0:0:0:
256,192,234161,1,0,0:0:0:0:
256,192,234219,1,0,0:0:0:0:
256,192,234277,1,0,0:0:0:0:
256,192,234335,1,8,0:0:0:0:
256,192,234393,1,8,0:0:0:0:
256,192,234452,1,8,0:0:0:0:
256,192,234510,1,8,0:0:0:0:
256,192,234568,1,8,0:0:0:0:
256,192,234626,1,8,0:0:0:0:
256,192,234684,1,0,0:0:0:0:
256,192,234859,1,0,0:0:0:0:
256,192,234946,1,0,0:0:0:0:
256,192,235033,1,8,0:0:0:0:
256,192,235207,1,8,0:0:0:0:
256,192,235295,1,8,0:0:0:0:
256,192,235382,1,0,0:0:0:0:
256,192,235469,1,8,0:0:0:0:
256,192,235556,1,0,0:0:0:0:
256,192,235643,1,0,0:0:0:0:
256,192,235731,1,8,0:0:0:0:
256,192,235905,1,8,0:0:0:0:
256,192,235963,1,0,0:0:0:0:
256,192,236021,1,0,0:0:0:0:
256,192,236079,1,8,0:0:0:0:
256,192,236254,1,0,0:0:0:0:
256,192,236312,1,0,0:0:0:0:
256,192,236370,1,0,0:0:0:0:
256,192,236428,1,8,0:0:0:0:
256,192,236603,1,8,0:0:0:0:
256,192,236690,1,0,0:0:0:0:
256,192,236777,1,0,0:0:0:0:
256,192,236864,1,8,0:0:0:0:
256,192,236952,1,0,0:0:0:0:
256,192,237126,1,8,0:0:0:0:
256,192,237300,1,8,0:0:0:0:
256,192,237359,1,8,0:0:0:0:
256,192,237417,1,8,0:0:0:0:
256,192,237475,1,0,0:0:0:0:
256,192,237649,1,0,0:0:0:0:
256,192,237736,1,0,0:0:0:0:
256,192,237824,1,8,0:0:0:0:
256,192,237998,1,0,0:0:0:0:
256,192,238085,1,8,0:0:0:0:
256,192,238172,1,0,0:0:0:0:
256,192,238260,1,8,0:0:0:0:
256,192,238347,1,0,0:0:0:0:
256,192,238521,1,8,0:0:0:0:
256,192,238696,1,0,0:0:0:0:
256,192,238783,1,0,0:0:0:0:
256,192,238870,1,8,0:0:0:0:
256,192,238957,1,0,0:0:0:0:
256,192,239045,1,0,0:0:0:0:
256,192,239219,1,8,0:0:0:0:
256,192,239306,1,0,0:0:0:0:
256,192,239393,1,0,0:0:0:0:
256,192,239481,1,8,0:0:0:0:
256,192,239655,1,8,0:0:0:0:
256,192,239742,1,0,0:0:0:0:
256,192,239829,1,0,0:0:0:0:
256,192,239917,1,8,0:0:0:0:
256,192,240004,1,0,0:0:0:0:
256,192,240091,1,8,0:0:0:0:
256,192,240178,1,8,0:0:0:0:
256,192,240266,1,0,0:0:0:0:
256,192,240440,1,0,0:0:0:0:
256,192,240527,1,0,0:0:0:0:
256,192,240614,1,8,0:0:0:0:
256,192,240789,1,0,0:0:0:0:
256,192,240876,1,8,0:0:0:0:
256,192,241050,1,8,0:0:0:0:
256,192,241138,1,0,0:0:0:0:
256,192,241225,1,0,0:0:0:0:
256,192,241312,1,8,0:0:0:0:
256,192,241399,1,0,0:0:0:0:
256,192,241486,1,8,0:0:0:0:
256,192,241545,1,0,0:0:0:0:
256,192,241603,1,0,0:0:0:0:
256,192,241661,1,8,0:0:0:0:
256,192,241835,1,0,0:0:0:0:
256,192,241893,1,0,0:0:0:0:
256,192,241952,1,0,0:0:0:0:
256,192,242010,1,8,0:0:0:0:
256,192,242184,1,0,0:0:0:0:
256,192,242271,1,8,0:0:0:0:
256,192,242359,1,0,0:0:0:0:
256,192,242446,1,8,0:0:0:0:
256,192,242533,1,8,0:0:0:0:
256,192,242620,1,0,0:0:0:0:
256,192,242707,1,8,0:0:0:0:
256,192,242882,1,8,0:0:0:0:
256,192,242940,1,8,0:0:0:0:
256,192,242998,1,8,0:0:0:0:
256,192,243056,1,0,0:0:0:0:
256,192,243405,1,8,0:0:0:0:
256,192,243579,1,0,0:0:0:0:
256,192,243667,1,8,0:0:0:0:
256,192,243754,1,0,0:0:0:0:
256,192,243841,1,0,0:0:0:0:
256,192,243928,1,8,0:0:0:0:
256,192,244016,1,8,0:0:0:0:
256,192,244103,1,8,0:0:0:0:
256,192,244190,1,0,0:0:0:0:
256,192,244277,1,8,0:0:0:0:
256,192,244539,1,0,0:0:0:0:
256,192,244888,1,0,0:0:0:0:
256,192,245847,1,4,0:0:0:0:
256,192,246021,1,0,0:0:0:0:
262,192,246109,1,0,0:0:0:0:
262,192,246196,1,8,0:0:0:0:
262,192,246283,1,0,0:0:0:0:
262,192,246370,1,0,0:0:0:0:
262,192,246457,1,8,0:0:0:0:
262,192,246632,1,8,0:0:0:0:
263,190,246719,1,0,0:0:0:0:
263,190,246893,1,8,0:0:0:0:
263,190,246981,1,0,0:0:0:0:
262,192,247068,1,8,0:0:0:0:
262,192,247155,1,8,0:0:0:0:
262,192,247242,1,0,0:0:0:0:
262,192,247417,1,0,0:0:0:0:
262,192,247504,1,0,0:0:0:0:
262,192,247591,1,8,0:0:0:0:
256,192,247678,1,0,0:0:0:0:
192,64,247766,1,0,0:0:0:0:
192,64,247853,1,8,0:0:0:0:
192,64,248027,1,8,0:0:0:0:
256,192,248114,1,0,0:0:0:0:
256,192,248289,1,8,0:0:0:0:
256,192,248376,1,0,0:0:0:0:
256,192,248463,1,0,0:0:0:0:
256,192,248550,1,8,0:0:0:0:
256,192,248638,1,4,0:0:0:0:
256,192,248812,1,0,0:0:0:0:
256,192,248899,1,0,0:0:0:0:
256,192,248986,5,8,0:0:0:0:
256,192,249074,1,0,0:0:0:0:
256,192,249161,1,0,0:0:0:0:
256,192,249248,1,8,0:0:0:0:
256,192,249422,1,8,0:0:0:0:
256,192,249510,1,0,0:0:0:0:
256,192,249684,1,8,0:0:0:0:
256,192,249771,1,0,0:0:0:0:
256,192,249859,1,8,0:0:0:0:
256,192,249946,1,8,0:0:0:0:
256,192,250120,1,0,0:0:0:0:
256,192,250207,1,0,0:0:0:0:
256,192,250382,1,8,0:0:0:0:
256,192,250440,1,0,0:0:0:0:
256,192,250498,1,0,0:0:0:0:
256,192,250556,1,0,0:0:0:0:
256,192,250643,1,8,0:0:0:0:
256,192,250731,1,0,0:0:0:0:
256,192,250818,1,8,0:0:0:0:
256,192,250905,1,0,0:0:0:0:
256,192,251079,1,8,0:0:0:0:
256,192,251167,1,0,0:0:0:0:
256,192,251254,1,0,0:0:0:0:
256,192,251341,1,8,0:0:0:0:
256,192,251428,1,4,0:0:0:0:
256,192,251603,1,0,0:0:0:0:
262,192,251690,1,0,0:0:0:0:
262,192,251777,1,8,0:0:0:0:
262,192,251864,1,0,0:0:0:0:
262,192,251952,1,0,0:0:0:0:
262,192,252039,1,8,0:0:0:0:
262,192,252213,1,8,0:0:0:0:
263,190,252300,1,0,0:0:0:0:
263,190,252475,1,8,0:0:0:0:
263,190,252562,1,0,0:0:0:0:
262,192,252649,1,8,0:0:0:0:
262,192,252736,1,8,0:0:0:0:
262,192,252824,1,0,0:0:0:0:
262,192,252998,1,0,0:0:0:0:
262,192,253085,1,0,0:0:0:0:
262,192,253172,1,8,0:0:0:0:
192,64,253260,1,0,0:0:0:0:
192,64,253347,1,0,0:0:0:0:
192,64,253434,1,8,0:0:0:0:
256,192,253609,1,8,0:0:0:0:
256,192,253696,1,0,0:0:0:0:
256,192,253870,1,8,0:0:0:0:
256,192,253957,1,0,0:0:0:0:
256,192,254045,1,0,0:0:0:0:
262,192,254132,1,8,0:0:0:0:
256,192,254219,1,4,0:0:0:0:
256,192,254393,1,0,0:0:0:0:
256,192,254481,1,0,0:0:0:0:
256,192,254568,1,8,0:0:0:0:
256,192,254655,1,0,0:0:0:0:
256,192,254742,1,0,0:0:0:0:
256,192,254829,1,8,0:0:0:0:
256,192,255004,1,8,0:0:0:0:
256,192,255091,1,0,0:0:0:0:
256,192,255266,1,8,0:0:0:0:
256,192,255353,1,0,0:0:0:0:
256,192,255440,1,0,0:0:0:0:
256,192,255527,1,8,0:0:0:0:
256,192,255614,1,0,0:0:0:0:
256,192,255789,1,0,0:0:0:0:
256,192,255963,5,8,0:0:0:0:
256,192,256050,1,0,0:0:0:0:
256,192,256225,1,8,0:0:0:0:
256,192,257010,1,4,0:0:0:0:
256,192,257184,1,0,0:0:0:0:
256,192,257271,1,0,0:0:0:0:
256,192,257359,1,8,0:0:0:0:
256,192,257446,1,0,0:0:0:0:
256,192,257620,1,8,0:0:0:0:
256,192,257795,1,8,0:0:0:0:
256,192,257882,1,0,0:0:0:0:
256,192,258056,1,8,0:0:0:0:
256,192,258143,1,8,0:0:0:0:
256,192,258231,1,0,0:0:0:0:
256,192,258318,1,0,0:0:0:0:
256,192,258405,1,0,0:0:0:0:
256,192,258579,1,0,0:0:0:0:
256,192,258667,1,0,0:0:0:0:
256,192,258754,1,8,0:0:0:0:
256,192,258841,1,0,0:0:0:0:
256,192,259016,1,8,0:0:0:0:
256,192,259190,1,8,0:0:0:0:
256,192,259277,1,0,0:0:0:0:
256,192,259452,1,8,0:0:0:0:
256,192,259539,1,0,0:0:0:0:
256,192,259626,1,8,0:0:0:0:
256,192,259713,1,8,0:0:0:0:
256,192,259800,1,4,0:0:0:0:
256,192,259975,1,0,0:0:0:0:
256,192,260062,1,0,0:0:0:0:
256,192,260149,1,8,0:0:0:0:
256,192,260236,1,0,0:0:0:0:
256,192,260411,1,8,0:0:0:0:
256,192,260585,1,8,0:0:0:0:
256,192,260672,1,0,0:0:0:0:
256,192,260847,1,8,0:0:0:0:
256,192,260934,1,0,0:0:0:0:
256,192,261021,1,0,0:0:0:0:
256,192,261109,1,0,0:0:0:0:
256,192,261196,1,12,0:0:0:0:
256,192,261545,1,8,0:0:0:0:
256,192,261603,1,8,0:0:0:0:
256,192,261661,1,8,0:0:0:0:
259,196,261719,1,0,0:0:0:0:
256,192,261806,1,8,0:0:0:0:
256,192,261893,1,0,0:0:0:0:
256,192,261981,1,8,0:0:0:0:
256,192,262068,1,0,0:0:0:0:
256,192,262242,1,8,0:0:0:0:
256,192,262329,1,0,0:0:0:0:
256,192,262417,1,8,0:0:0:0:
256,192,262504,1,8,0:0:0:0:
256,192,262591,1,4,0:0:0:0:
256,192,262766,1,0,0:0:0:0:
256,192,262853,1,0,0:0:0:0:
256,192,262940,1,8,0:0:0:0:
256,192,263027,1,0,0:0:0:0:
256,192,263202,1,8,0:0:0:0:
256,192,263376,1,8,0:0:0:0:
256,192,263463,1,0,0:0:0:0:
256,192,263638,1,8,0:0:0:0:
256,192,263725,1,8,0:0:0:0:
256,192,263812,1,0,0:0:0:0:
256,192,263899,1,0,0:0:0:0:
256,192,263986,1,0,0:0:0:0:
256,192,264161,1,0,0:0:0:0:
256,192,264248,1,0,0:0:0:0:
256,192,264335,1,8,0:0:0:0:
256,192,264422,1,0,0:0:0:0:
256,192,264597,1,8,0:0:0:0:
256,192,264771,1,8,0:0:0:0:
256,192,264859,1,0,0:0:0:0:
256,192,265033,1,8,0:0:0:0:
256,192,265120,1,0,0:0:0:0:
256,192,265207,1,8,0:0:0:0:
256,192,265295,1,8,0:0:0:0:
256,192,265382,1,4,0:0:0:0:
256,192,265556,1,0,0:0:0:0:
256,192,265643,1,0,0:0:0:0:
256,192,265731,1,8,0:0:0:0:
256,192,265818,1,0,0:0:0:0:
256,192,265992,1,8,0:0:0:0:
256,192,266167,1,8,0:0:0:0:
256,192,266254,1,0,0:0:0:0:
256,192,266428,1,8,0:0:0:0:
256,192,266516,1,0,0:0:0:0:
256,192,266603,1,0,0:0:0:0:
256,192,266690,1,0,0:0:0:0:
256,192,266777,1,0,0:0:0:0:
256,192,266952,1,0,0:0:0:0:
256,192,267039,5,0,0:0:0:0:
256,192,267126,1,8,0:0:0:0:
256,192,267300,1,0,0:0:0:0:
256,192,267388,1,8,0:0:0:0:
256,192,267475,1,0,0:0:0:0:
256,192,267562,1,8,0:0:0:0:
256,192,267649,1,0,0:0:0:0:
256,192,267824,1,8,0:0:0:0:
256,192,268172,1,8,0:0:0:0:
256,192,268260,1,0,0:0:0:0:
256,192,268347,1,0,0:0:0:0:
256,192,268434,1,0,0:0:0:0:
256,192,268521,1,8,0:0:0:0:
256,192,268609,1,0,0:0:0:0:
256,192,268696,1,8,0:0:0:0:
256,192,268783,1,8,0:0:0:0:
256,192,268870,1,0,0:0:0:0:
256,192,268957,1,0,0:0:0:0:
256,192,269045,1,8,0:0:0:0:
256,192,269132,1,0,0:0:0:0:
256,192,269219,1,8,0:0:0:0:
256,192,269393,1,8,0:0:0:0:
256,192,269568,1,8,0:0:0:0:
256,192,269655,1,0,0:0:0:0:
256,192,269742,1,0,0:0:0:0:
256,192,269829,1,0,0:0:0:0:
256,192,269917,1,8,0:0:0:0:
256,192,270004,1,0,0:0:0:0:
256,192,270091,1,8,0:0:0:0:
256,192,270178,1,8,0:0:0:0:
256,192,270266,1,0,0:0:0:0:
256,192,270353,1,0,0:0:0:0:
256,192,270440,1,8,0:0:0:0:
256,192,270527,1,0,0:0:0:0:
256,192,270614,1,8,0:0:0:0:
256,192,270789,1,8,0:0:0:0:
256,192,270963,1,8,0:0:0:0:
256,192,271050,1,8,0:0:0:0:
256,192,271138,1,0,0:0:0:0:
256,192,271225,1,0,0:0:0:0:
256,192,271312,1,8,0:0:0:0:
256,192,271399,1,0,0:0:0:0:
256,192,271486,1,8,0:0:0:0:
256,192,271574,1,8,0:0:0:0:
256,192,271661,1,0,0:0:0:0:
256,192,271748,1,8,0:0:0:0:
256,192,271835,1,8,0:0:0:0:
256,192,271922,1,0,0:0:0:0:
256,192,272010,1,8,0:0:0:0:
256,192,272184,1,8,0:0:0:0:
256,192,272359,1,8,0:0:0:0:
256,192,272446,1,8,0:0:0:0:
256,192,272533,1,0,0:0:0:0:
256,192,272620,1,0,0:0:0:0:
256,192,272707,1,8,0:0:0:0:
256,192,272795,1,0,0:0:0:0:
256,192,272882,1,8,0:0:0:0:
256,192,272969,1,8,0:0:0:0:
256,192,273056,1,0,0:0:0:0:
256,192,273143,1,8,0:0:0:0:
256,192,273231,1,8,0:0:0:0:
256,192,273318,1,0,0:0:0:0:
256,192,273405,1,8,0:0:0:0:
256,192,273492,1,8,0:0:0:0:
256,192,273754,1,0,0:0:0:0:
256,192,273841,1,0,0:0:0:0:
256,192,273928,1,0,0:0:0:0:
256,192,274016,1,0,0:0:0:0:
256,192,274103,1,8,0:0:0:0:
256,192,274190,1,0,0:0:0:0:
256,192,274277,1,8,0:0:0:0:
256,192,274364,1,8,0:0:0:0:
256,192,274452,1,0,0:0:0:0:
256,192,274539,1,0,0:0:0:0:
256,192,274626,1,8,0:0:0:0:
256,192,274713,1,0,0:0:0:0:
256,192,274800,1,8,0:0:0:0:
256,192,274975,1,8,0:0:0:0:
256,192,275149,1,0,0:0:0:0:
256,192,275236,1,0,0:0:0:0:
256,192,275324,1,0,0:0:0:0:
256,192,275411,1,0,0:0:0:0:
256,192,275498,1,8,0:0:0:0:
256,192,275585,1,0,0:0:0:0:
256,192,275672,1,8,0:0:0:0:
256,192,275760,1,8,0:0:0:0:
256,192,275847,1,0,0:0:0:0:
256,192,275934,1,0,0:0:0:0:
256,192,276021,1,8,0:0:0:0:
256,192,276109,1,0,0:0:0:0:
256,192,276196,1,8,0:0:0:0:
256,192,276370,1,8,0:0:0:0:
256,192,276545,1,8,0:0:0:0:
256,192,276632,1,8,0:0:0:0:
256,192,276719,1,0,0:0:0:0:
256,192,276806,1,0,0:0:0:0:
256,192,276893,1,8,0:0:0:0:
256,192,276981,1,0,0:0:0:0:
256,192,277068,1,8,0:0:0:0:
256,192,277155,1,8,0:0:0:0:
256,192,277242,1,0,0:0:0:0:
256,192,277329,1,8,0:0:0:0:
256,192,277417,1,8,0:0:0:0:
256,192,277504,1,0,0:0:0:0:
256,192,277591,1,8,0:0:0:0:
256,192,277766,1,8,0:0:0:0:
256,192,277940,1,0,0:0:0:0:
256,192,278289,1,8,0:0:0:0:
256,192,279074,1,8,0:0:0:0:
256,192,279161,1,0,0:0:0:0:
256,192,279248,1,8,0:0:0:0:
256,192,279335,1,0,0:0:0:0:
256,192,279597,1,8,0:0:0:0:
256,192,279684,1,0,0:0:0:0:
256,192,279859,1,8,0:0:0:0:
256,192,280033,1,0,0:0:0:0:
256,192,280207,1,0,0:0:0:0:
256,192,280295,1,8,0:0:0:0:
256,192,280469,1,0,0:0:0:0:
256,192,280643,1,8,0:0:0:0:
256,192,280731,1,0,0:0:0:0:
256,192,280992,1,8,0:0:0:0:
256,192,281079,1,0,0:0:0:0:
256,192,281254,1,8,0:0:0:0:
256,192,281428,1,0,0:0:0:0:
256,192,281603,1,0,0:0:0:0:
256,192,281690,1,8,0:0:0:0:
256,192,281864,1,0,0:0:0:0:
256,192,282039,1,8,0:0:0:0:
256,192,282126,1,0,0:0:0:0:
256,192,282388,1,8,0:0:0:0:
256,192,282475,1,0,0:0:0:0:
256,192,282649,1,8,0:0:0:0:
256,192,282824,1,0,0:0:0:0:
256,192,282998,1,0,0:0:0:0:
256,192,283085,1,8,0:0:0:0:
256,192,283260,1,0,0:0:0:0:
256,192,283434,1,8,0:0:0:0:
256,192,283521,1,0,0:0:0:0:
256,192,283783,1,8,0:0:0:0:
256,192,283870,1,0,0:0:0:0:
256,192,284045,1,8,0:0:0:0:
256,192,284219,1,0,0:0:0:0:
256,192,284393,1,0,0:0:0:0:
256,192,284481,1,8,0:0:0:0:
256,192,284655,1,0,0:0:0:0:
256,192,284829,1,8,0:0:0:0:
256,192,284917,1,0,0:0:0:0:
256,192,285091,1,0,0:0:0:0:
256,192,285266,1,0,0:0:0:0:
256,192,285440,1,0,0:0:0:0:
256,192,285614,1,0,0:0:0:0:
256,192,285789,1,0,0:0:0:0:
256,192,285963,1,0,0:0:0:0:
256,192,286138,1,0,0:0:0:0:
256,192,286312,1,0,0:0:0:0:
256,192,286486,1,0,0:0:0:0:
256,192,286661,1,0,0:0:0:0:
256,192,286835,1,0,0:0:0:0:
256,192,287010,1,0,0:0:0:0:
256,192,287184,1,0,0:0:0:0:
256,192,287359,1,0,0:0:0:0:
256,192,287533,1,0,0:0:0:0:
256,192,287707,1,0,0:0:0:0:
256,192,287795,1,8,0:0:0:0:
256,192,287882,1,0,0:0:0:0:
256,192,287969,1,8,0:0:0:0:
256,192,288056,1,0,0:0:0:0:
256,192,288143,1,8,0:0:0:0:
256,192,288231,1,0,0:0:0:0:
256,192,288318,1,8,0:0:0:0:
256,192,288405,1,0,0:0:0:0:
256,192,288492,1,8,0:0:0:0:
256,192,288579,1,0,0:0:0:0:
256,192,288667,1,8,0:0:0:0:
256,192,288754,1,0,0:0:0:0:
256,192,288841,1,8,0:0:0:0:
256,192,288928,1,0,0:0:0:0:
256,192,289016,1,8,0:0:0:0:
256,192,289103,1,0,0:0:0:0:
256,192,289190,1,8,0:0:0:0:
256,192,289277,1,8,0:0:0:0:
256,192,289364,1,8,0:0:0:0:
256,192,289452,1,8,0:0:0:0:
256,192,289539,1,0,0:0:0:0:
256,192,289626,1,0,0:0:0:0:
256,192,289713,1,0,0:0:0:0:
256,192,289800,1,8,0:0:0:0:
256,192,289888,1,8,0:0:0:0:
256,192,289975,1,8,0:0:0:0:
256,192,290062,1,8,0:0:0:0:
256,192,290149,1,0,0:0:0:0:
256,192,290207,1,0,0:0:0:0:
256,192,290266,1,0,0:0:0:0:
256,192,290324,1,0,0:0:0:0:
256,192,290411,1,0,0:0:0:0:
256,192,290498,5,0,0:0:0:0:
256,192,290672,1,0,0:0:0:0:
256,192,290760,1,0,0:0:0:0:
256,192,290847,1,8,0:0:0:0:
256,192,291021,1,0,0:0:0:0:
256,192,291109,1,8,0:0:0:0:
256,192,291196,1,0,0:0:0:0:
256,192,291283,1,8,0:0:0:0:
256,192,291370,1,0,0:0:0:0:
256,192,291545,1,8,0:0:0:0:
256,192,291719,1,0,0:0:0:0:
256,192,291763,1,0,0:0:0:0:
256,192,291893,1,8,0:0:0:0:
256,192,292068,1,0,0:0:0:0:
256,192,292242,1,8,0:0:0:0:
256,192,292417,1,0,0:0:0:0:
256,192,292504,1,8,0:0:0:0:
256,192,292591,1,0,0:0:0:0:
256,192,292678,1,8,0:0:0:0:
256,192,292766,1,0,0:0:0:0:
256,192,292940,1,8,0:0:0:0:
256,192,293114,1,8,0:0:0:0:
256,192,293202,1,8,0:0:0:0:
256,192,293289,1,0,0:0:0:0:
256,192,293463,1,0,0:0:0:0:
256,192,293550,1,0,0:0:0:0:
256,192,293638,1,8,0:0:0:0:
256,192,293812,1,0,0:0:0:0:
256,192,293899,1,8,0:0:0:0:
256,192,293986,1,0,0:0:0:0:
256,192,294074,1,8,0:0:0:0:
256,192,294161,1,0,0:0:0:0:
256,192,294335,1,8,0:0:0:0:
256,192,294510,1,0,0:0:0:0:
256,192,294553,1,0,0:0:0:0:
256,192,294684,1,8,0:0:0:0:
256,192,294859,1,0,0:0:0:0:
256,192,295033,1,8,0:0:0:0:
256,192,295207,1,8,0:0:0:0:
256,192,295295,1,0,0:0:0:0:
256,192,295382,1,8,0:0:0:0:
256,192,295469,1,8,0:0:0:0:
256,192,295556,1,0,0:0:0:0:
256,192,295731,1,8,0:0:0:0:
256,192,295905,1,8,0:0:0:0:
256,192,295963,1,8,0:0:0:0:
256,192,296021,1,8,0:0:0:0:
256,192,296079,5,0,0:0:0:0:
256,192,296254,1,0,0:0:0:0:
256,192,296341,1,0,0:0:0:0:
256,192,296428,1,8,0:0:0:0:
256,192,296603,1,0,0:0:0:0:
256,192,296690,1,8,0:0:0:0:
256,192,296777,1,0,0:0:0:0:
256,192,296864,1,8,0:0:0:0:
256,192,296952,1,0,0:0:0:0:
256,192,297126,1,8,0:0:0:0:
256,192,297300,1,0,0:0:0:0:
256,192,297344,1,0,0:0:0:0:
256,192,297475,1,8,0:0:0:0:
256,192,297649,1,0,0:0:0:0:
256,192,297824,1,8,0:0:0:0:
256,192,297998,1,0,0:0:0:0:
256,192,298085,1,8,0:0:0:0:
256,192,298172,1,0,0:0:0:0:
256,192,298260,1,8,0:0:0:0:
256,192,298347,1,0,0:0:0:0:
256,192,298521,1,8,0:0:0:0:
256,192,298696,1,8,0:0:0:0:
256,192,298783,1,8,0:0:0:0:
256,192,298870,1,0,0:0:0:0:
256,192,299045,1,0,0:0:0:0:
256,192,299132,1,0,0:0:0:0:
256,192,299219,1,8,0:0:0:0:
256,192,299393,1,0,0:0:0:0:
256,192,299481,1,8,0:0:0:0:
256,192,299568,1,0,0:0:0:0:
256,192,299655,1,8,0:0:0:0:
256,192,299742,1,0,0:0:0:0:
256,192,299917,1,8,0:0:0:0:
256,192,300091,1,0,0:0:0:0:
256,192,300135,1,0,0:0:0:0:
256,192,300266,1,8,0:0:0:0:
256,192,300440,1,0,0:0:0:0:
256,192,300614,1,8,0:0:0:0:
256,192,300789,1,8,0:0:0:0:
256,192,300876,1,8,0:0:0:0:
256,192,300963,1,0,0:0:0:0:
256,192,301079,1,0,0:0:0:0:
256,192,301196,1,0,0:0:0:0:
256,192,301312,1,8,0:0:0:0:
256,192,301399,1,8,0:0:0:0:
256,192,301486,1,0,0:0:0:0:
256,192,301661,1,4,0:0:0:0:
256,192,301835,1,0,0:0:0:0:
256,192,301922,1,0,0:0:0:0:
256,192,302010,1,8,0:0:0:0:
256,192,302184,1,0,0:0:0:0:
256,192,302271,1,8,0:0:0:0:
256,192,302446,1,8,0:0:0:0:
224,224,302533,1,0,0:0:0:0:
224,224,302707,1,8,0:0:0:0:
256,192,302882,1,0,0:0:0:0:
256,192,302925,1,0,0:0:0:0:
256,192,303056,1,8,0:0:0:0:
256,192,303231,1,0,0:0:0:0:
256,192,303318,1,0,0:0:0:0:
256,192,303405,1,8,0:0:0:0:
256,192,303579,1,0,0:0:0:0:
256,192,303667,1,8,0:0:0:0:
256,192,303754,1,0,0:0:0:0:
256,192,303841,1,8,0:0:0:0:
256,192,303928,1,0,0:0:0:0:
256,192,304103,1,8,0:0:0:0:
256,192,304277,1,8,0:0:0:0:
256,192,304335,1,8,0:0:0:0:
256,192,304393,1,8,0:0:0:0:
256,192,304452,1,0,0:0:0:0:
256,192,304626,1,0,0:0:0:0:
256,192,304713,1,0,0:0:0:0:
256,192,304800,1,8,0:0:0:0:
256,192,304975,1,0,0:0:0:0:
256,192,305062,1,8,0:0:0:0:
256,192,305236,1,8,0:0:0:0:
224,224,305324,1,0,0:0:0:0:
224,224,305498,1,8,0:0:0:0:
256,192,305672,1,0,0:0:0:0:
256,192,305716,1,0,0:0:0:0:
256,192,305847,1,8,0:0:0:0:
256,192,306021,1,0,0:0:0:0:
256,192,306196,1,8,0:0:0:0:
256,192,306370,1,8,0:0:0:0:
256,192,306457,1,0,0:0:0:0:
256,192,306545,1,8,0:0:0:0:
256,192,306632,1,0,0:0:0:0:
256,192,306719,1,8,0:0:0:0:
256,192,306893,1,8,0:0:0:0:
256,192,306981,1,0,0:0:0:0:
256,192,307068,1,8,0:0:0:0:
256,192,307126,1,8,0:0:0:0:
256,192,307184,1,8,0:0:0:0:
256,192,307242,1,0,0:0:0:0:
256,192,307417,1,0,0:0:0:0:
256,192,307504,1,0,0:0:0:0:
256,192,307591,1,8,0:0:0:0:
256,192,307766,1,0,0:0:0:0:
256,192,307853,1,8,0:0:0:0:
256,192,308027,1,8,0:0:0:0:
224,224,308114,1,0,0:0:0:0:
224,224,308289,1,8,0:0:0:0:
256,192,308463,1,0,0:0:0:0:
256,192,308507,1,0,0:0:0:0:
256,192,308638,1,8,0:0:0:0:
256,192,308812,1,0,0:0:0:0:
256,192,308899,1,0,0:0:0:0:
256,192,308986,1,8,0:0:0:0:
256,192,309161,1,0,0:0:0:0:
256,192,309248,1,8,0:0:0:0:
256,192,309335,1,0,0:0:0:0:
256,192,309422,1,8,0:0:0:0:
256,192,309510,1,0,0:0:0:0:
256,192,309684,1,8,0:0:0:0:
256,192,309859,1,8,0:0:0:0:
256,192,309917,1,8,0:0:0:0:
256,192,309975,1,8,0:0:0:0:
256,192,310033,1,0,0:0:0:0:
256,192,310295,1,0,0:0:0:0:
256,192,310382,1,8,0:0:0:0:
256,192,310469,1,0,0:0:0:0:
256,192,310556,1,0,0:0:0:0:
256,192,310643,1,8,0:0:0:0:
224,224,310731,1,0,0:0:0:0:
256,192,310818,1,8,0:0:0:0:
256,192,310905,1,0,0:0:0:0:
224,224,311079,1,4,0:0:0:0:
256,192,311341,1,8,0:0:0:0:
256,192,311516,1,0,0:0:0:0:
256,192,311864,1,12,0:0:0:0:
256,192,312824,1,4,0:0:0:0:
256,192,312998,1,0,0:0:0:0:
262,192,313085,1,0,0:0:0:0:
262,192,313172,1,8,0:0:0:0:
262,192,313260,1,0,0:0:0:0:
262,192,313347,1,8,0:0:0:0:
262,192,313434,1,8,0:0:0:0:
263,190,313609,1,0,0:0:0:0:
262,192,313696,1,0,0:0:0:0:
262,192,313870,1,8,0:0:0:0:
263,190,313957,1,0,0:0:0:0:
262,192,314132,1,8,0:0:0:0:
262,192,314219,1,0,0:0:0:0:
262,192,314393,1,0,0:0:0:0:
262,192,314452,1,0,0:0:0:0:
262,192,314510,1,0,0:0:0:0:
262,192,314568,1,8,0:0:0:0:
192,64,314742,1,8,0:0:0:0:
192,64,314829,1,0,0:0:0:0:
192,64,314917,1,8,0:0:0:0:
256,192,315004,1,0,0:0:0:0:
256,192,315091,1,0,0:0:0:0:
256,192,315266,1,8,0:0:0:0:
256,192,315353,1,0,0:0:0:0:
256,192,315527,1,8,0:0:0:0:
256,192,315614,1,4,0:0:0:0:
256,192,315789,1,0,0:0:0:0:
262,192,315876,1,0,0:0:0:0:
262,192,315963,1,8,0:0:0:0:
262,192,316050,1,0,0:0:0:0:
262,192,316138,1,8,0:0:0:0:
262,192,316225,1,8,0:0:0:0:
262,192,316399,1,0,0:0:0:0:
263,190,316486,1,0,0:0:0:0:
263,190,316661,1,8,0:0:0:0:
263,190,316748,1,0,0:0:0:0:
262,192,316835,1,8,0:0:0:0:
262,192,316922,1,8,0:0:0:0:
256,192,317097,5,0,0:0:0:0:
256,192,317184,1,8,0:0:0:0:
256,192,317242,1,8,0:0:0:0:
256,192,317300,1,8,0:0:0:0:
256,192,317359,1,0,0:0:0:0:
256,192,317446,1,0,0:0:0:0:
256,192,317533,1,8,0:0:0:0:
256,192,317620,1,0,0:0:0:0:
256,192,317707,1,8,0:0:0:0:
256,192,317795,1,8,0:0:0:0:
256,192,317882,1,0,0:0:0:0:
256,192,318056,1,8,0:0:0:0:
256,192,318143,1,0,0:0:0:0:
256,192,318318,1,8,0:0:0:0:
256,192,318405,1,4,0:0:0:0:
256,192,318579,1,0,0:0:0:0:
262,192,318667,1,0,0:0:0:0:
262,192,318754,1,8,0:0:0:0:
262,192,318841,1,0,0:0:0:0:
262,192,318928,1,8,0:0:0:0:
262,192,319016,1,8,0:0:0:0:
262,192,319190,1,0,0:0:0:0:
263,190,319277,1,0,0:0:0:0:
263,190,319452,1,8,0:0:0:0:
263,190,319539,1,0,0:0:0:0:
262,192,319713,1,8,0:0:0:0:
262,192,319800,1,0,0:0:0:0:
262,192,319975,1,0,0:0:0:0:
262,192,320033,1,0,0:0:0:0:
262,192,320091,1,0,0:0:0:0:
262,192,320149,1,8,0:0:0:0:
192,64,320324,1,8,0:0:0:0:
192,64,320411,1,0,0:0:0:0:
192,64,320498,1,8,0:0:0:0:
256,192,320585,1,0,0:0:0:0:
256,192,320672,1,0,0:0:0:0:
256,192,320847,1,8,0:0:0:0:
256,192,320934,1,0,0:0:0:0:
256,192,321109,1,8,0:0:0:0:
256,192,321196,1,4,0:0:0:0:
256,192,321370,1,0,0:0:0:0:
262,192,321457,1,0,0:0:0:0:
262,192,321545,1,8,0:0:0:0:
262,192,321632,1,0,0:0:0:0:
262,192,321719,1,8,0:0:0:0:
262,192,321806,1,8,0:0:0:0:
262,192,321981,1,0,0:0:0:0:
263,190,322068,1,0,0:0:0:0:
263,190,322242,1,8,0:0:0:0:
263,190,322329,1,0,0:0:0:0:
262,192,322417,1,0,0:0:0:0:
262,192,322504,1,8,0:0:0:0:
256,192,322678,5,0,0:0:0:0:
256,192,322766,1,0,0:0:0:0:
256,192,322940,1,8,0:0:0:0:
256,192,323027,1,8,0:0:0:0:
256,192,323114,1,0,0:0:0:0:
256,192,323202,1,8,0:0:0:0:
256,192,323289,1,0,0:0:0:0:
256,192,323376,1,0,0:0:0:0:
256,192,323463,1,8,0:0:0:0:
256,192,323550,1,0,0:0:0:0:
256,192,323638,1,8,0:0:0:0:
256,192,323725,1,8,0:0:0:0:
256,192,323812,1,0,0:0:0:0:
256,192,323899,1,0,0:0:0:0:
256,192,323986,1,0,0:0:0:0:
256,192,324161,1,8,0:0:0:0:
256,192,324248,1,0,0:0:0:0:
263,183,324335,1,8,0:0:0:0:
263,183,324422,1,8,0:0:0:0:
263,183,324510,1,0,0:0:0:0:
263,183,324597,1,8,0:0:0:0:
263,183,324771,1,0,0:0:0:0:
263,183,324859,1,8,0:0:0:0:
263,183,325033,1,8,0:0:0:0:
263,183,325120,1,0,0:0:0:0:
263,183,325295,1,8,0:0:0:0:
256,192,325382,1,0,0:0:0:0:
256,192,325556,1,8,0:0:0:0:
256,192,325614,1,8,0:0:0:0:
256,192,325672,1,8,0:0:0:0:
256,192,325731,1,0,0:0:0:0:
256,192,325818,1,0,0:0:0:0:
256,192,325905,1,8,0:0:0:0:
256,192,325992,1,8,0:0:0:0:
256,192,326167,1,0,0:0:0:0:
256,192,326254,1,0,0:0:0:0:
256,192,326428,1,8,0:0:0:0:
256,192,326516,1,0,0:0:0:0:
256,192,326603,1,0,0:0:0:0:
256,192,326690,1,8,0:0:0:0:
256,192,326777,1,0,0:0:0:0:
256,192,326952,1,8,0:0:0:0:
256,192,327039,1,0,0:0:0:0:
263,183,327126,1,8,0:0:0:0:
263,183,327213,1,8,0:0:0:0:
263,183,327300,1,0,0:0:0:0:
263,183,327388,1,8,0:0:0:0:
263,183,327562,1,0,0:0:0:0:
263,183,327649,1,8,0:0:0:0:
263,183,327824,1,8,0:0:0:0:
263,183,327911,1,0,0:0:0:0:
263,183,328085,1,8,0:0:0:0:
256,192,328172,1,0,0:0:0:0:
256,192,328231,1,0,0:0:0:0:
256,192,328289,1,0,0:0:0:0:
256,192,328347,1,8,0:0:0:0:
256,192,328405,1,8,0:0:0:0:
256,192,328463,1,8,0:0:0:0:
256,192,328521,1,0,0:0:0:0:
256,192,328696,1,0,0:0:0:0:
256,192,328783,1,8,0:0:0:0:
256,192,328957,1,0,0:0:0:0:
256,192,329045,1,0,0:0:0:0:
256,192,329132,1,0,0:0:0:0:
256,192,329219,1,8,0:0:0:0:
256,192,329306,1,0,0:0:0:0:
256,192,329393,1,0,0:0:0:0:
256,192,329481,1,8,0:0:0:0:
256,192,329568,1,0,0:0:0:0:
256,192,329742,1,8,0:0:0:0:
256,192,329829,1,0,0:0:0:0:
263,183,329917,1,8,0:0:0:0:
263,183,330004,1,8,0:0:0:0:
263,183,330091,1,0,0:0:0:0:
263,183,330178,1,8,0:0:0:0:
263,183,330353,1,0,0:0:0:0:
263,183,330440,1,8,0:0:0:0:
263,183,330614,1,8,0:0:0:0:
263,183,330702,1,0,0:0:0:0:
263,183,330876,1,8,0:0:0:0:
256,192,330963,1,0,0:0:0:0:
256,192,331138,1,8,0:0:0:0:
256,192,331225,1,8,0:0:0:0:
256,192,331312,1,0,0:0:0:0:
256,192,331399,1,0,0:0:0:0:
256,192,331486,1,8,0:0:0:0:
256,192,331574,1,8,0:0:0:0:
256,192,331748,1,0,0:0:0:0:
256,192,331835,1,0,0:0:0:0:
256,192,332010,1,8,0:0:0:0:
256,192,332097,1,0,0:0:0:0:
256,192,332184,1,0,0:0:0:0:
256,192,332271,5,8,0:0:0:0:
256,192,332359,1,0,0:0:0:0:
256,192,332533,1,8,0:0:0:0:
256,192,332620,1,0,0:0:0:0:
263,183,332707,1,8,0:0:0:0:
263,183,332795,1,8,0:0:0:0:
263,183,332882,1,0,0:0:0:0:
263,183,332969,1,8,0:0:0:0:
263,183,333143,1,0,0:0:0:0:
263,183,333231,1,8,0:0:0:0:
263,183,333405,1,8,0:0:0:0:
263,183,333492,1,0,0:0:0:0:
256,192,333579,1,0,0:0:0:0:
256,192,333667,1,8,0:0:0:0:
256,192,333841,1,8,0:0:0:0:
256,192,333928,1,0,0:0:0:0:
256,192,334103,1,12,0:0:0:0:
256,192,334277,12,0,337940,0:0:0:0:
