osu file format v14

[General]
AudioFilename: audio.mp3
AudioLeadIn: 0
PreviewTime: 2185
Countdown: 0
SampleSet: Soft
StackLeniency: 0.7
Mode: 0
LetterboxInBreaks: 0
WidescreenStoryboard: 1

[Editor]
Bookmarks: 3240,3564
DistanceSpacing: 0.3
BeatDivisor: 16
GridSize: 4
TimelineZoom: 5.499997

[Metadata]
Title:the sun is a deadly lazer
TitleUnicode:the sun is a deadly lazer
Artist:Bill Wurtz
ArtistUnicode:Bill Wurtz
Creator:HibikiDesu
Version:Ultime PP farm
Source:history of the entire world, i guess
Tags:shitmap meme laser
BeatmapID:1315696
BeatmapSetID:624147

[Difficulty]
HPDrainRate:0
CircleSize:2
OverallDifficulty:0
ApproachRate:10
SliderMultiplier:1.4
SliderTickRate:1

[Events]
//Background and Video events
0,0,"No.jpg",0,0
//Break Periods
//Storyboard Layer 0 (Background)
//Storyboard Layer 1 (Fail)
//Storyboard Layer 2 (Pass)
//Storyboard Layer 3 (Foreground)
//Storyboard Sound Samples

[TimingPoints]
1213,324.324324324324,4,2,0,100,1,0
1213,-100,4,2,0,100,0,0
2591,-5,4,2,0,100,0,0

[HitObjects]
169,128,158,6,0,L|392:195,1,210
435,98,726,1,0,0:0:0:0:
207,243,969,1,0,0:0:0:0:
83,51,1213,5,0,0:0:0:0:
430,323,2348,1,0,0:0:0:0:
0,0,2591,5,0,0:0:0:0:
512,0,2611,1,0,0:0:0:0:
512,382,2631,1,0,0:0:0:0:
0,384,2652,1,0,0:0:0:0:
0,0,2672,1,0,0:0:0:0:
512,0,2692,1,0,0:0:0:0:
512,382,2712,1,0,0:0:0:0:
0,384,2733,1,0,0:0:0:0:
0,0,2753,1,0,0:0:0:0:
512,0,2773,1,0,0:0:0:0:
512,382,2793,1,0,0:0:0:0:
0,384,2814,1,0,0:0:0:0:
0,0,2834,1,0,0:0:0:0:
512,0,2854,1,0,0:0:0:0:
512,382,2874,1,0,0:0:0:0:
0,384,2895,1,0,0:0:0:0:
0,0,2915,1,0,0:0:0:0:
512,0,2935,1,0,0:0:0:0:
512,382,2955,1,0,0:0:0:0:
0,384,2976,1,0,0:0:0:0:
0,384,2996,2,0,L|305:169,1,350
0,0,3240,5,0,0:0:0:0:
512,382,3260,1,0,0:0:0:0:
0,0,3280,1,0,0:0:0:0:
512,382,3300,1,0,0:0:0:0:
512,0,3523,1,0,0:0:0:0:
0,384,3543,1,0,0:0:0:0:
512,0,3563,1,0,0:0:0:0:
0,384,3583,1,0,0:0:0:0:
133,376,3726,5,0,0:0:0:0:
89,32,3726,6,0,P|504:83|12:338,1,1400
256,0,3746,1,0,0:0:0:0:
378,376,3767,1,0,0:0:0:0:
59,145,3787,1,0,0:0:0:0:
454,143,3807,1,0,0:0:0:0:
133,376,3827,5,0,0:0:0:0:
256,0,3847,1,0,0:0:0:0:
378,376,3868,1,0,0:0:0:0:
59,145,3888,1,0,0:0:0:0:
454,143,3908,1,0,0:0:0:0:
133,376,3929,5,0,0:0:0:0:
256,0,3949,1,0,0:0:0:0:
378,376,3970,1,0,0:0:0:0:
59,145,3990,1,0,0:0:0:0:
454,143,4010,1,0,0:0:0:0:
133,376,4030,5,0,0:0:0:0:
256,0,4050,1,0,0:0:0:0:
