osu file format v14

[General]
AudioFilename: audio.mp3
AudioLeadIn: 0
PreviewTime: -1
Countdown: 1
SampleSet: None
StackLeniency: 0.7
Mode: 0
LetterboxInBreaks: 0
WidescreenStoryboard: 0

[Editor]
DistanceSpacing: 1.8
BeatDivisor: 4
GridSize: 16
TimelineZoom: 1

[Metadata]
Title:Hypnotize
TitleUnicode:Hypnotize
Artist:Biggie Smalls
ArtistUnicode:Biggie Smalls
Creator:Naranja Sagged
Version:Hypnotic
Source:The Notorious B.I.G
Tags:Moonman
BeatmapID:1585181
BeatmapSetID:752924

[Difficulty]
HPDrainRate:5
CircleSize:5.5
OverallDifficulty:5
ApproachRate:6
SliderMultiplier:1.4
SliderTickRate:1

[Events]
//Background and Video events
//Break Periods
//Storyboard Layer 0 (Background)
//Storyboard Layer 1 (Fail)
//Storyboard Layer 2 (Pass)
//Storyboard Layer 3 (Foreground)
//Storyboard Sound Samples

[TimingPoints]
10319.4680427096,613.724872057318,4,1,0,100,1,0

[HitObjects]
256,192,2187,12,0,2826,0:0:0:0:
256,192,3415,12,0,4054,0:0:0:0:
256,192,4642,12,0,5281,0:0:0:0:
256,192,5256,12,0,5895,0:0:0:0:
256,192,5869,12,0,6508,0:0:0:0:
240,256,7250,5,0,0:0:0:0:
304,256,7864,1,0,0:0:0:0:
368,256,8555,1,0,0:0:0:0:
432,256,9168,2,0,L|432:112,1,140
304,160,10472,1,0,0:0:0:0:
240,160,11086,1,0,0:0:0:0:
176,160,11700,1,0,0:0:0:0:
96,240,12314,2,0,L|256:240,1,140
336,160,13618,1,0,0:0:0:0:
336,224,14231,1,0,0:0:0:0:
336,288,14922,1,0,0:0:0:0:
288,144,15536,1,0,0:0:0:0:
288,80,16149,1,0,0:0:0:0:
288,16,16840,1,0,0:0:0:0:
240,128,17454,2,0,L|336:128,2,70
96,128,18758,1,0,0:0:0:0:
96,192,19371,1,0,0:0:0:0:
96,256,19985,1,0,0:0:0:0:
96,320,20676,1,0,0:0:0:0:
160,320,21289,1,0,0:0:0:0:
160,256,21903,1,0,0:0:0:0:
160,176,22593,2,0,L|160:32,1,140
272,128,23821,1,0,0:0:0:0:
352,32,24435,1,0,0:0:0:0:
384,208,25125,1,0,0:0:0:0:
256,0,25739,1,0,0:0:0:0:
176,80,26353,1,0,0:0:0:0:
96,160,27043,1,0,0:0:0:0:
256,192,27657,12,0,28295,0:0:0:0:
256,112,28961,5,0,0:0:0:0:
336,160,29575,1,0,0:0:0:0:
336,224,30188,1,0,0:0:0:0:
336,288,30879,1,0,0:0:0:0:
288,144,31492,1,0,0:0:0:0:
288,80,32106,1,0,0:0:0:0:
288,16,32797,1,0,0:0:0:0:
240,128,33410,2,0,L|336:128,2,70
96,128,34715,1,0,0:0:0:0:
96,192,35328,1,0,0:0:0:0:
96,256,35942,1,0,0:0:0:0:
96,320,36556,1,0,0:0:0:0:
160,320,37246,1,0,0:0:0:0:
160,256,37860,1,0,0:0:0:0:
160,176,38474,2,0,L|160:32,1,140
272,128,39778,1,0,0:0:0:0:
352,32,40391,1,0,0:0:0:0:
384,208,41082,1,0,0:0:0:0:
256,0,41696,1,0,0:0:0:0:
176,80,42309,1,0,0:0:0:0:
96,160,43000,1,0,0:0:0:0:
256,192,43614,12,0,44252,0:0:0:0:
256,112,44918,5,0,0:0:0:0:
96,128,45531,1,0,0:0:0:0:
96,192,46145,1,0,0:0:0:0:
96,256,46759,1,0,0:0:0:0:
96,320,47449,1,0,0:0:0:0:
160,320,48063,1,0,0:0:0:0:
160,256,48677,1,0,0:0:0:0:
160,176,49367,2,0,L|160:32,1,140
272,128,50595,1,0,0:0:0:0:
352,32,51285,1,0,0:0:0:0:
384,208,51899,1,0,0:0:0:0:
256,0,52513,1,0,0:0:0:0:
176,80,53203,1,0,0:0:0:0:
96,160,53817,1,0,0:0:0:0:
256,192,54430,12,0,55068,0:0:0:0:
96,128,55735,5,0,0:0:0:0:
96,192,56348,1,0,0:0:0:0:
96,256,57039,1,0,0:0:0:0:
96,320,57652,1,0,0:0:0:0:
160,320,58266,1,0,0:0:0:0:
160,256,58880,1,0,0:0:0:0:
96,256,59570,1,0,0:0:0:0:
96,320,60184,1,0,0:0:0:0:
160,320,60798,1,0,0:0:0:0:
96,192,61488,1,0,0:0:0:0:
96,256,62102,1,0,0:0:0:0:
96,320,62716,1,0,0:0:0:0:
160,320,63406,1,0,0:0:0:0:
96,256,64020,1,0,0:0:0:0:
96,320,64634,1,0,0:0:0:0:
160,320,65324,1,0,0:0:0:0:
160,256,65938,1,0,0:0:0:0:
160,176,66552,2,0,L|160:32,1,140
272,128,67856,1,0,0:0:0:0:
352,32,68469,1,0,0:0:0:0:
384,208,69160,1,0,0:0:0:0:
256,0,69774,1,0,0:0:0:0:
304,160,70387,1,0,0:0:0:0:
240,160,71001,1,0,0:0:0:0:
176,160,71691,1,0,0:0:0:0:
96,240,72305,2,0,L|256:240,1,140
336,160,73609,1,0,0:0:0:0:
336,224,74223,1,0,0:0:0:0:
336,288,74837,1,0,0:0:0:0:
288,144,75527,1,0,0:0:0:0:
288,80,76141,1,0,0:0:0:0:
288,16,76755,1,0,0:0:0:0:
240,128,77445,2,0,L|336:128,2,70
256,144,78673,1,0,0:0:0:0:
192,144,79363,1,0,0:0:0:0:
320,144,79977,1,0,0:0:0:0:
128,144,80590,1,0,0:0:0:0:
384,144,81281,1,0,0:0:0:0:
192,144,81895,2,0,L|192:288,1,140
144,32,83122,1,0,0:0:0:0:
208,32,83813,1,0,0:0:0:0:
208,96,84426,1,0,0:0:0:0:
144,96,85040,1,0,0:0:0:0:
144,160,85730,1,0,0:0:0:0:
272,176,86344,2,0,L|128:176,1,140
96,320,87648,1,0,0:0:0:0:
160,320,88262,1,0,0:0:0:0:
96,192,88876,1,0,0:0:0:0:
96,256,89566,1,0,0:0:0:0:
96,320,90180,1,0,0:0:0:0:
160,320,90794,1,0,0:0:0:0:
96,256,91484,1,0,0:0:0:0:
96,320,92098,1,0,0:0:0:0:
160,320,92712,1,0,0:0:0:0:
160,256,93325,1,0,0:0:0:0:
160,176,94016,2,0,L|160:32,1,140
192,144,95243,2,0,L|192:288,1,140
144,32,96547,1,0,0:0:0:0:
208,32,97161,1,0,0:0:0:0:
208,96,97851,1,0,0:0:0:0:
144,96,98465,1,0,0:0:0:0:
144,160,99079,1,0,0:0:0:0:
272,176,99769,2,0,L|128:176,1,140
96,320,100997,1,0,0:0:0:0:
272,128,101687,1,0,0:0:0:0:
352,32,102301,1,0,0:0:0:0:
384,208,102915,1,0,0:0:0:0:
256,0,103605,1,0,0:0:0:0:
176,80,104219,1,0,0:0:0:0:
96,160,104833,1,0,0:0:0:0:
336,320,105446,1,0,0:0:0:0:
336,208,106137,1,0,0:0:0:0:
336,96,106750,1,0,0:0:0:0:
224,96,107364,1,0,0:0:0:0:
320,144,108055,1,0,0:0:0:0:
320,208,108668,1,0,0:0:0:0:
320,272,109282,1,0,0:0:0:0:
256,272,109973,1,0,0:0:0:0:
208,176,110586,2,0,L|208:32,1,140
208,32,111890,1,0,0:0:0:0:
208,96,112504,1,0,0:0:0:0:
144,96,113118,1,0,0:0:0:0:
144,160,113808,1,0,0:0:0:0:
96,320,114422,1,0,0:0:0:0:
160,320,115036,1,0,0:0:0:0:
160,256,115726,1,0,0:0:0:0:
96,256,116340,1,0,0:0:0:0:
96,320,116954,1,0,0:0:0:0:
160,320,117567,1,0,0:0:0:0:
96,192,118258,1,0,0:0:0:0:
96,256,118872,1,0,0:0:0:0:
96,320,119485,1,0,0:0:0:0:
160,320,120176,1,0,0:0:0:0:
176,160,120789,1,0,0:0:0:0:
96,240,121403,2,0,L|256:240,1,140
336,160,122707,1,0,0:0:0:0:
336,224,123321,1,0,0:0:0:0:
336,288,124012,1,0,0:0:0:0:
288,144,124625,1,0,0:0:0:0:
288,80,125239,1,0,0:0:0:0:
288,16,125929,1,0,0:0:0:0:
240,128,126543,2,0,L|336:128,2,70
256,144,127771,1,0,0:0:0:0:
96,160,128461,1,0,0:0:0:0:
256,192,129075,12,0,129713,0:0:0:0:
256,112,130379,5,0,0:0:0:0:
336,160,130993,1,0,0:0:0:0:
336,224,131606,1,0,0:0:0:0:
336,288,132297,1,0,0:0:0:0:
224,96,132911,1,0,0:0:0:0:
320,144,133524,1,0,0:0:0:0:
320,208,134215,1,0,0:0:0:0:
320,272,134828,1,0,0:0:0:0:
256,272,135442,1,0,0:0:0:0:
208,176,136133,2,0,L|208:32,1,140
208,32,137360,1,0,0:0:0:0:
208,96,138050,1,0,0:0:0:0:
336,224,138664,1,0,0:0:0:0:
336,288,139278,1,0,0:0:0:0:
224,96,139892,1,0,0:0:0:0:
208,32,140582,1,0,0:0:0:0:
208,96,141196,1,0,0:0:0:0:
96,320,141810,1,0,0:0:0:0:
160,320,142500,1,0,0:0:0:0:
96,256,143114,1,0,0:0:0:0:
96,320,143727,1,0,0:0:0:0:
160,320,144418,1,0,0:0:0:0:
160,256,145032,1,0,0:0:0:0:
160,176,145645,2,0,L|160:32,1,140
272,128,146949,1,0,0:0:0:0:
112,192,147563,1,0,0:0:0:0:
176,192,148254,1,0,0:0:0:0:
256,96,148867,1,0,0:0:0:0:
336,224,149481,1,0,0:0:0:0:
336,288,150172,1,0,0:0:0:0:
224,96,150785,1,0,0:0:0:0:
208,32,151399,1,0,0:0:0:0:
208,96,152013,1,0,0:0:0:0:
96,320,152703,1,0,0:0:0:0:
160,320,153317,1,0,0:0:0:0:
96,256,153931,1,0,0:0:0:0:
96,320,154621,1,0,0:0:0:0:
160,320,155235,1,0,0:0:0:0:
96,160,155848,1,0,0:0:0:0:
256,192,156539,12,0,157177,0:0:0:0:
176,80,157766,5,0,0:0:0:0:
96,160,158457,1,0,0:0:0:0:
256,192,159071,12,0,159709,0:0:0:0:
96,128,160375,5,0,0:0:0:0:
96,192,160988,1,0,0:0:0:0:
96,256,161602,1,0,0:0:0:0:
96,320,162216,1,0,0:0:0:0:
160,176,162906,2,0,L|160:32,1,140
272,128,164134,1,0,0:0:0:0:
352,32,164824,1,0,0:0:0:0:
384,208,165438,1,0,0:0:0:0:
256,0,166052,1,0,0:0:0:0:
176,80,166742,1,0,0:0:0:0:
96,160,167356,1,0,0:0:0:0:
256,192,167970,12,0,168608,0:0:0:0:
208,32,169274,5,0,0:0:0:0:
208,96,169887,1,0,0:0:0:0:
336,224,170578,1,0,0:0:0:0:
336,288,171192,1,0,0:0:0:0:
224,96,171805,1,0,0:0:0:0:
208,32,172496,1,0,0:0:0:0:
208,96,173109,1,0,0:0:0:0:
96,320,173723,1,0,0:0:0:0:
160,320,174337,1,0,0:0:0:0:
96,256,175027,1,0,0:0:0:0:
272,128,175641,1,0,0:0:0:0:
352,32,176255,1,0,0:0:0:0:
384,208,176945,1,0,0:0:0:0:
256,0,177559,1,0,0:0:0:0:
176,80,178173,1,0,0:0:0:0:
96,160,178863,1,0,0:0:0:0:
256,192,179477,12,0,180115,0:0:0:0:
256,112,180781,5,0,0:0:0:0:
96,128,181395,1,0,0:0:0:0:
96,192,182009,1,0,0:0:0:0:
96,256,182699,1,0,0:0:0:0:
96,320,183313,1,0,0:0:0:0:
160,320,183926,1,0,0:0:0:0:
160,256,184617,1,0,0:0:0:0:
160,176,185231,2,0,L|160:32,1,140
272,128,186458,1,0,0:0:0:0:
352,32,187148,1,0,0:0:0:0:
384,208,187762,1,0,0:0:0:0:
256,0,188376,1,0,0:0:0:0:
176,80,189066,1,0,0:0:0:0:
96,160,189680,1,0,0:0:0:0:
256,192,190294,12,0,190932,0:0:0:0:
96,128,191598,5,0,0:0:0:0:
96,192,192212,1,0,0:0:0:0:
208,32,192902,1,0,0:0:0:0:
208,96,193516,1,0,0:0:0:0:
336,224,194130,1,0,0:0:0:0:
336,288,194820,1,0,0:0:0:0:
224,96,195434,1,0,0:0:0:0:
208,32,196047,1,0,0:0:0:0:
208,96,196738,1,0,0:0:0:0:
96,320,197352,1,0,0:0:0:0:
160,320,197965,1,0,0:0:0:0:
96,256,198579,1,0,0:0:0:0:
96,320,199270,1,0,0:0:0:0:
208,32,199883,1,0,0:0:0:0:
208,96,200497,1,0,0:0:0:0:
144,96,201187,1,0,0:0:0:0:
144,160,201801,1,0,0:0:0:0:
272,176,202415,2,0,L|128:176,1,140
96,320,203719,1,0,0:0:0:0:
160,320,204333,1,0,0:0:0:0:
96,192,205023,1,0,0:0:0:0:
96,192,205637,1,0,0:0:0:0:
96,256,206251,1,0,0:0:0:0:
96,320,206941,1,0,0:0:0:0:
160,320,207555,1,0,0:0:0:0:
160,256,208169,1,0,0:0:0:0:
160,176,208782,2,0,L|160:32,1,140
272,128,210086,1,0,0:0:0:0:
352,32,210700,1,0,0:0:0:0:
384,208,211391,1,0,0:0:0:0:
256,0,212004,1,0,0:0:0:0:
176,80,212618,1,0,0:0:0:0:
256,112,213308,1,0,0:0:0:0:
256,224,213922,1,0,0:0:0:0:
208,32,214536,1,0,0:0:0:0:
208,96,215226,1,0,0:0:0:0:
144,96,215840,1,0,0:0:0:0:
144,160,216454,1,0,0:0:0:0:
272,176,217144,2,0,L|128:176,1,140
96,320,218372,1,0,0:0:0:0:
160,320,219062,1,0,0:0:0:0:
96,192,219676,1,0,0:0:0:0:
96,192,220290,1,0,0:0:0:0:
272,176,220903,2,0,L|128:176,1,140
96,320,222207,1,0,0:0:0:0:
