osu file format v14

[General]
AudioFilename: audio.mp3
AudioLeadIn: 0
PreviewTime: 42196
Countdown: 0
SampleSet: Soft
StackLeniency: 0.7
Mode: 0
LetterboxInBreaks: 0
WidescreenStoryboard: 0

[Editor]
DistanceSpacing: 1.2
BeatDivisor: 8
GridSize: 32
TimelineZoom: 1

[Metadata]
Title:Worldwide
TitleUnicode:Worldwide
Artist:Big Time Rush
ArtistUnicode:Big Time Rush
Creator:tomadoi
Version:Paris, London, Tokyo
Source:Big Time Rush
Tags:btr boy band boyband tricolor shiinoha kotone pop english boygroup nickelodeon
BeatmapID:2594543
BeatmapSetID:1248347

[Difficulty]
HPDrainRate:6
CircleSize:5.2
OverallDifficulty:8
ApproachRate:8
SliderMultiplier:1.7
SliderTickRate:1

[Events]
//Background and Video events
0,0,"katie2.jpg",0,0
//Break Periods
//Storyboard Layer 0 (Background)
//Storyboard Layer 1 (Fail)
//Storyboard Layer 2 (Pass)
//Storyboard Layer 3 (Foreground)
//Storyboard Layer 4 (Overlay)
//Storyboard Sound Samples

[TimingPoints]
-5804,750,4,2,1,30,1,0
6196,-76.9230769230769,4,2,1,50,0,0
30196,-66.6666666666667,4,2,1,60,0,0
42196,-62.5,4,2,1,78,0,0
78196,-76.9230769230769,4,2,1,50,0,0
102196,-66.6666666666667,4,2,1,60,0,0
114196,-62.5,4,2,1,78,0,0
150196,-58.8235294117647,4,2,1,80,0,0
174196,-62.5,4,2,1,82,0,0
198196,-58.8235294117647,4,2,1,85,0,0
210196,-83.3333333333333,4,2,1,40,0,0
220321,-111.111111111111,4,2,1,40,0,0
221446,-111.111111111111,4,2,1,30,0,0
221821,-111.111111111111,4,2,1,20,0,0
222196,-111.111111111111,4,2,1,10,0,0

[Colours]
Combo1 : 173,255,95
Combo2 : 17,254,176
Combo3 : 255,88,100
Combo4 : 255,94,55

[HitObjects]
246,38,196,5,2,0:0:0:0:
246,38,946,2,0,P|224:40|204:47,1,42.5,2|0,0:0|0:0,0:0:0:0:
85,83,1321,2,0,P|105:89|126:92,1,42.5,2|0,0:0|0:0,0:0:0:0:
135,241,1696,2,0,P|113:203|32:198,1,127.5,2|2,0:0|0:0,0:0:0:0:
377,352,3196,6,0,P|461:330|523:325,1,127.5,2|2,0:0|0:0,0:0:0:0:
298,248,4321,2,0,P|249:248|221:351,1,170,2|0,0:0|0:0,0:0:0:0:
394,236,5633,2,0,L|452:217,2,42.5,2|0|2,0:0|0:0|0:0,0:0:0:0:
308,171,6196,6,0,B|305:88|346:104|339:2,1,165.749992412568,4|0,3:2|3:0,0:0:0:0:
471,167,6946,2,0,P|449:205|379:204,1,110.499994941712,8|0,0:0|0:0,0:0:0:0:
266,279,7508,2,0,P|288:283|328:306,1,55.2499974708558,8|0,0:0|0:0,0:0:0:0:
447,357,7883,1,8,0:0:0:0:
447,357,8071,2,0,P|469:353|509:330,1,55.2499974708558,0|0,3:0|0:0,0:0:0:0:
393,231,8446,1,8,0:0:0:0:
315,316,8633,2,0,B|261:310|273:283|208:278,1,110.499994941712,2|2,0:0|0:0,0:0:0:0:
105,342,9196,5,0,3:0:0:0:
56,95,9758,1,0,3:0:0:0:
114,167,9946,2,0,P|106:193|104:221,1,55.2499974708558,8|0,0:0|0:0,0:0:0:0:
145,67,10321,1,2,0:0:0:0:
145,67,10508,2,0,P|142:39|135:12,1,55.2499974708558,8|0,0:0|0:0,0:0:0:0:
239,184,10883,1,8,0:0:0:0:
296,112,11071,2,0,P|322:106|357:104,1,55.2499974708558,0|0,3:0|0:0,0:0:0:0:
468,176,11446,1,8,0:0:0:0:
357,227,11633,1,2,0:0:0:0:
486,288,11821,1,2,0:0:0:0:
486,288,12008,1,8,0:0:0:0:
342,240,12196,6,0,P|287:253|162:263,1,165.749992412568,4|0,3:2|3:0,0:0:0:0:
79,320,12946,2,0,P|107:371|162:366,1,110.499994941712,8|0,0:0|0:0,0:0:0:0:
101,213,13508,2,0,P|78:216|48:235,1,55.2499974708558,8|0,0:0|0:0,0:0:0:0:
141,136,13883,2,0,P|119:118|93:109,1,55.2499974708558,8|0,0:0|3:0,0:0:0:0:
218,17,14258,1,2,0:0:0:0:
292,83,14446,2,0,P|349:80|389:40,1,110.499994941712,8|0,0:0|0:0,0:0:0:0:
225,163,15008,1,0,3:0:0:0:
333,218,15196,6,0,P|342:241|351:280,1,55.2499974708558,0|0,3:0|0:0,0:0:0:0:
210,330,15571,2,0,P|216:303|226:277,1,55.2499974708558,2|0,0:0|3:0,0:0:0:0:
346,370,15946,1,8,0:0:0:0:
121,211,16321,1,2,0:0:0:0:
198,144,16508,2,0,P|224:152|247:167,1,55.2499974708558,8|0,0:0|0:0,0:0:0:0:
88,95,16883,2,0,P|61:103|38:118,1,55.2499974708558,8|0,0:0|3:0,0:0:0:0:
191,124,17258,1,2,0:0:0:0:
38,196,17446,2,0,P|21:245|14:311,1,110.499994941712,8|8,0:0|0:0,0:0:0:0:
13,303,18008,1,8,0:0:0:0:
167,356,18196,6,0,B|257:363|236:301|333:312,1,165.749992412568,4|0,3:2|3:0,0:0:0:0:
446,381,18946,2,0,P|487:358|463:297,1,110.499994941712,8|0,0:0|0:0,0:0:0:0:
486,169,19508,2,0,L|428:186,1,55.2499974708558,8|0,0:0|0:0,0:0:0:0:
321,311,19883,2,0,L|374:326,1,55.2499974708558,8|0,0:0|3:0,0:0:0:0:
284,197,20258,1,2,0:0:0:0:
221,345,20446,2,0,P|174:325|197:225,1,165.749992412568,8|0,0:0|0:0,0:0:0:0:
140,114,21196,5,0,3:0:0:0:
143,29,21383,1,2,0:0:0:0:
143,29,21571,2,0,P|167:36|197:52,1,55.2499974708558,2|0,0:0|3:0,0:0:0:0:
81,202,21946,1,8,0:0:0:0:
7,137,22133,2,0,P|54:116|130:110,1,110.499994941712,2|8,0:0|0:0,0:0:0:0:
112,108,22696,1,2,0:0:0:0:
12,252,22883,2,0,P|3:280|-1:316,1,55.2499974708558,8|0,0:0|3:0,0:0:0:0:
0,305,23258,1,2,0:0:0:0:
122,374,23446,2,0,P|148:362|231:354,1,110.499994941712,8|0,0:0|0:0,0:0:0:0:
367,250,24008,1,8,0:0:0:0:
319,377,24196,6,0,B|327:289|261:305|284:201,1,165.749992412568,4|0,3:2|3:0,0:0:0:0:
382,141,24946,2,0,P|432:143|459:196,1,110.499994941712,8|2,0:0|0:0,0:0:0:0:
289,132,25508,2,0,P|302:108|329:82,1,55.2499974708558,8|0,0:0|0:0,0:0:0:0:
203,197,25883,2,0,P|192:171|190:134,1,55.2499974708558,8|0,0:0|3:0,0:0:0:0:
226,70,26258,1,2,0:0:0:0:
95,171,26446,2,0,P|100:126|134:57,1,110.499994941712,8|2,0:0|0:0,0:0:0:0:
160,342,27196,6,0,P|111:344|78:297,1,110.499994941712,2|2,3:2|0:0,0:0:0:0:
279,277,27758,2,0,P|252:280|225:297,1,55.2499974708558,0|8,3:0|0:0,0:0:0:0:
448,364,28321,1,2,0:0:0:0:
366,365,28508,2,0,P|370:338|384:311,1,55.2499974708558,8|0,0:0|0:0,0:0:0:0:
509,261,28883,2,0,P|505:234|491:207,1,55.2499974708558,8|0,0:0|3:0,0:0:0:0:
391,63,29446,5,8,0:0:0:0:
386,84,29633,1,2,0:0:0:0:
407,89,29821,1,8,0:0:0:0:
412,68,30008,1,8,0:0:0:0:
314,20,30196,6,0,P|253:38|190:48,1,127.500004863739,4|0,3:2|0:0,0:0:0:0:
85,25,30758,1,0,3:0:0:0:
86,176,30946,2,0,P|146:183|179:133,1,127.500004863739,8|0,0:0|0:0,0:0:0:0:
292,218,31508,2,0,P|289:188|266:152,1,63.7500024318696,8|0,0:0|0:0,0:0:0:0:
299,55,31883,2,0,P|329:63|354:83,1,63.7500024318696,8|0,0:0|3:0,0:0:0:0:
420,234,32258,1,2,0:0:0:0:
504,108,32446,2,0,P|457:117|385:164,1,127.500004863739,8|0,0:0|0:0,0:0:0:0:
300,264,33008,5,2,0:0:0:0:
300,264,33102,1,2,0:0:0:0:
300,264,33196,2,0,P|302:297|314:335,1,63.7500024318696,2|0,3:2|0:0,0:0:0:0:
420,234,33571,1,2,0:0:0:0:
420,234,33758,1,0,3:0:0:0:
260,163,33946,2,0,P|199:175|140:201,1,127.500004863739,8|0,0:0|0:0,0:0:0:0:
72,250,34508,2,0,P|95:229|126:211,1,63.7500024318696,8|0,0:0|0:0,0:0:0:0:
286,161,34883,2,0,P|315:171|343:187,1,63.7500024318696,8|0,0:0|3:0,0:0:0:0:
473,367,35446,2,0,P|444:287|369:202,1,191.250007295609,8|8,0:0|0:0,0:0:0:0:
211,114,36196,6,0,P|230:28|317:37,1,191.250007295609,4|0,3:2|3:0,0:0:0:0:
257,194,36946,1,8,0:0:0:0:
496,111,37321,1,2,0:0:0:0:
412,68,37508,2,0,P|396:92|387:132,1,63.7500024318696,8|0,0:0|0:0,0:0:0:0:
257,194,37883,2,0,P|262:222|284:256,1,63.7500024318696,8|0,0:0|3:0,0:0:0:0:
361,307,38258,1,2,0:0:0:0:
405,227,38446,1,8,0:0:0:0:
256,335,38633,2,0,P|197:344|124:368,1,127.500004863739,2|0,0:0|3:0,0:0:0:0:
132,364,39196,5,0,3:0:0:0:
167,264,39383,1,2,0:0:0:0:
9,263,39571,2,0,P|35:275|71:285,1,63.7500024318696,2|0,0:0|3:0,0:0:0:0:
0,135,39946,1,8,0:0:0:0:
62,199,40133,2,0,P|118:172|165:122,1,127.500004863739,2|8,0:0|0:0,0:0:0:0:
62,199,40883,1,8,0:0:0:0:
240,104,41071,2,0,P|240:69|224:31,1,63.7500024318696,0|0,3:0|0:0,0:0:0:0:
120,0,41446,1,8,0:0:0:0:
167,264,41821,1,8,0:0:0:0:
162,125,42008,1,8,0:0:0:0:
229,321,42196,6,0,P|288:347|369:351,1,136,4|2,3:2|0:0,0:0:0:0:
485,198,42758,1,0,3:0:0:0:
348,274,42946,2,0,P|324:227|381:180,1,136,8|0,0:0|0:0,0:0:0:0:
448,327,43508,2,0,P|419:343|377:352,1,68,8|0,0:0|0:0,0:0:0:0:
438,125,43883,2,0,P|408:108|375:100,1,68,8|0,0:0|3:0,0:0:0:0:
379,179,44258,1,2,0:0:0:0:
425,10,44446,2,0,P|369:15|297:54,1,136,8|0,0:0|0:0,0:0:0:0:
166,127,45008,6,0,P|131:118|103:104,1,68,2|4,0:0|3:2,0:0:0:0:
102,103,45383,1,2,0:0:0:0:
272,148,45571,2,0,P|291:206|302:282,1,136,2|8,0:0|0:0,0:0:0:0:
312,358,46133,2,0,P|345:350|373:320,1,68,2|0,0:0|0:0,0:0:0:0:
197,230,46508,2,0,P|153:256|149:336,1,136,8|8,0:0|0:0,0:0:0:0:
148,334,47071,1,0,3:0:0:0:
233,308,47258,1,2,0:0:0:0:
71,264,47446,1,8,0:0:0:0:
233,308,47821,1,2,0:0:0:0:
388,257,48009,1,8,0:0:0:0:
388,257,48196,6,0,P|374:186|344:124,1,136,4|2,3:2|0:0,0:0:0:0:
420,39,48758,2,0,P|438:66|452:101,1,68,0|8,3:0|0:0,0:0:0:0:
216,159,49321,1,2,0:0:0:0:
353,56,49508,2,0,P|304:49|222:17,1,136,8|8,0:0|0:0,0:0:0:0:
293,182,50071,2,0,P|302:211|308:249,1,68,0|0,3:0|0:0,0:0:0:0:
80,197,50446,2,0,P|135:161|215:147,1,136,8|2,0:0|0:0,0:0:0:0:
261,356,51008,1,0,3:0:0:0:
168,367,51196,6,0,B|178:289|146:307|163:232,1,136,0|2,3:0|0:0,0:0:0:0:
168,367,51758,1,0,3:0:0:0:
20,353,51946,2,0,P|50:337|92:335,1,68,8|0,0:0|0:0,0:0:0:0:
250,270,52321,2,0,P|283:273|313:289,1,68,2|8,0:0|0:0,0:0:0:0:
480,148,52696,5,2,0:0:0:0:
352,219,52883,1,8,0:0:0:0:
506,243,53071,5,0,3:0:0:0:
322,142,53258,1,2,0:0:0:0:
462,323,53446,2,0,P|433:339|409:368,1,68,8|0,0:0|0:0,0:0:0:0:
480,148,53821,1,8,0:0:0:0:
480,148,54008,1,8,0:0:0:0:
356,302,54196,6,0,P|300:291|229:248,1,136,4|2,3:2|0:0,0:0:0:0:
248,165,54758,1,0,3:0:0:0:
128,299,54946,2,0,P|129:267|143:232,1,68,8|0,0:0|0:0,0:0:0:0:
248,165,55321,1,2,0:0:0:0:
60,184,55508,2,0,P|83:162|117:147,1,68,8|0,0:0|0:0,0:0:0:0:
44,25,55883,2,0,L|32:92,1,68,8|0,0:0|3:0,0:0:0:0:
32,91,56258,1,2,0:0:0:0:
141,233,56446,2,0,P|198:262|271:271,1,136,8|0,0:0|0:0,0:0:0:0:
75,289,57008,2,0,P|41:299|6:317,1,68,2|0,0:0|3:0,0:0:0:0:
376,346,57571,6,0,P|365:282|328:213,1,136,2|8,0:0|0:0,0:0:0:0:
440,112,58133,2,0,P|423:142|414:181,1,68,2|2,0:0|0:0,0:0:0:0:
268,271,58508,2,0,P|209:262|137:225,1,136,8|8,0:0|0:0,0:0:0:0:
34,115,59071,5,0,3:0:0:0:
147,43,59258,1,2,0:0:0:0:
16,38,59446,5,8,0:0:0:0:
168,120,59633,1,2,0:0:0:0:
316,10,59821,2,0,P|279:19|250:34,1,68,2|8,0:0|0:0,0:0:0:0:
332,219,60196,6,0,B|416:223|389:181|475:190,1,136,4|2,3:2|0:0,0:0:0:0:
348,134,60758,1,0,3:0:0:0:
488,109,60946,2,0,P|461:94|431:68,1,68,8|0,0:0|0:0,0:0:0:0:
432,69,61321,1,2,0:0:0:0:
415,315,61508,2,0,P|429:252|463:186,1,136,8|8,0:0|0:0,0:0:0:0:
282,59,62071,2,0,P|296:87|308:125,1,68,0|2,3:0|0:0,0:0:0:0:
259,261,62446,2,0,P|199:273|172:204,1,136,8|2,0:0|0:0,0:0:0:0:
60,263,63196,6,0,P|74:203|126:143,1,136,0|2,3:0|0:0,0:0:0:0:
168,214,63758,1,0,3:0:0:0:
198,49,63946,2,0,P|166:62|133:69,1,68,8|2,0:0|0:0,0:0:0:0:
0,14,64321,2,0,P|26:37|63:53,1,68,2|8,0:0|0:0,0:0:0:0:
199,142,64696,5,2,0:0:0:0:
71,209,64883,1,8,0:0:0:0:
43,127,65071,5,0,3:0:0:0:
168,214,65258,1,2,0:0:0:0:
310,132,65446,2,0,P|341:123|380:120,1,68,8|0,0:0|0:0,0:0:0:0:
464,337,65821,1,8,0:0:0:0:
356,209,66008,1,8,0:0:0:0:
512,67,66196,6,0,P|508:139|483:206,1,136,4|2,3:2|0:0,0:0:0:0:
464,337,66758,2,0,P|450:305|445:272,1,68,0|8,3:0|0:0,0:0:0:0:
486,198,67133,1,2,0:0:0:0:
323,267,67321,2,0,P|335:235|355:208,1,68,2|8,0:0|0:0,0:0:0:0:
193,45,67696,5,2,0:0:0:0:
389,116,67883,2,0,P|330:126|259:170,1,136,8|2,0:0|0:0,0:0:0:0:
117,298,68446,2,0,P|137:269|163:246,1,68,8|0,0:0|0:0,0:0:0:0:
249,248,68821,1,0,0:0:0:0:
167,154,69008,5,2,0:0:0:0:
157,158,69102,1,2,0:0:0:0:
147,162,69196,2,0,P|118:93|113:16,1,136,4|2,3:2|0:0,0:0:0:0:
161,247,69758,2,0,P|156:279|141:319,1,68,0|8,3:0|0:0,0:0:0:0:
144,312,70133,1,0,0:0:0:0:
242,221,70321,5,2,0:0:0:0:
381,308,70508,1,8,0:0:0:0:
262,304,70696,5,2,0:0:0:0:
369,228,70883,1,8,0:0:0:0:
506,340,71071,2,0,P|484:318|464:285,1,68,0|2,3:0|0:0,0:0:0:0:
316,361,71446,2,0,P|349:305|359:231,1,136,8|2,0:0|0:0,0:0:0:0:
301,71,72008,1,8,0:0:0:0:
498,181,72196,6,0,P|476:139|395:141,1,136,4|2,3:2|0:0,0:0:0:0:
295,256,72758,2,0,P|329:251|361:233,1,68,0|8,3:0|0:0,0:0:0:0:
304,167,73133,1,0,0:0:0:0:
458,300,73321,2,0,P|453:266|437:236,1,68,2|8,0:0|0:0,0:0:0:0:
239,112,73696,5,2,0:0:0:0:
437,12,73883,2,0,P|410:71|395:141,1,136,8|2,0:0|0:0,0:0:0:0:
209,266,74446,2,0,P|159:234|179:162,1,136,8|2,0:0|0:0,0:0:0:0:
239,112,75008,1,2,0:0:0:0:
248,115,75102,1,2,0:0:0:0:
257,118,75196,1,4,3:2:0:0:
257,118,77446,5,8,0:0:0:0:
191,62,77821,1,8,0:0:0:0:
343,121,78008,1,8,0:0:0:0:
178,157,78196,6,0,P|163:203|155:276,1,110.499994941712,4|2,3:2|0:0,0:0:0:0:
155,264,78758,1,0,3:0:0:0:
22,148,78946,2,0,P|54:108|116:117,1,110.499994941712,8|0,0:0|0:0,0:0:0:0:
80,313,79508,2,0,P|47:308|24:291,1,55.2499974708558,8|0,0:0|0:0,0:0:0:0:
208,335,79883,2,0,P|184:348|157:351,1,55.2499974708558,8|0,0:0|3:0,0:0:0:0:
155,264,80258,1,2,0:0:0:0:
293,375,80446,2,0,P|310:328|314:268,1,110.499994941712,8|0,0:0|0:0,0:0:0:0:
313,267,81008,2,0,L|301:206,1,55.2499974708558,2|0,0:0|3:0,0:0:0:0:
377,125,81383,5,2,0:0:0:0:
489,159,81571,2,0,P|463:175|433:181,1,55.2499974708558,2|0,0:0|3:0,0:0:0:0:
302,96,81946,2,0,P|313:52|353:-2,1,110.499994941712,8|2,0:0|0:0,0:0:0:0:
236,150,82508,2,0,P|221:127|212:96,1,55.2499974708558,8|0,0:0|0:0,0:0:0:0:
207,231,82883,2,0,P|182:218|159:196,1,55.2499974708558,8|0,0:0|3:0,0:0:0:0:
289,218,83258,1,2,0:0:0:0:
127,283,83446,2,0,P|90:293|26:332,1,110.499994941712,8|0,0:0|0:0,0:0:0:0:
74,163,84008,1,8,0:0:0:0:
199,353,84196,6,0,P|256:372|309:291,1,165.749992412568,4|0,3:2|3:0,0:0:0:0:
486,312,84946,2,0,P|430:327|380:357,1,110.499994941712,8|2,0:0|0:0,0:0:0:0:
295,195,85508,2,0,P|320:207|358:219,1,55.2499974708558,8|0,0:0|0:0,0:0:0:0:
231,281,85883,2,0,P|206:269|180:260,1,55.2499974708558,8|0,0:0|3:0,0:0:0:0:
440,111,86446,2,0,P|444:162|457:225,1,110.499994941712,8|2,0:0|0:0,0:0:0:0:
440,111,87008,1,0,3:0:0:0:
272,22,87196,6,0,P|262:42|257:76,1,55.2499974708558,0|0,3:0|0:0,0:0:0:0:
331,100,87571,2,0,P|340:79|346:46,1,55.2499974708558,2|0,0:0|3:0,0:0:0:0:
122,123,87946,2,0,P|169:161|223:177,1,110.499994941712,8|0,0:0|0:0,0:0:0:0:
61,252,88508,1,8,0:0:0:0:
176,48,88883,1,8,0:0:0:0:
27,173,89071,2,0,P|20:147|4:113,1,55.2499974708558,0|0,3:0|0:0,0:0:0:0:
160,249,89446,1,8,0:0:0:0:
8,354,89821,1,8,0:0:0:0:
61,252,90008,1,8,0:0:0:0:
211,351,90196,6,0,B|301:354|274:289|370:297,1,165.749992412568,4|0,3:2|3:0,0:0:0:0:
489,164,90946,2,0,P|465:210|450:269,1,110.499994941712,8|2,0:0|0:0,0:0:0:0:
419,96,91508,2,0,P|413:67|401:38,1,55.2499974708558,8|0,0:0|0:0,0:0:0:0:
361,296,91883,2,0,P|355:325|343:354,1,55.2499974708558,8|0,0:0|3:0,0:0:0:0:
109,263,92258,1,2,0:0:0:0:
279,300,92446,2,0,P|229:310|171:337,1,110.499994941712,8|0,0:0|0:0,0:0:0:0:
48,348,93008,2,0,P|74:361|111:371,1,55.2499974708558,2|0,0:0|3:0,0:0:0:0:
186,193,93383,5,2,0:0:0:0:
111,157,93571,2,0,P|85:163|55:177,1,55.2499974708558,2|0,0:0|3:0,0:0:0:0:
262,63,93946,2,0,P|220:42|151:46,1,110.499994941712,8|2,0:0|0:0,0:0:0:0:
303,144,94508,2,0,P|295:115|279:89,1,55.2499974708558,8|0,0:0|0:0,0:0:0:0:
81,69,94883,2,0,P|107:57|145:50,1,55.2499974708558,8|0,0:0|3:0,0:0:0:0:
132,51,95258,1,2,0:0:0:0:
193,152,95446,5,8,0:0:0:0:
118,230,95633,1,2,0:0:0:0:
83,149,95821,5,2,0:0:0:0:
230,229,96008,1,8,0:0:0:0:
34,317,96196,6,0,P|84:294|124:255,1,110.499994941712,4|2,3:2|0:0,0:0:0:0:
249,350,96758,2,0,P|227:337|199:326,1,55.2499974708558,0|8,3:0|0:0,0:0:0:0:
176,136,97133,2,0,P|211:177|230:229,1,110.499994941712,2|8,0:0|0:0,0:0:0:0:
193,53,97696,2,0,P|221:43|247:29,1,55.2499974708558,2|8,0:0|0:0,0:0:0:0:
92,109,98071,1,0,3:0:0:0:
111,23,98258,1,2,0:0:0:0:
286,112,98446,2,0,P|338:126|389:157,1,110.499994941712,8|2,0:0|0:0,0:0:0:0:
469,92,99008,1,0,3:0:0:0:
320,211,99196,6,0,P|328:234|334:267,1,55.2499974708558,0|0,3:0|0:0,0:0:0:0:
427,358,99571,2,0,P|438:332|446:306,1,55.2499974708558,2|0,0:0|3:0,0:0:0:0:
240,260,99946,2,0,P|192:277|131:285,1,110.499994941712,8|2,0:0|0:0,0:0:0:0:
396,177,100508,2,0,P|446:184|507:204,1,110.499994941712,8|8,0:0|0:0,0:0:0:0:
221,98,101071,2,0,P|226:70|236:45,1,55.2499974708558,0|0,3:0|0:0,0:0:0:0:
320,193,101446,5,8,0:0:0:0:
178,247,101633,1,8,0:0:0:0:
218,174,101821,5,8,0:0:0:0:
283,264,102008,1,8,0:0:0:0:
78,191,102196,6,0,P|56:139|56:59,1,127.500004863739,4|2,3:2|0:0,0:0:0:0:
14,251,102758,2,0,P|10:281|-1:316,1,63.7500024318696,0|8,3:0|0:0,0:0:0:0:
283,264,103321,1,2,0:0:0:0:
111,296,103508,2,0,P|166:312|231:346,1,127.500004863739,8|8,0:0|0:0,0:0:0:0:
277,163,104071,2,0,P|246:171|217:185,1,63.7500024318696,0|0,3:0|0:0,0:0:0:0:
217,185,104446,2,0,P|231:123|236:56,1,127.500004863739,8|0,0:0|0:0,0:0:0:0:
377,9,105008,5,2,0:0:0:0:
377,9,105102,1,2,0:0:0:0:
377,9,105196,2,0,P|347:20|317:40,1,63.7500024318696,2|0,3:2|0:0,0:0:0:0:
502,80,105571,2,0,P|475:62|445:52,1,63.7500024318696,2|0,0:0|3:0,0:0:0:0:
314,212,105946,2,0,P|323:271|354:332,1,127.500004863739,8|2,0:0|0:0,0:0:0:0:
439,134,106508,2,0,P|410:146|379:165,1,63.7500024318696,8|0,0:0|0:0,0:0:0:0:
448,215,106883,2,0,P|438:247|437:282,1,63.7500024318696,8|0,0:0|3:0,0:0:0:0:
448,215,107258,1,2,0:0:0:0:
353,331,107446,2,0,P|300:295|239:276,1,127.500004863739,8|2,0:0|0:0,0:0:0:0:
64,345,108008,1,8,0:0:0:0:
184,219,108196,6,0,B|197:154|158:165|179:85,1,127.500004863739,4|2,3:2|0:0,0:0:0:0:
150,352,108758,2,0,P|178:353|217:362,1,63.7500024318696,0|8,3:0|0:0,0:0:0:0:
212,360,109321,1,2,0:0:0:0:
64,345,109508,2,0,P|34:356|2:360,1,63.7500024318696,8|0,0:0|0:0,0:0:0:0:
239,276,109883,2,0,P|269:265|301:261,1,63.7500024318696,8|0,0:0|3:0,0:0:0:0:
239,276,110258,1,2,0:0:0:0:
450,365,110446,2,0,P|436:311|397:246,1,127.500004863739,8|0,0:0|0:0,0:0:0:0:
500,176,111008,1,0,3:0:0:0:
339,185,111196,6,0,P|347:152|366:120,1,63.7500024318696,0|0,3:0|0:0,0:0:0:0:
239,276,111571,2,0,P|218:227|219:154,1,127.500004863739,2|8,0:0|0:0,0:0:0:0:
85,209,112133,2,0,P|107:150|159:107,1,127.500004863739,2|2,0:0|0:0,0:0:0:0:
155,108,112883,1,2,0:0:0:0:
120,339,113071,2,0,P|63:309|1:296,1,127.500004863739,2|2,0:0|0:0,0:0:0:0:
399,350,114196,6,0,P|373:288|367:209,1,136,4|2,3:2|0:0,0:0:0:0:
465,154,114758,1,0,3:0:0:0:
236,178,114946,2,0,P|255:121|326:116,1,136,8|0,0:0|0:0,0:0:0:0:
474,257,115508,1,8,0:0:0:0:
350,33,115883,1,8,0:0:0:0:
366,220,116071,2,0,P|333:227|300:240,1,68,0|0,3:0|0:0,0:0:0:0:
151,341,116446,2,0,P|167:283|213:225,1,136,8|0,0:0|0:0,0:0:0:0:
108,221,117008,2,0,P|74:228|39:243,1,68,2|0,0:0|3:0,0:0:0:0:
43,240,117383,5,2,0:0:0:0:
221,144,117571,2,0,P|182:119|91:109,1,136,2|8,0:0|0:0,0:0:0:0:
212,315,118133,2,0,P|178:323|149:342,1,68,2|0,0:0|0:0,0:0:0:0:
330,118,118508,2,0,P|310:90|282:69,1,68,8|2,0:0|0:0,0:0:0:0:
421,0,118883,2,0,P|397:24|383:55,1,68,8|0,0:0|3:0,0:0:0:0:
440,280,119258,1,2,0:0:0:0:
424,126,119446,2,0,P|447:174|459:255,1,136,8|2,0:0|0:0,0:0:0:0:
482,62,120008,1,8,0:0:0:0:
356,250,120196,6,0,P|311:265|254:202,1,136,4|2,3:2|0:0,0:0:0:0:
356,250,120758,1,0,3:0:0:0:
152,188,120946,2,0,P|166:136|228:73,1,136,8|0,0:0|0:0,0:0:0:0:
66,209,121508,2,0,P|44:191|23:155,1,68,8|2,0:0|0:0,0:0:0:0:
242,316,121883,2,0,P|208:309|179:292,1,68,8|0,0:0|3:0,0:0:0:0:
88,314,122258,1,2,0:0:0:0:
365,162,122446,2,0,P|319:175|251:233,1,136,8|2,0:0|0:0,0:0:0:0:
407,279,123008,1,0,3:0:0:0:
179,292,123196,6,0,P|153:237|149:157,1,136,4|2,3:2|0:0,0:0:0:0:
232,111,123758,1,0,3:0:0:0:
23,48,123946,2,0,P|40:79|69:103,1,68,8|0,0:0|0:0,0:0:0:0:
165,53,124321,1,2,0:0:0:0:
165,53,124508,1,8,0:0:0:0:
279,179,124696,5,2,0:0:0:0:
355,206,124883,1,8,0:0:0:0:
429,171,125071,1,0,3:0:0:0:
438,90,125258,1,2,0:0:0:0:
467,293,125446,2,0,P|472:259|488:229,1,68,8|0,0:0|0:0,0:0:0:0:
319,56,125821,1,8,0:0:0:0:
355,206,126008,1,8,0:0:0:0:
237,21,126196,6,0,P|186:28|111:66,1,136,4|2,3:2|0:0,0:0:0:0:
14,272,126758,1,0,3:0:0:0:
2,114,126946,2,0,P|59:147|141:158,1,136,8|2,0:0|0:0,0:0:0:0:
33,351,127508,2,0,P|65:341|93:320,1,68,8|2,0:0|0:0,0:0:0:0:
261,382,127883,2,0,P|276:352|281:318,1,68,8|0,0:0|3:0,0:0:0:0:
198,228,128258,1,2,0:0:0:0:
400,307,128446,2,0,P|381:252|324:195,1,136,8|2,0:0|0:0,0:0:0:0:
198,228,129008,1,2,0:0:0:0:
255,54,129196,6,0,P|317:65|388:99,1,136,4|2,3:2|0:0,0:0:0:0:
434,196,129758,1,0,3:0:0:0:
452,23,129946,2,0,P|473:50|479:91,1,68,8|2,0:0|0:0,0:0:0:0:
338,277,130321,1,2,0:0:0:0:
382,95,130508,2,0,P|331:103|252:148,1,136,8|8,0:0|0:0,0:0:0:0:
77,54,131071,2,0,P|107:70|149:84,1,68,0|0,3:0|0:0,0:0:0:0:
253,254,131446,5,8,0:0:0:0:
181,215,131633,1,2,0:0:0:0:
105,245,131821,1,2,0:0:0:0:
86,324,132008,1,8,0:0:0:0:
36,124,132196,6,0,P|17:171|9:259,1,136,4|2,3:2|0:0,0:0:0:0:
138,81,132758,2,0,P|132:48|118:14,1,68,0|8,3:0|0:0,0:0:0:0:
105,245,133321,1,2,0:0:0:0:
105,245,133508,1,8,0:0:0:0:
138,81,133696,1,2,0:0:0:0:
184,283,133883,2,0,P|250:298|313:323,1,136,8|0,0:0|0:0,0:0:0:0:
36,359,134446,2,0,P|67:343|105:330,1,68,8|0,0:0|0:0,0:0:0:0:
179,370,134821,1,2,0:0:0:0:
471,191,135196,6,0,P|416:202|349:250,1,136,4|2,3:2|0:0,0:0:0:0:
421,48,135758,2,0,P|432:78|453:113,1,68,0|8,3:0|0:0,0:0:0:0:
450,109,136133,1,2,0:0:0:0:
497,270,136321,2,0,P|484:301|467:331,1,68,0|8,0:0|0:0,0:0:0:0:
336,168,136696,5,2,0:0:0:0:
268,123,136883,1,8,0:0:0:0:
186,134,137071,1,0,3:0:0:0:
143,203,137258,1,2,0:0:0:0:
145,22,137446,2,0,P|173:40|204:53,1,68,8|2,0:0|0:0,0:0:0:0:
156,286,137821,1,8,0:0:0:0:
67,132,138008,1,8,0:0:0:0:
232,342,138196,6,0,P|258:281|265:202,1,136,4|2,3:2|0:0,0:0:0:0:
284,14,138758,2,0,P|294:42|303:85,1,68,0|8,3:0|0:0,0:0:0:0:
265,212,139133,1,0,0:0:0:0:
361,161,139321,1,2,0:0:0:0:
193,127,139508,2,0,P|130:138|65:169,1,136,8|8,0:0|0:0,0:0:0:0:
302,79,140071,2,0,P|276:62|238:48,1,68,0|0,3:0|0:0,0:0:0:0:
25,243,140446,2,0,P|44:312|90:372,1,136,8|2,0:0|0:0,0:0:0:0:
81,363,141008,1,2,0:0:0:0:
272,286,141196,6,0,P|237:237|166:265,1,136,2|2,3:2|0:0,0:0:0:0:
81,363,141758,1,0,3:0:0:0:
48,107,141946,2,0,P|119:124|167:175,1,136,8|2,0:0|0:0,0:0:0:0:
11,225,142508,2,0,P|45:208|82:201,1,68,8|2,0:0|0:0,0:0:0:0:
297,284,142883,2,0,P|278:257|242:229,1,68,8|0,0:0|3:0,0:0:0:0:
158,271,143258,1,2,0:0:0:0:
350,202,143446,2,0,P|360:134|386:72,1,136,8|2,0:0|0:0,0:0:0:0:
477,280,144008,5,10,0:0:0:0:
467,283,144102,1,2,0:0:0:0:
457,286,144196,2,0,P|394:298|316:297,1,136,4|2,3:2|0:0,0:0:0:0:
197,364,144758,2,0,P|232:357|271:356,1,68,0|8,3:0|0:0,0:0:0:0:
322,297,145133,1,2,0:0:0:0:
153,163,145321,1,2,0:0:0:0:
124,303,145508,2,0,P|121:268|107:224,1,68,8|0,0:0|0:0,0:0:0:0:
312,150,145883,2,0,P|315:185|329:229,1,68,8|0,0:0|3:0,0:0:0:0:
231,123,146258,1,2,0:0:0:0:
450,91,146446,2,0,P|388:84|314:50,1,136,8|0,0:0|0:0,0:0:0:0:
321,54,147008,1,0,3:0:0:0:
419,199,147196,1,4,3:2:0:0:
486,302,149446,5,8,3:2:0:0:
427,218,149633,1,8,3:2:0:0:
326,199,149821,1,8,3:2:0:0:
248,265,150008,1,8,3:2:0:0:
105,112,150196,6,0,P|160:151|243:171,1,144.500002756119,4|2,3:2|0:0,0:0:0:0:
299,99,150758,1,0,3:0:0:0:
97,212,150946,2,0,P|80:237|66:282,1,72.2500013780594,8|0,0:0|0:0,0:0:0:0:
233,170,151321,1,2,0:0:0:0:
192,344,151508,2,0,P|168:315|151:269,1,72.2500013780594,8|0,0:0|0:0,0:0:0:0:
77,61,151883,2,0,P|77:92|93:132,1,72.2500013780594,8|0,0:0|3:0,0:0:0:0:
91,130,152258,1,2,0:0:0:0:
181,59,152446,5,8,0:0:0:0:
305,155,152633,1,2,0:0:0:0:
190,135,152821,5,2,0:0:0:0:
331,77,153008,1,8,0:0:0:0:
488,212,153196,6,0,P|467:150|415:89,1,144.500002756119,2|2,3:2|0:0,0:0:0:0:
380,315,153758,2,0,P|414:303|445:285,1,72.2500013780594,0|8,3:0|0:0,0:0:0:0:
488,212,154133,1,2,0:0:0:0:
309,349,154321,1,2,0:0:0:0:
164,297,154508,2,0,P|195:314|229:326,1,72.2500013780594,8|0,0:0|0:0,0:0:0:0:
69,189,154883,2,0,P|55:154|52:114,1,72.2500013780594,8|0,0:0|3:0,0:0:0:0:
77,46,155258,1,2,0:0:0:0:
25,325,155446,2,0,P|96:323|163:296,1,144.500002756119,8|2,0:0|0:0,0:0:0:0:
293,190,156008,5,8,0:0:0:0:
287,176,156102,1,2,0:0:0:0:
281,162,156196,2,0,P|283:90|303:20,1,144.500002756119,4|2,3:2|0:0,0:0:0:0:
395,204,156758,1,0,3:0:0:0:
163,295,156946,2,0,P|157:258|144:219,1,72.2500013780594,8|0,0:0|0:0,0:0:0:0:
319,291,157321,1,2,0:0:0:0:
124,146,157508,2,0,P|159:137|192:124,1,72.2500013780594,8|0,0:0|0:0,0:0:0:0:
260,354,157883,2,0,P|224:362|191:375,1,72.2500013780594,8|0,0:0|3:0,0:0:0:0:
232,235,158258,1,2,0:0:0:0:
436,372,158446,2,0,P|425:297|399:231,1,144.500002756119,8|0,0:0|0:0,0:0:0:0:
443,45,159008,1,0,3:0:0:0:
277,112,159196,6,0,P|342:142|417:148,1,144.500002756119,2|0,3:2|0:0,0:0:0:0:
232,235,159758,2,0,P|218:199|215:161,1,72.2500013780594,2|0,3:2|0:0,0:0:0:0:
277,112,160133,1,2,0:0:0:0:
91,183,160321,2,0,P|114:122|178:65,1,144.500002756119,2|0,3:2|0:0,0:0:0:0:
150,248,160883,1,8,0:0:0:0:
214,165,161071,5,0,3:0:0:0:
43,261,161258,1,0,3:0:0:0:
248,341,161446,5,8,0:0:0:0:
150,248,161633,1,8,0:0:0:0:
112,341,161821,5,8,0:0:0:0:
282,262,162008,1,8,0:0:0:0:
51,179,162196,6,0,P|27:107|25:38,1,144.500002756119,4|2,3:2|0:0,0:0:0:0:
150,248,162758,2,0,P|158:210|176:179,1,72.2500013780594,0|8,3:0|0:0,0:0:0:0:
51,179,163133,1,0,0:0:0:0:
242,259,163321,1,2,0:0:0:0:
55,266,163508,2,0,P|66:299|73:341,1,72.2500013780594,8|2,0:0|0:0,0:0:0:0:
262,175,163883,2,0,P|251:142|244:100,1,72.2500013780594,8|0,0:0|3:0,0:0:0:0:
244,105,164258,1,2,0:0:0:0:
472,47,164446,2,0,P|426:62|349:119,1,144.500002756119,8|2,0:0|0:0,0:0:0:0:
366,320,165008,5,2,0:0:0:0:
379,325,165102,1,2,0:0:0:0:
392,330,165196,2,0,P|408:276|412:175,1,144.500002756119,4|2,3:2|0:0,0:0:0:0:
478,357,165758,1,0,3:0:0:0:
349,118,165946,2,0,P|384:113|422:100,1,72.2500013780594,8|0,0:0|0:0,0:0:0:0:
487,152,166321,1,2,0:0:0:0:
202,188,166508,2,0,P|225:121|283:69,1,144.500002756119,8|8,0:0|0:0,0:0:0:0:
88,15,167071,2,0,P|118:40|159:54,1,72.2500013780594,0|0,3:0|0:0,0:0:0:0:
70,236,167446,1,8,0:0:0:0:
70,236,167821,1,2,0:0:0:0:
15,68,168008,1,8,0:0:0:0:
148,250,168196,6,0,P|211:270|284:323,1,144.500002756119,4|2,3:2|0:0,0:0:0:0:
371,134,168758,2,0,P|337:143|301:161,1,72.2500013780594,0|8,3:0|0:0,0:0:0:0:
303,159,169321,1,2,0:0:0:0:
459,329,169508,2,0,P|471:297|476:259,1,72.2500013780594,8|2,0:0|0:0,0:0:0:0:
231,118,169883,2,0,P|219:150|214:188,1,72.2500013780594,8|0,0:0|3:0,0:0:0:0:
214,187,170258,1,2,0:0:0:0:
393,27,170446,2,0,P|412:94|448:164,1,144.500002756119,8|2,0:0|0:0,0:0:0:0:
252,371,171196,5,4,3:2:0:0:
218,34,171758,1,4,3:2:0:0:
252,371,172321,1,4,3:2:0:0:
256,192,172508,12,0,174008,0:0:0:0:
51,100,174196,6,0,P|115:81|174:35,1,136,4|0,3:2|0:0,0:0:0:0:
83,0,174758,1,0,3:0:0:0:
267,92,174946,2,0,P|265:57|240:14,1,68,8|0,0:0|0:0,0:0:0:0:
179,160,175321,1,2,0:0:0:0:
388,145,175508,2,0,P|376:204|336:274,1,136,8|8,0:0|0:0,0:0:0:0:
465,64,176071,2,0,P|433:55|394:38,1,68,0|2,3:0|0:0,0:0:0:0:
475,281,176446,1,8,0:0:0:0:
475,281,176821,2,0,P|464:250|459:206,1,68,2|0,0:0|0:0,0:0:0:0:
232,359,177196,6,0,P|234:291|264:231,1,136,0|2,3:2|0:0,0:0:0:0:
370,120,177758,2,0,P|342:139|319:167,1,68,0|8,3:0|0:0,0:0:0:0:
232,359,178133,1,2,0:0:0:0:
320,165,178321,1,2,0:0:0:0:
147,332,178508,2,0,P|114:320|81:314,1,68,8|0,0:0|0:0,0:0:0:0:
317,365,178883,2,0,P|349:376|382:382,1,68,8|0,0:0|3:0,0:0:0:0:
147,332,179258,1,2,0:0:0:0:
456,342,179446,2,0,P|440:285|398:220,1,136,8|2,0:0|0:0,0:0:0:0:
480,62,180008,1,8,0:0:0:0:
326,173,180196,6,0,B|253:165|265:200|183:187,1,136,4|2,3:2|0:0,0:0:0:0:
383,109,180758,1,0,3:0:0:0:
114,148,180946,2,0,P|112:179|104:226,1,68,8|0,0:0|0:0,0:0:0:0:
44,333,181321,1,2,0:0:0:0:
192,188,181508,2,0,P|224:235|233:314,1,136,8|8,0:0|0:0,0:0:0:0:
27,124,182071,2,0,P|34:87|48:56,1,68,0|0,3:0|0:0,0:0:0:0:
44,333,182446,2,0,P|66:266|106:214,1,136,8|2,0:0|0:0,0:0:0:0:
362,98,183008,1,0,3:0:0:0:
314,250,183196,6,0,P|379:272|452:275,1,136,4|2,3:2|0:0,0:0:0:0:
426,183,183758,1,0,3:0:0:0:
432,370,183946,2,0,P|462:355|496:350,1,68,8|0,0:0|0:0,0:0:0:0:
445,275,184321,1,2,0:0:0:0:
445,275,184508,1,8,0:0:0:0:
294,352,184696,5,2,0:0:0:0:
222,313,184883,1,8,0:0:0:0:
210,231,185071,1,0,3:0:0:0:
256,164,185258,1,2,0:0:0:0:
442,76,185446,5,8,0:0:0:0:
340,156,185633,1,2,0:0:0:0:
283,67,185821,5,8,0:0:0:0:
455,159,186008,1,8,0:0:0:0:
206,100,186196,6,0,P|149:92|73:51,1,136,4|0,3:2|0:0,0:0:0:0:
256,164,186758,1,0,3:0:0:0:
36,128,186946,2,0,P|23:159|5:188,1,68,8|0,0:0|0:0,0:0:0:0:
5,188,187321,1,2,0:0:0:0:
132,0,187508,2,0,P|75:36|8:44,1,136,8|8,0:0|0:0,0:0:0:0:
290,55,188071,2,0,P|258:37|227:29,1,68,0|0,3:0|0:0,0:0:0:0:
447,185,188446,2,0,P|433:119|393:64,1,136,8|2,0:0|0:0,0:0:0:0:
316,258,189008,5,2,0:0:0:0:
313,271,189102,1,2,0:0:0:0:
310,284,189196,2,0,P|368:314|453:323,1,136,4|2,3:2|0:0,0:0:0:0:
227,306,189758,2,0,P|192:310|159:325,1,68,0|8,3:0|0:0,0:0:0:0:
310,284,190133,1,2,0:0:0:0:
123,239,190321,1,2,0:0:0:0:
378,222,190508,2,0,P|369:192|367:152,1,68,8|2,0:0|0:0,0:0:0:0:
76,313,190883,2,0,P|85:343|87:383,1,68,8|0,0:0|3:0,0:0:0:0:
227,306,191258,1,2,0:0:0:0:
23,219,191446,2,0,P|35:157|73:87,1,136,8|2,0:0|0:0,0:0:0:0:
213,1,192008,5,2,0:0:0:0:
217,13,192102,1,2,0:0:0:0:
221,26,192196,2,0,P|283:45|375:52,1,136,4|2,3:2|0:0,0:0:0:0:
454,18,192758,1,0,3:0:0:0:
290,192,192946,2,0,P|283:152|273:124,1,68,8|0,0:0|0:0,0:0:0:0:
187,115,193321,1,0,0:0:0:0:
376,274,193508,2,0,P|401:222|406:140,1,136,8|8,0:0|0:0,0:0:0:0:
485,368,194071,2,0,P|456:366|418:350,1,68,0|0,3:0|0:0,0:0:0:0:
376,274,194446,1,8,0:0:0:0:
463,60,194821,2,0,P|479:87|486:128,1,68,2|2,0:0|0:0,0:0:0:0:
485,122,195102,5,2,0:0:0:0:
485,122,195196,2,0,P|424:104|331:93,1,136,4|2,3:2|0:0,0:0:0:0:
287,195,195758,1,0,3:0:0:0:
311,14,195946,2,0,P|287:31|262:62,1,68,8|2,0:0|0:0,0:0:0:0:
172,38,196321,1,2,0:0:0:0:
352,94,196508,1,8,0:0:0:0:
150,121,196696,5,2,0:0:0:0:
132,200,196883,1,8,0:0:0:0:
114,279,197071,1,0,3:0:0:0:
96,358,197258,1,2,0:0:0:0:
37,236,197446,5,8,0:0:0:0:
182,335,197633,1,2,0:0:0:0:
8,316,197821,5,8,0:0:0:0:
211,247,198008,1,8,0:0:0:0:
420,374,198196,6,0,P|412:304|375:235,1,144.500002756119,4|0,3:2|0:0,0:0:0:0:
276,309,198758,1,0,3:0:0:0:
386,116,198946,2,0,P|419:128|455:133,1,72.2500013780594,8|0,0:0|0:0,0:0:0:0:
471,219,199321,1,2,0:0:0:0:
223,85,199508,2,0,P|278:46|355:39,1,144.500002756119,8|8,0:0|0:0,0:0:0:0:
508,42,200071,2,0,P|474:27|442:2,1,72.2500013780594,0|0,3:0|0:0,0:0:0:0:
314,172,200446,2,0,P|309:229|275:310,1,144.500002756119,8|2,0:0|0:0,0:0:0:0:
389,217,201008,1,2,0:0:0:0:
206,349,201196,6,0,B|129:347|149:307|65:311,1,144.500002756119,4|0,3:2|0:0,0:0:0:0:
24,99,201758,1,0,3:0:0:0:
114,236,201946,2,0,P|120:200|133:166,1,72.2500013780594,8|0,0:0|0:0,0:0:0:0:
114,236,202321,1,2,0:0:0:0:
92,22,202508,2,0,P|58:9|23:0,1,72.2500013780594,8|2,0:0|0:0,0:0:0:0:
0,288,202883,2,0,P|33:300|68:310,1,72.2500013780594,8|0,0:0|3:0,0:0:0:0:
286,249,203258,1,2,0:0:0:0:
135,377,203446,2,0,P|200:351|280:343,1,144.500002756119,8|2,0:0|0:0,0:0:0:0:
435,232,204008,1,8,0:0:0:0:
200,226,204196,6,0,P|183:169|184:78,1,144.500002756119,4|2,3:2|0:0,0:0:0:0:
365,351,204758,2,0,P|400:345|434:332,1,72.2500013780594,0|8,3:0|0:0,0:0:0:0:
503,285,205133,1,2,0:0:0:0:
273,342,205321,1,2,0:0:0:0:
488,171,205508,2,0,P|506:111|502:26,1,144.500002756119,8|8,0:0|0:0,0:0:0:0:
364,263,206071,2,0,P|343:230|315:208,1,72.2500013780594,0|0,3:0|0:0,0:0:0:0:
273,342,206446,2,0,P|219:342|137:383,1,144.500002756119,8|2,0:0|0:0,0:0:0:0:
242,255,207008,1,0,3:0:0:0:
66,333,207196,5,4,3:2:0:0:
256,192,207383,12,8,209446,0:0:0:0:
171,33,209821,5,8,0:0:0:0:
333,91,210008,1,8,0:0:0:0:
107,116,210196,6,0,P|91:159|81:230,1,101.999996887207,4|0,0:0|0:0,0:0:0:0:
94,66,210758,2,0,P|101:87|107:118,1,50.9999984436036,0|2,0:0|0:0,0:0:0:0:
81,214,211321,2,0,P|74:235|68:266,1,50.9999984436036,2|0,0:0|0:0,0:0:0:0:
90,337,211696,1,2,0:0:0:0:
90,337,212258,1,2,0:0:0:0:
183,376,212446,2,0,P|136:361|87:335,1,101.999996887207,2|0,0:0|0:0,0:0:0:0:
256,349,213196,5,2,0:0:0:0:
330,374,213571,2,0,P|359:367|385:352,1,50.9999984436036,2|0,0:0|0:0,0:0:0:0:
450,378,213946,2,0,P|458:349|458:319,1,50.9999984436036,2|0,0:0|0:0,0:0:0:0:
511,270,214321,2,0,P|490:248|464:233,1,50.9999984436036,2|0,0:0|0:0,0:0:0:0:
415,183,214696,2,0,P|458:149|516:135,1,101.999996887207,2|0,0:0|0:0,0:0:0:0:
269,73,215446,2,0,P|308:105|356:120,1,101.999996887207,2|0,0:0|0:0,0:0:0:0:
502,135,216008,2,0,P|480:126|448:120,1,50.9999984436036,0|2,0:0|0:0,0:0:0:0:
453,120,216758,5,2,0:0:0:0:
404,194,216946,2,0,P|361:210|301:212,1,101.999996887207,2|2,0:0|0:0,0:0:0:0:
511,264,217508,2,0,P|483:256|454:254,1,50.9999984436036,0|2,0:0|0:0,0:0:0:0:
504,363,217883,1,2,0:0:0:0:
393,303,218071,2,0,P|357:312|300:345,1,101.999996887207,2|2,0:0|0:0,0:0:0:0:
301,344,219008,1,2,0:0:0:0:
202,379,219196,6,0,P|204:329|218:268,2,101.999996887207,2|0|2,0:0|0:0|0:0,0:0:0:0:
216,78,220321,2,0,B|210:16|100:17|56:78|58:215|220:181|214:287,1,382.499988327027,2|0,0:0|0:0,0:0:0:0:
