osu file format v14

[General]
AudioFilename: audio.mp3
AudioLeadIn: 0
PreviewTime: 42196
Countdown: 0
SampleSet: Soft
StackLeniency: 0.7
Mode: 0
LetterboxInBreaks: 0
WidescreenStoryboard: 1

[Editor]
DistanceSpacing: 1.2
BeatDivisor: 4
GridSize: 32
TimelineZoom: 1

[Metadata]
Title:Worldwide
TitleUnicode:Worldwide
Artist:Big Time Rush
ArtistUnicode:Big Time Rush
Creator:tomadoi
Version:Hard
Source:Big Time Rush
Tags:btr boy band boyband tricolor shiinoha kotone pop english boygroup nickelodeon
BeatmapID:3000231
BeatmapSetID:1248347

[Difficulty]
HPDrainRate:5
CircleSize:4.5
OverallDifficulty:6
ApproachRate:7
SliderMultiplier:1.4
SliderTickRate:1

[Events]
//Background and Video events
0,0,"katie2.jpg",0,0
//Break Periods
//Storyboard Layer 0 (Background)
//Storyboard Layer 1 (Fail)
//Storyboard Layer 2 (Pass)
//Storyboard Layer 3 (Foreground)
//Storyboard Layer 4 (Overlay)
//Storyboard Sound Samples

[TimingPoints]
-5804,750,4,2,1,30,1,0
6196,-83.3333333333333,4,2,1,50,0,0
30196,-83.3333333333333,4,2,1,60,0,0
42196,-62.5,4,2,1,78,0,0
78196,-83.3333333333333,4,2,1,50,0,0
102196,-83.3333333333333,4,2,1,60,0,0
114196,-62.5,4,2,1,78,0,0
150196,-62.5,4,2,1,80,0,0
174196,-55.5555555555556,4,2,1,82,0,0
198196,-55.5555555555556,4,2,1,85,0,0
210196,-55.5555555555556,4,2,1,40,0,0
211321,-100,4,2,1,40,0,0
221446,-100,4,2,1,30,0,0
221821,-100,4,2,1,20,0,0
222196,-100,4,2,1,10,0,0

[Colours]
Combo1 : 173,255,95
Combo2 : 17,254,176
Combo3 : 255,88,100
Combo4 : 255,94,55

[HitObjects]
393,297,196,5,2,0:0:0:0:
393,297,946,2,0,L|436:312,2,35,2|0|2,0:0|0:0|0:0,0:0:0:0:
328,254,1508,2,0,L|275:273,1,35,0|2,0:0|0:0,0:0:0:0:
60,344,3196,6,0,P|36:315|48:247,1,105,2|2,0:0|0:0,0:0:0:0:
150,164,4321,2,0,B|227:164|206:208|285:203,1,140,2|0,0:0|0:0,0:0:0:0:
371,132,5633,2,0,L|383:99,2,35,2|0|2,0:0|0:0|0:0,0:0:0:0:
305,85,6196,6,0,P|260:82|186:41,1,125.999996154785,4|0,3:2|3:0,0:0:0:0:
118,81,6946,1,8,0:0:0:0:
43,222,7321,1,0,0:0:0:0:
43,222,7508,2,0,P|52:257|58:313,1,83.9999974365235,8|8,0:0|0:0,0:0:0:0:
26,378,8071,1,0,3:0:0:0:
87,327,8258,1,0,0:0:0:0:
165,340,8446,2,0,B|227:324|231:375|298:357,1,125.999996154785,8|2,0:0|0:0,0:0:0:0:
364,301,9196,5,0,3:0:0:0:
360,83,9758,1,0,3:0:0:0:
427,125,9946,2,0,P|435:152|444:176,1,41.9999987182618,8|0,0:0|0:0,0:0:0:0:
379,217,10321,1,2,0:0:0:0:
379,217,10508,2,0,P|371:244|362:268,1,41.9999987182618,8|0,0:0|0:0,0:0:0:0:
273,223,10883,2,0,P|266:203|260:182,1,41.9999987182618,8|0,0:0|3:0,0:0:0:0:
288,113,11258,1,0,0:0:0:0:
171,148,11446,2,0,P|144:139|122:134,1,41.9999987182618,8|2,0:0|0:0,0:0:0:0:
90,52,11821,2,0,P|69:57|49:64,1,41.9999987182618,2|8,0:0|0:0,0:0:0:0:
17,196,12196,6,0,P|65:206|126:260,1,125.999996154785,4|0,3:2|3:0,0:0:0:0:
226,336,12946,2,0,P|232:295|245:250,1,83.9999974365235,8|0,0:0|0:0,0:0:0:0:
326,197,13508,2,0,P|342:208|365:222,1,41.9999987182618,8|0,0:0|0:0,0:0:0:0:
391,317,13883,2,0,P|372:327|355:339,1,41.9999987182618,8|0,0:0|3:0,0:0:0:0:
447,249,14258,1,2,0:0:0:0:
447,249,14446,2,0,P|455:208|466:160,1,83.9999974365235,8|0,0:0|0:0,0:0:0:0:
432,66,15008,5,0,3:0:0:0:
364,24,15196,2,0,P|320:37|276:48,2,83.9999974365235,0|2|8,3:0|0:0|0:0,0:0:0:0:
237,149,16321,1,2,0:0:0:0:
190,88,16508,2,0,P|167:76|149:63,1,41.9999987182618,8|0,0:0|0:0,0:0:0:0:
82,164,16883,2,0,P|59:175|41:189,1,41.9999987182618,8|0,0:0|3:0,0:0:0:0:
32,63,17258,1,2,0:0:0:0:
32,63,17446,2,0,B|133:44|99:122|203:95,1,167.999994873047,8|4,0:0|3:2,0:0:0:0:
248,307,18758,5,0,3:0:0:0:
192,258,18946,2,0,P|153:262|118:294,1,83.9999974365235,8|0,0:0|0:0,0:0:0:0:
38,241,19508,2,0,P|45:220|51:194,1,41.9999987182618,8|0,0:0|0:0,0:0:0:0:
127,145,19883,2,0,P|147:152|174:158,1,41.9999987182618,8|0,0:0|3:0,0:0:0:0:
265,120,20258,1,2,0:0:0:0:
201,74,20446,2,0,P|219:37|251:-5,1,83.9999974365235,8|0,0:0|0:0,0:0:0:0:
351,180,21196,6,0,L|366:273,1,83.9999974365235,0|2,3:0|0:0,0:0:0:0:
414,327,21758,1,0,3:0:0:0:
312,352,21946,2,0,B|287:339|287:339|217:347,1,83.9999974365235,8|0,0:0|0:0,0:0:0:0:
163,293,22508,2,0,L|176:243,1,41.9999987182618,8|2,0:0|0:0,0:0:0:0:
74,326,22883,2,0,L|84:366,1,41.9999987182618,8|0,0:0|3:0,0:0:0:0:
4,271,23258,1,2,0:0:0:0:
67,219,23446,2,0,B|80:173|80:173|75:144|75:144|90:91,1,125.999996154785,8|8,0:0|0:0,0:0:0:0:
59,15,24196,5,4,3:2:0:0:
184,113,24571,1,0,0:0:0:0:
247,67,24758,2,0,P|281:58|329:33,1,83.9999974365235,2|0,3:2|0:0,0:0:0:0:
380,108,25321,2,0,P|398:114|431:128,1,41.9999987182618,2|8,0:0|0:0,0:0:0:0:
494,85,25696,1,0,0:0:0:0:
404,217,26071,1,0,3:0:0:0:
463,270,26258,2,0,B|452:313|465:313|454:361,1,83.9999974365235,2|0,0:0|0:0,0:0:0:0:
341,269,26821,2,0,P|316:274|296:278,1,41.9999987182618,2|0,0:0|0:0,0:0:0:0:
234,333,27196,5,2,3:2:0:0:
265,176,27571,1,2,0:0:0:0:
116,233,27946,1,8,0:0:0:0:
211,245,28321,6,0,P|222:149|235:64,1,167.999994873047,2|0,0:0|3:0,0:0:0:0:
66,2,29446,2,0,P|74:24|81:56,1,41.9999987182618,8|2,0:0|0:0,0:0:0:0:
135,97,29821,1,8,0:0:0:0:
50,156,30008,1,8,0:0:0:0:
102,213,30196,6,0,P|89:251|78:296,1,83.9999974365235,4|0,3:2|0:0,0:0:0:0:
154,309,30758,2,0,P|157:334|164:362,1,41.9999987182618,0|8,3:0|0:0,0:0:0:0:
283,243,31321,1,0,0:0:0:0:
346,288,31508,2,0,P|382:297|425:316,2,83.9999974365235,8|8|2,0:0|0:0|0:0,0:0:0:0:
267,235,32446,2,0,P|247:172|235:107,1,125.999996154785,8|2,0:0|0:0,0:0:0:0:
275,42,33196,6,0,P|300:37|328:29,1,41.9999987182618,2|0,3:2|0:0,0:0:0:0:
361,104,33571,2,0,P|381:109|401:113,1,41.9999987182618,2|0,0:0|3:0,0:0:0:0:
477,65,33946,1,8,0:0:0:0:
388,197,34321,1,0,0:0:0:0:
447,244,34508,2,0,P|452:267|461:294,1,41.9999987182618,8|0,0:0|0:0,0:0:0:0:
363,347,34883,2,0,P|369:326|373:306,1,41.9999987182618,8|0,0:0|3:0,0:0:0:0:
270,148,35446,2,0,P|215:141|175:198,1,125.999996154785,8|8,0:0|0:0,0:0:0:0:
102,123,36196,6,0,L|119:25,1,83.9999974365235,4|0,3:2|0:0,0:0:0:0:
195,46,36758,2,0,L|187:-9,1,41.9999987182618,0|8,3:0|0:0,0:0:0:0:
311,79,37321,1,2,0:0:0:0:
384,56,37508,2,0,P|420:71|465:88,1,83.9999974365235,8|8,0:0|0:0,0:0:0:0:
369,167,38071,2,0,P|347:175|328:185,1,41.9999987182618,0|2,3:0|0:0,0:0:0:0:
254,168,38446,2,0,B|230:265|299:230|263:338,1,167.999994873047,8|0,0:0|3:0,0:0:0:0:
141,366,39383,5,2,0:0:0:0:
95,313,39571,2,0,P|53:299|15:284,1,83.9999974365235,2|8,0:0|0:0,0:0:0:0:
83,187,40133,2,0,P|124:173|163:158,1,83.9999974365235,2|8,0:0|0:0,0:0:0:0:
294,12,40883,1,8,0:0:0:0:
357,92,41071,2,0,P|346:132|339:177,1,83.9999974365235,0|8,3:0|0:0,0:0:0:0:
429,340,41821,1,8,0:0:0:0:
429,340,42008,1,8,0:0:0:0:
346,287,42196,6,0,P|314:323|230:319,1,112,4|2,3:2|0:0,0:0:0:0:
200,263,42758,1,0,3:0:0:0:
115,359,42946,2,0,B|132:304|101:305|123:240,1,112,8|0,0:0|0:0,0:0:0:0:
72,168,43508,2,0,P|44:178|20:197,1,56,8|0,0:0|0:0,0:0:0:0:
77,82,43883,2,0,P|50:67|20:62,1,56,8|0,0:0|3:0,0:0:0:0:
156,14,44258,1,2,0:0:0:0:
213,66,44446,2,0,B|270:62|262:30|320:28,1,112,8|0,0:0|0:0,0:0:0:0:
392,52,45008,2,0,P|418:41|450:35,1,56,2|4,0:0|3:2,0:0:0:0:
512,135,45383,5,2,0:0:0:0:
425,192,45571,2,0,P|406:237|390:299,1,112,2|8,0:0|0:0,0:0:0:0:
326,222,46133,2,0,L|259:245,1,56,2|0,0:0|0:0,0:0:0:0:
201,328,46508,2,0,P|169:294|94:306,2,112,8|8|2,0:0|0:0|0:0,0:0:0:0:
257,232,47446,1,8,0:0:0:0:
247,221,47821,6,0,L|264:155,1,56,2|8,0:0|0:0,0:0:0:0:
222,61,48196,6,0,B|161:73|161:73|135:105|135:105|66:115,1,168,4|0,3:2|3:0,0:0:0:0:
15,239,48946,2,0,P|62:255|102:204,1,112,8|2,0:0|0:0,0:0:0:0:
180,287,49508,2,0,P|164:311|149:344,1,56,8|0,0:0|0:0,0:0:0:0:
273,298,49883,2,0,P|280:325|294:359,1,56,8|0,0:0|3:0,0:0:0:0:
361,248,50258,1,0,0:0:0:0:
361,248,50446,2,0,P|409:276|469:287,1,112,8|2,0:0|0:0,0:0:0:0:
409,174,51008,1,0,3:0:0:0:
460,112,51196,6,0,B|457:77|462:34|462:34|433:26|397:11,1,112,0|2,3:0|0:0,0:0:0:0:
339,81,51758,1,0,3:0:0:0:
339,81,51946,2,0,P|309:69|264:57,1,56,8|0,0:0|0:0,0:0:0:0:
276,139,52321,2,0,P|246:151|205:175,1,56,2|8,0:0|0:0,0:0:0:0:
153,247,52696,1,2,0:0:0:0:
153,247,52883,1,8,0:0:0:0:
75,169,53071,2,0,P|84:140|90:110,2,56,0|2|8,3:0|0:0|0:0,0:0:0:0:
267,260,53821,2,0,P|293:250|321:242,1,56,8|8,0:0|0:0,0:0:0:0:
397,185,54196,6,0,P|431:211|422:287,1,112,4|2,3:2|0:0,0:0:0:0:
251,243,54946,2,0,P|217:269|226:345,1,112,8|2,0:0|0:0,0:0:0:0:
131,320,55508,2,0,P|104:329|77:337,1,56,8|0,0:0|0:0,0:0:0:0:
100,244,55883,2,0,P|72:237|45:229,1,56,8|0,0:0|3:0,0:0:0:0:
51,131,56258,1,2,0:0:0:0:
127,148,56446,2,0,P|136:105|165:32,1,112,8|0,0:0|0:0,0:0:0:0:
242,58,57008,2,0,L|226:-9,1,56,2|0,0:0|3:0,0:0:0:0:
136,156,57571,6,0,P|183:166|244:196,1,112,2|8,0:0|0:0,0:0:0:0:
160,297,58133,2,0,P|204:277|270:265,1,112,2|8,0:0|0:0,0:0:0:0:
325,319,58696,1,2,0:0:0:0:
448,294,59071,2,0,P|421:287|391:276,1,56,0|2,3:0|0:0,0:0:0:0:
339,222,59446,1,8,0:0:0:0:
339,222,59633,1,2,0:0:0:0:
403,125,59821,2,0,P|408:152|418:191,1,56,2|8,0:0|0:0,0:0:0:0:
319,106,60196,6,0,P|271:58|155:72,1,168,4|0,3:2|3:0,0:0:0:0:
65,8,60946,2,0,P|76:50|88:121,1,112,8|2,0:0|0:0,0:0:0:0:
144,196,61508,1,8,0:0:0:0:
74,235,61696,2,0,P|64:264|55:301,2,56,0|8|0,0:0|0:0|3:0,0:0:0:0:
196,271,62258,1,2,0:0:0:0:
196,271,62446,2,0,P|252:270|315:252,1,112,8|2,0:0|0:0,0:0:0:0:
445,348,63196,6,0,B|466:251|410:282|434:181,1,168,0|0,3:0|3:0,0:0:0:0:
489,122,63946,1,8,0:0:0:0:
370,25,64321,1,2,0:0:0:0:
305,61,64508,2,0,P|292:88|277:115,1,56,8|2,0:0|0:0,0:0:0:0:
370,147,64883,2,0,P|382:172|395:196,1,56,8|0,0:0|3:0,0:0:0:0:
267,253,65258,1,2,0:0:0:0:
319,311,65446,2,0,P|370:322|433:353,1,112,8|8,0:0|0:0,0:0:0:0:
472,261,66008,1,8,0:0:0:0:
395,196,66196,6,0,P|402:140|442:30,1,168,4|0,3:2|3:0,0:0:0:0:
333,65,66946,2,0,P|277:89|219:101,1,112,8|2,0:0|0:0,0:0:0:0:
158,148,67508,2,0,P|129:141|103:125,1,56,8|2,0:0|0:0,0:0:0:0:
45,197,67883,2,0,P|27:175|17:149,1,56,8|0,0:0|0:0,0:0:0:0:
221,205,68446,2,0,P|211:260|197:315,1,112,8|0,0:0|0:0,0:0:0:0:
265,369,69008,1,2,0:0:0:0:
337,307,69196,6,0,B|421:293|409:363|507:339,1,168,4|0,3:2|3:0,0:0:0:0:
409,232,69946,1,8,0:0:0:0:
409,232,70133,2,0,P|420:208|431:177,1,56,0|2,0:0|0:0,0:0:0:0:
322,205,70508,2,0,P|315:179|304:148,1,56,8|2,0:0|0:0,0:0:0:0:
215,95,70883,1,8,0:0:0:0:
215,95,71071,2,0,P|189:112|154:129,1,56,0|2,3:0|0:0,0:0:0:0:
77,229,71446,2,0,P|65:192|34:125,1,112,8|2,0:0|0:0,0:0:0:0:
174,212,72008,5,8,0:0:0:0:
174,212,72196,2,0,P|245:217|275:308,1,168,4|0,3:2|3:0,0:0:0:0:
204,348,72946,1,8,0:0:0:0:
196,338,73321,6,0,L|122:354,1,56,2|8,0:0|0:0,0:0:0:0:
36,384,73696,2,0,B|53:324|53:324|32:282|32:282|48:218,1,168,2|2,0:0|0:0,0:0:0:0:
107,154,74446,1,8,0:0:0:0:
37,10,74821,2,0,P|56:27|92:46,1,56,2|2,0:0|0:0,0:0:0:0:
163,19,75196,5,4,3:2:0:0:
256,192,75571,12,4,78196,3:2:0:0:
256,192,78758,5,0,3:0:0:0:
297,126,78946,2,0,P|283:84|274:41,1,83.9999974365235,8|0,0:0|0:0,0:0:0:0:
374,156,79508,2,0,P|409:170|453:194,2,83.9999974365235,8|8|2,0:0|0:0|0:0,0:0:0:0:
269,208,80446,2,0,P|245:238|145:240,1,125.999996154785,8|2,0:0|0:0,0:0:0:0:
95,200,81196,5,0,3:0:0:0:
30,245,81383,2,0,P|25:267|15:297,2,41.9999987182618,2|2|0,0:0|0:0|3:0,0:0:0:0:
20,154,81946,2,0,P|11:107|-2:66,1,83.9999974365235,8|2,0:0|0:0,0:0:0:0:
97,89,82508,2,0,P|103:67|109:45,1,41.9999987182618,8|0,0:0|0:0,0:0:0:0:
206,123,82883,2,0,P|201:100|196:78,1,41.9999987182618,8|0,0:0|3:0,0:0:0:0:
310,170,83258,1,2,0:0:0:0:
310,170,83446,2,0,P|321:128|341:68,1,83.9999974365235,8|0,0:0|0:0,0:0:0:0:
412,48,84008,2,0,L|403:6,1,41.9999987182618,8|4,0:0|3:2,0:0:0:0:
489,184,84758,5,0,3:0:0:0:
412,225,84946,2,0,P|387:255|344:288,1,83.9999974365235,8|2,0:0|0:0,0:0:0:0:
258,331,85508,2,0,P|263:310|270:290,1,41.9999987182618,8|0,0:0|0:0,0:0:0:0:
290,173,85883,2,0,P|296:192|302:213,1,41.9999987182618,8|0,0:0|3:0,0:0:0:0:
181,361,86446,2,0,P|151:360|78:298,1,125.999996154785,8|0,0:0|3:0,0:0:0:0:
85,200,87196,6,0,P|45:214|1:227,2,83.9999974365235,0|2|8,3:0|0:0|0:0,0:0:0:0:
207,89,88321,1,0,0:0:0:0:
138,66,88508,2,0,P|124:87|109:106,1,41.9999987182618,8|0,0:0|0:0,0:0:0:0:
192,167,88883,1,8,0:0:0:0:
192,167,89071,2,0,P|206:179|225:199,1,41.9999987182618,0|0,3:0|0:0,0:0:0:0:
258,280,89446,1,8,0:0:0:0:
388,187,89821,1,8,0:0:0:0:
450,235,90008,1,8,0:0:0:0:
496,169,90196,6,0,B|492:106|457:123|451:43,1,125.999996154785,4|0,3:2|3:0,0:0:0:0:
374,4,90946,2,0,P|333:19|293:28,1,83.9999974365235,8|2,0:0|0:0,0:0:0:0:
230,72,91508,2,0,L|220:113,1,41.9999987182618,8|0,0:0|0:0,0:0:0:0:
310,151,91883,2,0,L|320:192,1,41.9999987182618,8|0,0:0|3:0,0:0:0:0:
201,233,92258,1,2,0:0:0:0:
201,233,92446,2,0,P|192:271|178:328,1,83.9999974365235,8|0,0:0|0:0,0:0:0:0:
346,361,93196,5,0,3:0:0:0:
401,296,93383,1,2,0:0:0:0:
401,296,93571,2,0,P|425:285|446:277,1,41.9999987182618,2|0,0:0|3:0,0:0:0:0:
337,198,93946,2,0,P|334:224|330:246,1,41.9999987182618,8|0,0:0|0:0,0:0:0:0:
453,191,94321,2,0,P|431:175|414:161,1,41.9999987182618,2|8,0:0|0:0,0:0:0:0:
460,90,94696,1,0,0:0:0:0:
460,90,94883,2,0,P|438:74|421:60,1,41.9999987182618,8|0,0:0|3:0,0:0:0:0:
331,110,95258,1,2,0:0:0:0:
331,110,95446,2,0,P|309:94|292:80,1,41.9999987182618,8|2,0:0|0:0,0:0:0:0:
264,12,95821,1,2,0:0:0:0:
161,136,96196,6,0,P|136:99|47:114,1,125.999996154785,4|0,3:2|3:0,0:0:0:0:
5,196,96946,2,0,P|14:235|25:292,1,83.9999974365235,8|0,0:0|0:0,0:0:0:0:
107,294,97508,2,0,P|100:314|94:337,1,41.9999987182618,8|2,0:0|0:0,0:0:0:0:
184,330,97883,2,0,P|190:350|197:373,1,41.9999987182618,8|0,0:0|3:0,0:0:0:0:
301,263,98446,2,0,P|289:299|279:349,1,83.9999974365235,8|2,0:0|0:0,0:0:0:0:
389,314,99008,1,0,3:0:0:0:
389,314,99196,6,0,B|434:317|431:333|494:335,2,83.9999974365235,0|2|8,3:0|0:0|0:0,0:0:0:0:
245,204,100321,2,0,P|224:148|195:28,1,167.999994873047,2|0,0:0|3:0,0:0:0:0:
356,149,101446,2,0,L|396:160,3,41.9999987182618,8|8|8|8,0:0|0:0|0:0|0:0,0:0:0:0:
344,230,102196,6,0,P|301:231|230:286,1,125.999996154785,4|0,3:2|3:0,0:0:0:0:
217,366,102946,1,8,0:0:0:0:
66,254,103508,2,0,P|80:214|89:172,2,83.9999974365235,8|8|0,0:0|0:0|0:0,0:0:0:0:
12,327,104446,2,0,L|101:354,1,83.9999974365235,8|0,0:0|0:0,0:0:0:0:
223,204,105196,6,0,P|214:184|208:165,1,41.9999987182618,2|0,3:2|0:0,0:0:0:0:
238,56,105571,1,2,0:0:0:0:
166,20,105758,1,0,3:0:0:0:
109,72,105946,2,0,P|89:81|70:87,1,41.9999987182618,8|0,0:0|0:0,0:0:0:0:
44,171,106321,2,0,P|63:179|83:186,1,41.9999987182618,2|8,0:0|0:0,0:0:0:0:
133,255,106696,2,0,L|119:307,2,41.9999987182618,0|8|0,0:0|0:0|3:0,0:0:0:0:
289,146,107446,2,0,P|344:161|405:209,1,125.999996154785,8|8,0:0|0:0,0:0:0:0:
465,148,108196,6,0,L|446:63,1,83.9999974365235,4|2,3:2|0:0,0:0:0:0:
369,47,108758,2,0,L|379:-7,1,41.9999987182618,0|8,3:0|0:0,0:0:0:0:
272,126,109321,1,2,0:0:0:0:
218,69,109508,2,0,P|180:50|141:20,1,83.9999974365235,8|8,0:0|0:0,0:0:0:0:
100,100,110071,2,0,P|80:106|58:118,1,41.9999987182618,0|2,3:0|0:0,0:0:0:0:
106,198,110446,2,0,L|81:288,1,83.9999974365235,8|0,0:0|0:0,0:0:0:0:
157,317,111008,2,0,L|162:363,1,41.9999987182618,0|0,3:0|3:0,0:0:0:0:
252,274,111383,5,0,0:0:0:0:
322,329,111571,2,0,P|361:343|407:363,1,83.9999974365235,2|8,0:0|0:0,0:0:0:0:
497,278,112133,2,0,P|481:239|465:192,1,83.9999974365235,2|2,0:0|0:0,0:0:0:0:
328,127,112883,1,2,0:0:0:0:
383,52,113071,2,0,P|422:38|461:22,1,83.9999974365235,2|2,0:0|0:0,0:0:0:0:
251,167,114196,6,0,P|178:166|98:102,1,168,4|0,3:2|3:0,0:0:0:0:
36,192,114946,2,0,P|28:247|14:311,1,112,8|0,0:0|0:0,0:0:0:0:
86,363,115508,2,0,P|111:348|137:341,1,56,8|0,0:0|0:0,0:0:0:0:
172,263,115883,2,0,P|199:271|222:286,1,56,8|0,0:0|3:0,0:0:0:0:
323,365,116258,1,0,0:0:0:0:
376,302,116446,2,0,P|434:290|486:269,1,112,8|0,0:0|0:0,0:0:0:0:
462,168,117008,2,0,P|486:181|512:191,1,56,2|0,0:0|3:0,0:0:0:0:
417,64,117383,5,2,0:0:0:0:
349,119,117571,2,0,B|300:113|292:149|233:139,1,112,2|8,0:0|0:0,0:0:0:0:
117,60,118133,2,0,P|133:100|145:173,1,112,2|8,0:0|0:0,0:0:0:0:
78,227,118696,2,0,P|54:221|17:201,1,56,2|8,0:0|0:0,0:0:0:0:
127,318,119071,1,0,3:0:0:0:
127,318,119258,1,2,0:0:0:0:
182,262,119446,2,0,P|207:246|239:235,1,56,8|0,0:0|0:0,0:0:0:0:
315,302,119821,2,0,L|301:364,1,56,2|8,0:0|0:0,0:0:0:0:
392,256,120196,6,0,P|431:240|451:175,1,112,4|2,3:2|0:0,0:0:0:0:
512,115,120758,2,0,L|492:55,1,56,0|8,3:0|0:0,0:0:0:0:
339,135,121321,1,0,0:0:0:0:
265,162,121508,1,8,0:0:0:0:
200,105,121696,2,0,P|153:88|89:64,1,112,2|0,0:0|3:0,0:0:0:0:
113,174,122258,1,2,0:0:0:0:
113,174,122446,2,0,P|60:192|3:216,1,112,8|2,0:0|0:0,0:0:0:0:
229,290,123196,6,0,B|298:307|298:307|315:333|315:333|386:348,1,168,4|0,3:2|3:0,0:0:0:0:
479,275,123946,2,0,P|464:231|453:166,1,112,8|2,0:0|0:0,0:0:0:0:
437,71,124508,1,8,0:0:0:0:
379,124,124696,2,0,P|355:109|323:95,1,56,2|8,0:0|0:0,0:0:0:0:
264,186,125071,1,0,3:0:0:0:
191,133,125258,1,2,0:0:0:0:
158,205,125446,2,0,P|130:212|98:227,1,56,8|0,0:0|0:0,0:0:0:0:
55,288,125821,1,8,0:0:0:0:
55,288,126008,1,8,0:0:0:0:
0,190,126196,5,4,3:2:0:0:
208,19,126946,2,0,P|289:56|368:75,1,168,8|8,0:0|0:0,0:0:0:0:
454,139,127696,2,0,P|460:165|471:200,1,56,2|8,0:0|0:0,0:0:0:0:
369,223,128071,1,0,3:0:0:0:
369,223,128258,2,0,P|363:249|352:284,1,56,2|8,0:0|0:0,0:0:0:0:
225,354,128633,1,0,0:0:0:0:
195,277,128821,2,0,P|146:248|103:213,1,112,2|4,0:0|3:2,0:0:0:0:
3,87,129571,6,0,P|53:76|114:56,1,112,2|8,0:0|0:0,0:0:0:0:
195,132,130133,2,0,P|233:104|219:29,1,112,2|8,0:0|0:0,0:0:0:0:
326,87,130696,2,0,P|348:101|380:113,1,56,2|8,0:0|0:0,0:0:0:0:
492,187,131071,1,0,3:0:0:0:
425,230,131258,1,0,0:0:0:0:
470,303,131446,2,0,P|473:333|481:363,1,56,8|2,0:0|0:0,0:0:0:0:
377,345,131821,2,0,P|327:323|261:302,1,112,2|4,0:0|3:2,0:0:0:0:
76,343,132571,5,2,0:0:0:0:
76,343,132758,1,0,3:0:0:0:
131,270,132946,2,0,B|156:179|87:193|122:107,1,168,8|8,0:0|0:0,0:0:0:0:
155,24,133696,2,0,P|128:13|98:-3,1,56,2|8,0:0|0:0,0:0:0:0:
34,42,134071,1,0,3:0:0:0:
140,134,134446,2,0,P|186:106|250:96,1,112,8|2,0:0|0:0,0:0:0:0:
324,69,135008,6,0,P|318:43|297:21,1,56,0|4,0:0|3:2,0:0:0:0:
304,198,135571,2,0,P|296:222|290:264,1,56,2|0,0:0|3:0,0:0:0:0:
360,315,135946,1,8,0:0:0:0:
360,315,136133,2,0,P|388:308|419:297,2,56,2|0|8,0:0|0:0|0:0,0:0:0:0:
271,364,136696,2,0,P|235:348|152:332,1,112,2|0,0:0|3:0,0:0:0:0:
70,265,137258,2,0,P|80:240|87:209,1,56,2|8,0:0|0:0,0:0:0:0:
205,164,137633,1,2,0:0:0:0:
238,92,137821,2,0,P|231:63|211:36,1,56,8|8,0:0|0:0,0:0:0:0:
296,195,138196,6,0,P|338:229|451:253,1,168,4|0,3:2|3:0,0:0:0:0:
299,322,138946,2,0,P|252:333|196:367,1,112,8|2,0:0|0:0,0:0:0:0:
273,246,139508,2,0,P|287:219|299:183,1,56,8|0,0:0|0:0,0:0:0:0:
395,160,139883,1,8,0:0:0:0:
395,160,140071,2,0,P|381:133|369:97,1,56,0|0,3:0|0:0,0:0:0:0:
419,25,140446,1,8,0:0:0:0:
410,13,140821,6,0,L|356:28,1,56,2|2,0:0|0:0,0:0:0:0:
285,104,141196,6,0,B|197:106|228:17|123:28,1,168,2|0,3:2|3:0,0:0:0:0:
70,79,141946,1,8,0:0:0:0:
126,139,142133,2,0,P|132:165|144:198,1,56,0|2,0:0|0:0,0:0:0:0:
72,272,142508,1,8,0:0:0:0:
127,331,142696,2,0,P|173:341|233:370,1,112,2|0,0:0|3:0,0:0:0:0:
289,222,143258,2,0,P|239:247|184:259,1,112,2|0,0:0|0:0,0:0:0:0:
311,322,143821,2,0,P|336:328|364:340,1,56,2|10,0:0|0:0,0:0:0:0:
493,384,144196,6,0,P|485:335|435:220,1,168,4|0,3:2|3:0,0:0:0:0:
487,122,144946,2,0,L|513:12,1,112,8|2,0:0|0:0,0:0:0:0:
411,69,145508,2,0,P|384:56|357:49,1,56,8|0,0:0|0:0,0:0:0:0:
288,141,145883,1,8,0:0:0:0:
219,99,146071,2,0,P|192:106|166:118,1,56,0|2,3:0|0:0,0:0:0:0:
65,201,146446,2,0,P|35:161|94:62,1,168,8|0,0:0|3:0,0:0:0:0:
166,25,147196,1,4,3:2:0:0:
302,62,149446,6,0,P|311:86|321:125,1,56,8|8,3:2|3:2,0:0:0:0:
197,172,149821,2,0,P|188:196|178:235,1,56,8|8,3:2|3:2,0:0:0:0:
63,306,150196,6,0,P|146:333|224:372,1,168,4|0,3:2|3:0,0:0:0:0:
326,325,150946,2,0,P|337:288|280:241,1,112,8|2,0:0|0:0,0:0:0:0:
390,197,151508,2,0,P|413:173|438:157,1,56,8|0,0:0|0:0,0:0:0:0:
330,119,151883,1,8,0:0:0:0:
330,119,152071,2,0,P|327:85|332:56,1,56,0|2,3:0|0:0,0:0:0:0:
224,145,152446,1,8,0:0:0:0:
212,152,152821,6,0,P|190:134|157:122,1,56,2|8,0:0|0:0,0:0:0:0:
63,39,153196,6,0,P|53:109|18:200,1,168,2|0,3:2|3:0,0:0:0:0:
39,279,153946,1,8,0:0:0:0:
223,366,154321,1,2,0:0:0:0:
288,301,154508,2,0,P|336:283|395:255,2,112,8|8|2,0:0|0:0|0:0,0:0:0:0:
203,372,155446,2,0,P|154:345|108:301,1,112,8|2,0:0|0:0,0:0:0:0:
106,226,156008,1,8,0:0:0:0:
19,153,156196,6,0,P|74:121|155:52,1,168,4|0,3:2|3:0,0:0:0:0:
218,125,156946,2,0,P|240:138|282:152,1,56,8|0,0:0|0:0,0:0:0:0:
346,104,157321,1,2,0:0:0:0:
346,104,157508,2,0,L|327:51,1,56,8|0,0:0|0:0,0:0:0:0:
451,9,157883,2,0,L|432:62,1,56,8|0,0:0|3:0,0:0:0:0:
480,173,158258,1,2,0:0:0:0:
413,223,158446,2,0,P|428:276|441:336,1,112,8|0,0:0|0:0,0:0:0:0:
331,281,159008,5,0,3:0:0:0:
331,281,159196,2,0,B|247:257|249:327|155:306,2,168,2|2|2,3:2|3:2|3:2,0:0:0:0:
454,81,160883,1,8,0:0:0:0:
399,23,161071,2,0,P|351:15|300:51,1,112,0|8,3:0|0:0,0:0:0:0:
240,105,161633,1,8,0:0:0:0:
159,43,161821,2,0,P|131:32|102:19,1,56,8|8,0:0|0:0,0:0:0:0:
204,129,162196,6,0,P|168:187|135:282,1,168,4|0,3:2|3:0,0:0:0:0:
193,360,162946,1,8,0:0:0:0:
324,274,163321,2,0,P|345:289|385:306,1,56,2|8,0:0|0:0,0:0:0:0:
461,230,163696,2,0,P|455:202|441:177,1,56,2|8,0:0|0:0,0:0:0:0:
362,143,164071,1,0,3:0:0:0:
362,143,164258,2,0,P|335:153|312:171,1,56,2|8,0:0|0:0,0:0:0:0:
232,66,164633,1,0,0:0:0:0:
166,111,164821,2,0,P|140:96|106:86,1,56,2|2,0:0|0:0,0:0:0:0:
21,163,165196,6,0,P|41:222|63:336,1,168,4|0,3:2|3:0,0:0:0:0:
152,261,165946,2,0,P|205:262|232:317,1,112,8|2,0:0|0:0,0:0:0:0:
280,208,166508,2,0,P|304:192|329:183,1,56,8|0,0:0|0:0,0:0:0:0:
396,297,166883,1,8,0:0:0:0:
441,236,167071,2,0,P|467:245|490:261,1,56,0|0,3:0|0:0,0:0:0:0:
415,162,167446,1,8,0:0:0:0:
423,0,167821,2,0,P|402:18|364:32,1,56,2|8,0:0|0:0,0:0:0:0:
310,88,168196,6,0,B|249:77|249:77|204:99|204:99|147:91,1,168,4|0,3:2|3:0,0:0:0:0:
85,30,168946,1,8,0:0:0:0:
151,181,169321,2,0,P|142:207|136:235,1,56,2|8,0:0|0:0,0:0:0:0:
219,354,169696,2,0,P|215:323|207:296,1,56,2|8,0:0|0:0,0:0:0:0:
302,216,170071,1,0,3:0:0:0:
302,216,170258,2,0,P|294:242|291:270,1,56,2|8,0:0|0:0,0:0:0:0:
351,355,170633,6,0,B|433:324|429:394|521:371,1,168,2|4,0:0|3:2,0:0:0:0:
412,159,171758,2,0,B|410:98|446:46|446:46|424:61|392:72,1,168,4|4,3:2|3:2,0:0:0:0:
35,239,174196,6,0,P|102:262|194:344,1,188.999994232178,4|0,3:2|3:0,0:0:0:0:
249,189,174946,2,0,P|181:253|93:288,1,188.999994232178,8|8,0:0|0:0,0:0:0:0:
270,301,175696,2,0,P|299:313|329:334,1,62.9999980773926,2|8,0:0|0:0,0:0:0:0:
430,237,176071,1,0,3:0:0:0:
359,200,176258,2,0,P|378:174|406:151,1,62.9999980773926,2|8,0:0|0:0,0:0:0:0:
327,27,176633,1,0,0:0:0:0:
296,98,176821,2,0,P|247:107|168:139,1,125.999996154785,2|0,0:0|3:2,0:0:0:0:
83,60,177383,6,0,P|92:32|99:-8,2,62.9999980773926,0|2|0,0:0|0:0|3:0,0:0:0:0:
20,138,177946,2,0,B|35:196|2:199|15:264,1,125.999996154785,8|2,0:0|0:0,0:0:0:0:
58,356,178508,2,0,P|34:375|0:385,1,62.9999980773926,8|0,0:0|0:0,0:0:0:0:
153,279,178883,2,0,P|123:272|93:252,1,62.9999980773926,8|0,0:0|3:0,0:0:0:0:
261,250,179258,1,2,0:0:0:0:
300,181,179446,2,0,P|321:128|373:68,1,125.999996154785,8|2,0:0|0:0,0:0:0:0:
450,112,180008,1,8,0:0:0:0:
504,38,180196,5,4,3:2:0:0:
282,7,180571,2,0,P|251:19|214:32,1,62.9999980773926,2|0,0:0|3:0,0:0:0:0:
135,123,180946,2,0,B|161:53|118:59|150:-11,1,125.999996154785,8|2,0:0|0:0,0:0:0:0:
235,167,181508,1,8,0:0:0:0:
308,132,181696,2,0,P|354:156|426:183,1,125.999996154785,2|0,0:0|3:0,0:0:0:0:
275,278,182258,2,0,P|243:287|215:301,1,62.9999980773926,0|8,0:0|0:0,0:0:0:0:
366,367,182633,1,0,0:0:0:0:
432,330,182821,2,0,P|426:299|416:267,1,62.9999980773926,2|0,0:0|3:0,0:0:0:0:
512,141,183196,6,0,P|455:149|329:210,1,188.999994232178,4|0,3:2|3:0,0:0:0:0:
275,280,183946,2,0,P|227:285|211:212,1,125.999996154785,8|2,0:0|0:0,0:0:0:0:
186,118,184508,1,8,0:0:0:0:
106,151,184696,2,0,P|75:132|43:121,1,62.9999980773926,2|8,0:0|0:0,0:0:0:0:
156,35,185071,1,0,3:0:0:0:
229,4,185258,1,2,0:0:0:0:
307,59,185446,2,0,P|334:45|367:37,1,62.9999980773926,8|2,0:0|0:0,0:0:0:0:
469,144,185821,1,8,0:0:0:0:
381,188,186008,1,8,0:0:0:0:
446,252,186196,6,0,P|420:291|397:368,1,125.999996154785,4|0,3:2|0:0,0:0:0:0:
176,191,186946,2,0,P|202:230|225:307,1,125.999996154785,8|2,0:0|0:0,0:0:0:0:
275,174,187508,2,0,P|299:154|336:138,1,62.9999980773926,8|0,0:0|0:0,0:0:0:0:
165,110,187883,1,8,0:0:0:0:
165,110,188071,2,0,P|168:79|182:41,1,62.9999980773926,0|0,3:0|0:0,0:0:0:0:
70,203,188446,2,0,P|42:169|11:91,1,125.999996154785,8|2,0:0|0:0,0:0:0:0:
14,260,189008,2,0,P|5:294|-1:327,1,62.9999980773926,2|4,0:0|3:2,0:0:0:0:
261,376,189571,6,0,P|307:341|394:336,1,125.999996154785,2|8,0:0|0:0,0:0:0:0:
229,244,190133,2,0,P|183:209|96:204,1,125.999996154785,2|8,0:0|0:0,0:0:0:0:
291,129,190696,2,0,P|316:112|354:104,1,62.9999980773926,2|8,0:0|0:0,0:0:0:0:
230,39,191071,1,0,3:0:0:0:
230,39,191258,1,2,0:0:0:0:
145,123,191446,2,0,P|127:65|95:8,1,125.999996154785,8|2,0:0|0:0,0:0:0:0:
28,165,192008,1,2,0:0:0:0:
108,230,192196,6,0,B|210:209|179:308|296:280,1,188.999994232178,4|0,3:2|3:0,0:0:0:0:
381,351,192946,2,0,B|378:311|398:274|398:274|377:258|358:226,1,125.999996154785,8|0,0:0|0:0,0:0:0:0:
442,182,193508,2,0,P|460:153|491:137,1,62.9999980773926,8|0,0:0|0:0,0:0:0:0:
335,168,193883,2,0,P|324:135|330:101,1,62.9999980773926,8|0,0:0|3:0,0:0:0:0:
387,42,194258,1,0,0:0:0:0:
255,77,194446,2,0,P|211:61|146:17,1,125.999996154785,8|2,0:0|0:0,0:0:0:0:
6,235,195196,6,0,P|58:200|190:164,1,188.999994232178,4|0,3:2|3:0,0:0:0:0:
258,265,195946,2,0,P|243:293|230:334,1,62.9999980773926,8|2,0:0|0:0,0:0:0:0:
347,326,196321,1,2,0:0:0:0:
347,326,196508,1,8,0:0:0:0:
347,326,196696,2,0,P|360:354|379:381,1,62.9999980773926,2|8,0:0|0:0,0:0:0:0:
423,281,197071,2,0,P|457:283|491:273,1,62.9999980773926,0|2,3:0|0:0,0:0:0:0:
387,172,197446,2,0,P|409:150|427:115,1,62.9999980773926,8|2,0:0|0:0,0:0:0:0:
262,56,197821,2,0,P|249:23|227:-6,1,62.9999980773926,8|8,0:0|0:0,0:0:0:0:
82,128,198196,6,0,P|70:192|33:320,1,188.999994232178,4|0,3:2|3:0,0:0:0:0:
184,229,198946,2,0,B|286:211|266:289|375:258,1,188.999994232178,8|8,0:0|0:0,0:0:0:0:
449,191,199696,1,0,0:0:0:0:
449,191,199883,2,0,P|455:161|470:131,1,62.9999980773926,8|0,0:0|3:0,0:0:0:0:
420,14,200258,1,0,0:0:0:0:
383,101,200446,2,0,P|335:109|259:139,1,125.999996154785,8|2,0:0|0:0,0:0:0:0:
59,254,201196,6,0,P|32:207|98:99,1,188.999994232178,4|0,3:2|3:0,0:0:0:0:
197,22,201946,2,0,B|187:72|187:72|192:95|192:95|178:150,1,125.999996154785,8|2,0:0|0:0,0:0:0:0:
223,228,202508,1,8,0:0:0:0:
152,270,202696,2,0,P|138:301|118:329,1,62.9999980773926,2|8,0:0|0:0,0:0:0:0:
221,313,203071,2,0,P|231:345|235:379,1,62.9999980773926,0|2,3:0|0:0,0:0:0:0:
299,254,203446,2,0,P|342:268|410:310,1,125.999996154785,8|2,0:0|0:0,0:0:0:0:
404,204,204008,1,8,0:0:0:0:
239,197,204196,6,0,P|244:129|321:18,1,188.999994232178,4|0,3:2|3:0,0:0:0:0:
378,128,204946,1,8,0:0:0:0:
201,22,205321,2,0,P|172:37|134:49,1,62.9999980773926,2|8,0:0|0:0,0:0:0:0:
40,127,205696,1,0,0:0:0:0:
117,167,205883,2,0,P|133:225|156:291,1,125.999996154785,8|0,0:0|0:0,0:0:0:0:
68,376,206446,1,8,0:0:0:0:
231,304,206821,2,0,P|259:314|291:331,1,62.9999980773926,2|0,0:0|3:0,0:0:0:0:
347,384,207196,5,4,3:2:0:0:
256,192,207571,12,4,210196,0:0:0:0:
256,192,211321,6,0,P|261:170|266:144,1,35,2|0,0:0|0:0,0:0:0:0:
246,86,211696,1,2,0:0:0:0:
193,242,213196,2,0,P|145:256|88:280,2,105,2|0|2,0:0|0:0|0:0,0:0:0:0:
352,60,215821,2,0,P|335:57|319:51,1,35
258,12,216196,5,2,0:0:0:0:
193,51,216946,2,0,P|174:58|152:60,1,35,2|0,0:0|0:0,0:0:0:0:
85,66,217321,2,0,P|65:61|45:51,1,35,2|0,0:0|0:0,0:0:0:0:
0,1,217696,1,2,0:0:0:0:
0,1,218258,1,0,0:0:0:0:
150,126,219008,1,2,0:0:0:0:
85,169,219196,6,0,P|75:215|53:275,1,105,2|2,0:0|0:0,0:0:0:0:
256,192,220321,1,2,0:0:0:0:
256,192,220508,12,0,222196,0:0:0:0:
