osu file format v14

[General]
AudioFilename: audio.mp3
AudioLeadIn: 0
PreviewTime: 32209
Countdown: 0
SampleSet: Soft
StackLeniency: 0.7
Mode: 2
LetterboxInBreaks: 0
WidescreenStoryboard: 1

[Editor]
DistanceSpacing: 2.9
BeatDivisor: 4
GridSize: 32
TimelineZoom: 1.8

[Metadata]
Title:Big Time Rush (TV Size)
TitleUnicode:Big Time Rush (TV Size)
Artist:Big Time Rush
ArtistUnicode:Big Time Rush
Creator:SirMirai
Version:Salad
Source:Big Time Rush
Tags:afb english pop SnowDrive- autofanboy alienflybot btr opening theme nickelodeon tv show op short ver
BeatmapID:2553931
BeatmapSetID:1228217

[Difficulty]
HPDrainRate:4
CircleSize:3.4
OverallDifficulty:7
ApproachRate:7
SliderMultiplier:1.55
SliderTickRate:1

[Events]
//Background and Video events
0,0,"Big Time Rush.png",0,0
//Break Periods
//Storyboard Layer 0 (Background)
//Storyboard Layer 1 (Fail)
//Storyboard Layer 2 (Pass)
//Storyboard Layer 3 (Foreground)
//Storyboard Layer 4 (Overlay)
//Storyboard Sound Samples

[TimingPoints]
2457,495.867768595041,4,2,1,60,1,0
28242,-100,4,2,1,50,0,0
31713,-100,4,2,1,60,0,0
32209,-100,4,2,1,80,0,1
46093,-100,4,2,1,50,0,0
48076,-100,4,2,1,80,0,0

[Colours]
Combo1 : 152,201,241
Combo2 : 153,156,22
Combo3 : 21,86,238
Combo4 : 160,37,50

[HitObjects]
289,296,2456,5,10,3:2:0:0:
382,199,2704,1,8,3:0:0:0:
382,199,2952,1,10,3:2:0:0:
289,296,3200,1,8,3:0:0:0:
172,289,3448,5,10,3:2:0:0:
79,192,3696,1,8,0:0:0:0:
79,192,3944,1,10,3:2:0:0:
172,192,4192,1,8,0:0:0:0:
396,195,4440,6,0,L|500:191,2,77.5,6|0|10,3:2|0:0|0:0,0:0:0:0:
178,163,5432,2,0,L|172:65,1,77.5,2|0,3:2|3:0,0:0:0:0:
77,132,5928,2,0,L|-6:131,1,77.5,10|8,0:0|3:0,0:0:0:0:
224,140,6423,5,2,3:2:0:0:
326,137,6671,1,0,3:0:0:0:
326,137,6919,1,10,0:0:0:0:
224,140,7167,1,2,0:0:0:0:
108,133,7415,2,0,L|1:128,2,77.5,2|2|10,3:2|0:0|0:0,0:0:0:0:
209,130,8159,1,2,0:0:0:0:
434,123,8407,6,0,P|460:113|465:0,1,155,2|10,3:2|0:0,0:0:0:0:
390,46,9151,1,0,0:0:0:0:
175,35,9399,2,0,P|83:52|79:117,1,155,10|10,3:2|0:0,0:0:0:0:
160,118,10142,1,8,3:0:0:0:
384,114,10390,6,0,L|470:95,1,77.5,2|0,3:2|0:0,0:0:0:0:
343,141,10886,2,0,L|257:122,1,77.5,10|8,0:0|3:0,0:0:0:0:
158,116,11382,1,10,3:2:0:0:
73,117,11630,1,8,3:0:0:0:
73,117,11878,1,10,0:0:0:0:
158,116,12126,1,10,0:0:0:0:
392,133,12374,6,0,B|391:51|391:51|297:46,1,155,2|10,3:2|0:0,0:0:0:0:
224,47,13118,1,0,0:0:0:0:
130,45,13366,2,0,L|29:46,2,77.5,2|8|10,3:2|3:0|0:0,0:0:0:0:
503,34,14357,6,0,L|504:136,1,77.5,2|0,3:2|3:0,0:0:0:0:
393,127,14853,2,0,L|294:127,1,77.5,10|2,0:0|0:0,0:0:0:0:
229,135,15349,2,0,L|115:137,2,77.5,2|8|10,3:2|3:0|0:0,0:0:0:0:
151,136,16093,1,2,0:0:0:0:
375,130,16341,6,0,P|423:70|356:27,1,155,2|10,3:2|0:0,0:0:0:0:
291,43,17085,1,0,0:0:0:0:
66,118,17333,2,0,L|220:129,1,155,2|10,3:2|0:0,0:0:0:0:
340,136,18076,1,8,3:0:0:0:
115,128,18324,6,0,L|99:32,1,77.5,2|2,3:2|3:2,0:0:0:0:
190,41,18820,2,0,L|290:42,1,77.5,8|8,0:0|3:0,0:0:0:0:
369,50,19316,1,0,3:0:0:0:
447,47,19564,1,8,3:0:0:0:
447,47,19812,1,8,0:0:0:0:
369,50,20060,1,0,3:0:0:0:
144,39,20308,6,0,P|93:85|147:127,1,155,6|10,3:2|0:0,0:0:0:0:
345,33,21299,2,0,L|509:25,1,155,2|10,3:2|0:0,0:0:0:0:
410,52,22043,1,8,3:0:0:0:
185,57,22291,6,0,L|186:143,1,77.5,2|0,3:2|0:0,0:0:0:0:
271,139,22787,2,0,L|269:42,1,77.5,10|2,0:0|0:0,0:0:0:0:
353,211,23283,2,0,P|436:191|421:115,1,155,2|10,3:2|0:0,0:0:0:0:
325,88,24027,1,2,0:0:0:0:
100,100,24275,6,0,P|40:74|91:14,1,155,2|10,3:2|0:0,0:0:0:0:
189,41,25018,1,0,0:0:0:0:
414,42,25266,2,0,P|470:92|406:124,1,155,2|10,3:2|0:0,0:0:0:0:
341,129,26010,1,8,3:0:0:0:
116,76,26258,6,0,L|16:69,1,77.5,2|0,3:2|0:0,0:0:0:0:
148,130,26754,2,0,L|248:123,1,77.5,10|2,0:0|0:0,0:0:0:0:
352,136,27250,2,0,P|442:137|475:83,1,155,2|10,3:2|0:0,0:0:0:0:
23,103,28242,6,0,L|118:102,1,77.5,2|0,3:2|0:0,0:0:0:0:
177,102,28737,1,0,3:0:0:0:
100,102,28985,2,0,L|177:102,1,77.5,8|0,3:0|3:0,0:0:0:0:
426,111,29729,1,8,3:0:0:0:
39,110,30225,6,0,L|19:35,1,77.5,0|8,3:0|3:0,0:0:0:0:
111,39,30720,1,0,3:0:0:0:
208,61,30969,2,0,L|302:61,1,77.5,0|8,3:0|3:0,0:0:0:0:
398,58,31465,1,0,3:0:0:0:
477,63,31712,1,8,0:0:0:0:
398,58,31961,1,8,0:0:0:0:
173,64,32209,6,0,P|135:128|168:195,1,155,6|10,3:2|0:0,0:0:0:0:
255,219,32952,1,0,0:0:0:0:
343,213,33200,2,0,L|506:212,1,155,2|10,3:2|0:0,0:0:0:0:
400,208,33944,1,2,0:0:0:0:
152,208,34192,6,0,L|52:205,1,77.5,2|0,3:2|0:0,0:0:0:0:
180,166,34688,2,0,L|269:159,1,77.5,10|0,0:0|0:0,0:0:0:0:
335,156,35184,1,2,3:2:0:0:
492,154,35680,1,10,0:0:0:0:
405,150,35928,1,2,0:0:0:0:
180,157,36176,6,0,L|177:70,1,77.5,2|0,3:2|0:0,0:0:0:0:
266,76,36671,2,0,L|361:76,1,77.5,10|0,0:0|0:0,0:0:0:0:
431,82,37167,1,2,3:2:0:0:
198,74,37663,2,0,L|84:69,1,77.5,10|2,0:0|0:0,0:0:0:0:
345,82,38159,6,0,L|448:74,2,77.5,2|0|10,3:2|0:0|0:0,0:0:0:0:
260,90,38903,1,0,0:0:0:0:
156,95,39151,2,0,L|158:10,1,77.5,2|0,3:2|0:0,0:0:0:0:
241,20,39647,1,10,0:0:0:0:
157,17,39895,1,2,0:0:0:0:
379,38,40142,6,0,L|460:31,1,77.5,6|0,3:2|0:0,0:0:0:0:
354,76,40638,2,0,L|255:69,1,77.5,10|0,0:0|0:0,0:0:0:0:
171,64,41134,1,2,3:2:0:0:
383,47,41630,2,0,L|386:152,1,77.5,10|2,0:0|0:0,0:0:0:0:
160,143,42126,6,0,L|68:151,2,77.5,2|0|10,3:2|0:0|0:0,0:0:0:0:
243,133,42870,1,0,0:0:0:0:
368,146,43118,2,0,P|413:201|352:224,1,155,2|10,3:2|0:0,0:0:0:0:
267,231,43861,1,2,0:0:0:0:
42,242,44109,6,0,L|52:162,1,77.5,2|0,3:2|0:0,0:0:0:0:
134,176,44605,2,0,L|149:94,1,77.5,10|0,0:0|0:0,0:0:0:0:
374,154,45101,2,0,L|459:155,1,77.5,2|0,3:2|0:0,0:0:0:0:
372,147,45597,1,10,0:0:0:0:
294,147,45845,1,2,0:0:0:0:
70,165,46093,5,2,3:2:0:0:
147,165,46341,1,0,0:0:0:0:
224,164,46589,1,0,0:0:0:0:
147,165,46837,1,0,0:0:0:0:
224,164,47085,6,0,L|393:162,1,155,2|2,0:0|0:0,0:0:0:0:
18,163,48076,1,6,3:2:0:0:
