osu file format v14

[General]
AudioFilename: audio.mp3
AudioLeadIn: 0
PreviewTime: 32209
Countdown: 0
SampleSet: Soft
StackLeniency: 0.7
Mode: 2
LetterboxInBreaks: 0
WidescreenStoryboard: 0

[Editor]
DistanceSpacing: 1.1
BeatDivisor: 4
GridSize: 4
TimelineZoom: 1.8

[Metadata]
Title:Big Time Rush (TV Size)
TitleUnicode:Big Time Rush (TV Size)
Artist:Big Time Rush
ArtistUnicode:Big Time Rush
Creator:SirMirai
Version:Cup
Source:Big Time Rush
Tags:afb english pop SnowDrive- autofanboy alienflybot btr opening theme nickelodeon tv show op short ver
BeatmapID:2553929
BeatmapSetID:1228217

[Difficulty]
HPDrainRate:3
CircleSize:3
OverallDifficulty:6
ApproachRate:6
SliderMultiplier:1.45
SliderTickRate:1

[Events]
//Background and Video events
0,0,"Big Time Rush.png",0,0
//Break Periods
//Storyboard Layer 0 (Background)
//Storyboard Layer 1 (Fail)
//Storyboard Layer 2 (Pass)
//Storyboard Layer 3 (Foreground)
//Storyboard Layer 4 (Overlay)
//Storyboard Sound Samples

[TimingPoints]
2457,495.867768595041,4,2,1,60,1,0
28242,-100,4,2,1,50,0,0
31713,-100,4,2,1,60,0,0
32209,-100,4,2,1,80,0,1
46093,-100,4,2,1,50,0,0
48076,-100,4,2,1,80,0,0

[Colours]
Combo1 : 152,201,241
Combo2 : 153,156,22
Combo3 : 21,86,238
Combo4 : 160,37,50

[HitObjects]
132,297,2456,6,0,P|297:222|99:128,1,507.5,10|8,3:2|0:0,0:0:0:0:
195,94,4440,5,6,3:2:0:0:
272,81,4688,1,0,0:0:0:0:
347,71,4936,1,10,0:0:0:0:
199,207,5432,2,0,L|103:212,1,72.5,2|0,3:2|3:0,0:0:0:0:
38,176,5928,2,0,L|23:81,1,72.5,10|8,0:0|3:0,0:0:0:0:
149,104,6423,5,2,3:2:0:0:
302,49,6919,2,0,L|375:46,1,72.5,10|2,0:0|0:0,0:0:0:0:
455,70,7415,2,0,L|470:157,1,72.5,2|2,3:2|0:0,0:0:0:0:
390,182,7911,1,10,0:0:0:0:
172,186,8407,6,0,P|126:143|200:117,1,145,2|10,3:2|0:0,0:0:0:0:
394,152,9399,2,0,L|427:67,1,72.5,10|0,3:2|3:0,0:0:0:0:
304,194,9895,2,0,L|277:126,1,72.5,10|8,0:0|3:0,0:0:0:0:
168,127,10390,5,2,3:2:0:0:
300,78,10886,1,10,0:0:0:0:
155,59,11382,2,0,L|55:55,1,72.5,10|8,3:2|3:0,0:0:0:0:
155,59,11878,2,0,L|227:61,1,72.5,10|10,0:0|0:0,0:0:0:0:
351,61,12374,6,0,P|407:65|436:149,1,145,2|10,3:2|0:0,0:0:0:0:
366,176,13118,1,0,0:0:0:0:
283,181,13366,2,0,P|227:185|207:272,1,145,2|10,3:2|0:0,0:0:0:0:
416,269,14357,6,0,L|452:190,1,72.5,2|0,3:2|3:0,0:0:0:0:
345,236,14853,2,0,L|309:157,1,72.5,10|2,0:0|0:0,0:0:0:0:
222,163,15349,1,2,3:2:0:0:
149,163,15597,1,8,3:0:0:0:
76,159,15845,1,10,0:0:0:0:
293,144,16341,6,0,L|374:86,1,72.5,2|0,3:2|0:0,0:0:0:0:
433,79,16837,1,10,0:0:0:0:
230,69,17333,1,2,3:2:0:0:
433,79,17828,1,10,0:0:0:0:
216,100,18324,6,0,L|129:91,1,72.5,2|2,3:2|3:2,0:0:0:0:
223,102,18820,2,0,L|310:93,1,72.5,8|8,0:0|3:0,0:0:0:0:
391,96,19316,2,0,L|471:93,2,72.5,0|0|8,3:0|3:0|0:0,0:0:0:0:
308,101,20060,1,8,3:0:0:0:
185,115,20308,6,0,P|140:137|74:210,1,145,6|10,3:2|0:0,0:0:0:0:
250,199,21299,2,0,P|295:221|303:327,1,145,2|10,3:2|0:0,0:0:0:0:
140,329,22291,5,2,3:2:0:0:
55,330,22539,1,0,0:0:0:0:
55,330,22787,1,10,0:0:0:0:
140,329,23035,1,2,0:0:0:0:
225,350,23283,2,0,P|290:327|272:247,1,145,2|10,3:2|0:0,0:0:0:0:
38,315,24275,6,0,B|30:276|30:276|93:161,1,145,2|10,3:2|0:0,0:0:0:0:
239,199,25266,2,0,P|158:197|91:195,1,145,2|10,3:2|0:0,0:0:0:0:
356,159,26258,5,2,3:2:0:0:
431,164,26506,1,0,0:0:0:0:
431,164,26754,1,10,0:0:0:0:
356,159,27002,1,2,0:0:0:0:
269,151,27250,6,0,P|239:172|290:262,1,145,2|10,3:2|0:0,0:0:0:0:
256,192,28242,8,8,31713,0:0:0:0:
19,259,32209,6,0,L|18:173,1,72.5,6|0,3:2|0:0,0:0:0:0:
90,185,32704,2,0,L|183:183,1,72.5,10|0,0:0|0:0,0:0:0:0:
264,181,33200,1,2,3:2:0:0:
89,178,33696,1,10,0:0:0:0:
183,174,33944,1,2,0:0:0:0:
291,173,34192,6,0,L|389:174,1,72.5,2|0,3:2|0:0,0:0:0:0:
450,176,34688,1,10,0:0:0:0:
363,180,34936,2,0,P|308:151|345:87,1,145
440,87,35680,1,10,0:0:0:0:
194,69,36176,6,0,L|198:164,1,72.5,2|0,3:2|0:0,0:0:0:0:
110,153,36671,2,0,L|23:152,1,72.5,10|0,0:0|0:0,0:0:0:0:
136,154,37167,1,2,3:2:0:0:
296,161,37663,1,10,0:0:0:0:
374,164,37911,1,2,0:0:0:0:
491,163,38159,6,0,L|491:65,1,72.5,2|0,3:2|0:0,0:0:0:0:
354,55,38903,2,0,L|197:52,1,145
136,47,39647,1,10,0:0:0:0:
381,57,40142,6,0,L|382:129,1,72.5,6|0,3:2|0:0,0:0:0:0:
309,131,40638,2,0,L|216:131,1,72.5,10|0,0:0|0:0,0:0:0:0:
163,132,41134,1,2,3:2:0:0:
20,159,41630,1,10,0:0:0:0:
116,166,41878,1,2,0:0:0:0:
243,162,42126,6,0,L|155:163,1,72.5,2|0,3:2|0:0,0:0:0:0:
97,68,42622,1,10,0:0:0:0:
181,45,42870,2,0,P|230:105|175:115,1,145
97,68,43614,2,0,L|83:160,1,72.5,10|2,0:0|0:0,0:0:0:0:
210,131,44109,6,0,L|220:211,1,72.5,2|0,3:2|0:0,0:0:0:0:
297,221,44605,1,10,0:0:0:0:
218,202,44853,1,0,0:0:0:0:
139,214,45101,1,2,3:2:0:0:
292,205,45597,2,0,L|370:203,1,72.5,10|2,0:0|0:0,0:0:0:0:
240,228,46093,5,2,3:2:0:0:
162,189,46341,1,0,0:0:0:0:
162,101,46589,1,0,0:0:0:0:
214,31,46837,1,0,0:0:0:0:
337,37,47085,6,0,L|504:50,1,145,2|2,0:0|0:0,0:0:0:0:
239,96,48076,1,6,3:2:0:0:
