osu file format v14

[General]
AudioFilename: audio.mp3
AudioLeadIn: 0
PreviewTime: 32209
Countdown: 0
SampleSet: Soft
StackLeniency: 0.7
Mode: 2
LetterboxInBreaks: 0
WidescreenStoryboard: 0

[Editor]
DistanceSpacing: 2.6
BeatDivisor: 4
GridSize: 4
TimelineZoom: 2.2

[Metadata]
Title:Big Time Rush (TV Size)
TitleUnicode:Big Time Rush (TV Size)
Artist:Big Time Rush
ArtistUnicode:Big Time Rush
Creator:SirMirai
Version:AFB's Platter
Source:Big Time Rush
Tags:afb english pop SnowDrive- autofanboy alienflybot btr opening theme nickelodeon tv show op short ver
BeatmapID:2555119
BeatmapSetID:1228217

[Difficulty]
HPDrainRate:5
CircleSize:3.8
OverallDifficulty:8
ApproachRate:8
SliderMultiplier:1.84
SliderTickRate:2

[Events]
//Background and Video events
0,0,"Big Time Rush.png"
//Break Periods
//Storyboard Layer 0 (Background)
//Storyboard Layer 1 (Fail)
//Storyboard Layer 2 (Pass)
//Storyboard Layer 3 (Foreground)
//Storyboard Layer 4 (Overlay)
//Storyboard Sound Samples

[TimingPoints]
2457,495.867768595041,4,2,1,60,1,0
11134,-96.1538461538461,4,2,1,60,0,0
11382,-100,4,2,1,60,0,0
11878,-96.1538461538461,4,2,1,60,0,0
12374,-100,4,2,1,60,0,0
28242,-100,4,2,1,50,0,0
31713,-100,4,2,1,60,0,0
32209,-100,4,2,1,80,0,1
44853,-96.1538461538461,4,2,1,80,0,1
45101,-100,4,2,1,80,0,1
46093,-100,4,2,1,50,0,0
48076,-100,4,2,1,80,0,0

[Colours]
Combo1 : 152,201,241
Combo2 : 153,156,22
Combo3 : 21,86,238
Combo4 : 160,37,50

[HitObjects]
304,312,2456,5,10,3:2:0:0:
348,284,2581,1,8,3:0:0:0:
376,240,2705,1,8,3:0:0:0:
384,192,2829,1,8,3:0:0:0:
376,144,2953,1,10,3:2:0:0:
348,100,3077,1,8,3:0:0:0:
304,72,3201,1,8,3:0:0:0:
256,60,3325,1,8,3:0:0:0:
208,72,3449,5,10,3:2:0:0:
164,100,3573,1,8,0:0:0:0:
136,144,3697,1,8,0:0:0:0:
128,192,3821,1,8,0:0:0:0:
136,240,3945,1,10,3:2:0:0:
164,284,4069,1,8,0:0:0:0:
208,312,4193,1,8,0:0:0:0:
256,324,4316,1,8,0:0:0:0:
408,324,4440,6,0,L|416:232,1,92,6|0,3:2|0:0,0:0:0:0:
308,200,4936,2,0,L|124:200,1,184,10|2,0:0|3:2,0:0:0:0:
232,168,5680,1,0,3:0:0:0:
124,168,5928,2,0,L|116:76,1,92,10|8,0:0|3:0,0:0:0:0:
356,32,6423,5,2,3:2:0:0:
432,60,6671,1,0,3:0:0:0:
464,136,6919,1,10,0:0:0:0:
432,212,7167,1,2,0:0:0:0:
356,240,7415,2,0,L|264:240,2,92,2|2|10,3:2|0:0|0:0,0:0:0:0:
116,272,8159,5,2,0:0:0:0:
224,272,8407,2,0,L|232:180,1,92,2|0,3:2|0:0,0:0:0:0:
124,212,8903,2,0,L|124:120,1,92,10|0,0:0|0:0,0:0:0:0:
16,152,9399,2,0,L|8:60,1,92,10|0,3:2|3:0,0:0:0:0:
248,28,9895,5,10,0:0:0:0:
172,56,10142,1,8,3:0:0:0:
140,132,10390,1,2,3:2:0:0:
172,208,10638,1,0,0:0:0:0:
248,236,10886,1,10,0:0:0:0:
172,272,11134,2,0,L|124:272,1,47.8399997080078,8|0,3:0|0:0,0:0:0:0:
264,304,11382,5,10,3:2:0:0:
312,284,11506,1,0,0:0:0:0:
332,236,11630,1,8,3:0:0:0:
312,188,11754,1,0,0:0:0:0:
264,168,11878,2,0,L|256:120,1,47.8399997080078,10|0,0:0|0:0,0:0:0:0:
396,88,12126,2,0,L|404:40,1,47.8399997080078,10|2,0:0|0:0,0:0:0:0:
264,8,12374,6,0,L|172:8,1,92,2|0,3:2|0:0,0:0:0:0:
280,40,12870,2,0,P|345:84|280:125,1,184,10|2,0:0|3:2,0:0:0:0:
172,124,13614,1,8,3:0:0:0:
280,156,13861,2,0,L|288:248,1,92,10|8,0:0|3:0,0:0:0:0:
48,280,14357,5,2,3:2:0:0:
16,204,14605,1,0,3:0:0:0:
48,128,14853,1,10,0:0:0:0:
124,100,15101,1,2,0:0:0:0:
232,132,15349,2,0,L|240:40,1,92,2|8,3:2|3:0,0:0:0:0:
132,8,15845,1,10,0:0:0:0:
372,8,16093,6,0,L|464:8,2,92,2|2|0,0:0|3:2|0:0,0:0:0:0:
264,40,16837,2,0,L|256:132,1,92,10|0,0:0|0:0,0:0:0:0:
364,164,17333,2,0,L|372:256,1,92,2|8,3:2|3:0,0:0:0:0:
132,288,17828,5,10,0:0:0:0:
208,260,18075,1,8,3:0:0:0:
240,184,18323,1,2,3:2:0:0:
208,108,18571,1,2,3:2:0:0:
132,80,18820,2,0,L|40:80,1,92,8|8,0:0|3:0,0:0:0:0:
280,48,19316,5,0,3:0:0:0:
328,48,19440,1,0,0:0:0:0:
280,48,19564,1,0,3:0:0:0:
172,80,19812,2,0,L|164:172,1,92,8|8,0:0|3:0,0:0:0:0:
472,140,20308,6,0,L|488:324,1,184,6|10,3:2|0:0,0:0:0:0:
380,356,21052,1,0,0:0:0:0:
140,324,21299,2,0,L|324:324,1,184,2|10,3:2|0:0,0:0:0:0:
216,356,22043,1,8,3:0:0:0:
456,324,22291,6,0,L|464:232,1,92,2|0,3:2|0:0,0:0:0:0:
356,264,22787,2,0,L|264:264,1,92,10|2,0:0|0:0,0:0:0:0:
464,204,23283,1,2,3:2:0:0:
496,128,23531,1,8,3:0:0:0:
464,52,23779,1,10,0:0:0:0:
388,24,24027,1,2,0:0:0:0:
72,52,24275,6,0,P|101:136|185:168,1,184,2|10,3:2|0:0,0:0:0:0:
76,200,25018,1,0,0:0:0:0:
316,232,25266,2,0,P|399:264|427:348,1,184,2|10,3:2|0:0,0:0:0:0:
320,348,26010,1,8,3:0:0:0:
80,316,26258,5,2,3:2:0:0:
48,240,26506,1,0,0:0:0:0:
80,164,26754,1,10,0:0:0:0:
156,136,27002,1,2,0:0:0:0:
396,168,27250,1,2,3:2:0:0:
304,168,27498,1,8,3:0:0:0:
212,168,27746,1,10,0:0:0:0:
120,168,27994,1,10,3:2:0:0:
360,204,28242,6,0,P|425:160|359:119,1,184,2|0,3:2|3:0,0:0:0:0:
268,88,28985,2,0,L|452:88,1,184,8|0,3:0|3:0,0:0:0:0:
212,120,29729,2,0,L|204:212,1,92,8|0,3:0|3:0,0:0:0:0:
444,244,30225,5,0,3:0:0:0:
352,244,30473,2,0,L|260:244,1,92,8|0,3:0|3:0,0:0:0:0:
352,276,30969,1,0,3:0:0:0:
428,248,31217,1,8,3:0:0:0:
460,172,31465,1,0,3:0:0:0:
428,96,31713,1,8,0:0:0:0:
352,68,31961,1,8,0:0:0:0:
44,36,32209,6,0,L|36:128,1,92,6|0,3:2|0:0,0:0:0:0:
144,160,32704,2,0,L|236:160,1,92,10|0,0:0|0:0,0:0:0:0:
128,196,33200,2,0,L|36:196,1,92,2|0,3:2|0:0,0:0:0:0:
144,228,33696,2,0,L|152:320,1,92,10|2,0:0|0:0,0:0:0:0:
400,352,34192,6,0,L|408:260,1,92,2|0,3:2|0:0,0:0:0:0:
300,228,34688,1,10,0:0:0:0:
408,228,34936,2,0,P|473:184|408:143,1,184
300,144,35680,1,10,0:0:0:0:
192,144,35928,1,2,0:0:0:0:
440,176,36176,6,0,L|448:84,1,92,2|0,3:2|0:0,0:0:0:0:
340,52,36671,2,0,L|248:52,1,92,10|0,0:0|0:0,0:0:0:0:
140,20,37167,2,0,P|169:104|253:136,1,184,2|10,3:2|0:0,0:0:0:0:
360,136,37911,1,2,0:0:0:0:
120,104,38159,5,2,3:2:0:0:
212,104,38407,2,0,L|304:104,1,92,0|10,0:0|0:0,0:0:0:0:
64,72,38903,2,0,L|56:164,1,92,0|2,0:0|3:2,0:0:0:0:
104,164,39275,1,0,0:0:0:0:
240,196,39399,1,0,0:0:0:0:
232,244,39523,1,0,0:0:0:0:
204,288,39647,1,10,0:0:0:0:
164,316,39771,1,0,0:0:0:0:
116,328,39895,1,2,0:0:0:0:
436,360,40142,6,0,L|444:268,1,92,6|0,3:2|0:0,0:0:0:0:
336,236,40638,2,0,L|244:236,1,92,10|0,0:0|0:0,0:0:0:0:
136,204,41134,2,0,L|128:112,1,92,2|0,3:2|0:0,0:0:0:0:
236,144,41630,2,0,P|264:136|236:60,1,138,10|2,0:0|0:0,0:0:0:0:
96,24,42126,6,0,L|4:24,2,92,2|0|10,3:2|0:0|0:0,0:0:0:0:
204,60,42870,2,0,L|388:60,1,184
280,92,43614,1,10,0:0:0:0:
172,92,43861,1,2,0:0:0:0:
420,124,44109,6,0,L|512:124,2,92,2|0|10,3:2|0:0|0:0,0:0:0:0:
308,160,44853,2,0,L|260:160,1,47.8399997080078
108,192,45101,2,0,L|16:192,2,92,2|0|10,3:2|0:0|0:0,0:0:0:0:
216,224,45845,1,2,0:0:0:0:
464,260,46093,5,2,3:2:0:0:
496,184,46341,1,0,0:0:0:0:
464,108,46589,1,0,0:0:0:0:
388,80,46837,1,0,0:0:0:0:
280,48,47085,2,0,L|464:48,1,184,2|2,0:0|0:0,0:0:0:0:
356,80,47828,1,0,0:0:0:0:
48,112,48076,1,6,3:2:0:0:
