osu file format v14

[General]
AudioFilename: audio.mp3
AudioLeadIn: 0
PreviewTime: 32085
Countdown: 0
SampleSet: Soft
StackLeniency: 0.5
Mode: 0
LetterboxInBreaks: 0
WidescreenStoryboard: 1

[Editor]
DistanceSpacing: 1
BeatDivisor: 4
GridSize: 4
TimelineZoom: 1.3

[Metadata]
Title:Big Time Rush (TV Size)
TitleUnicode:Big Time Rush (TV Size)
Artist:Big Time Rush
ArtistUnicode:Big Time Rush
Creator:HakuYT
Version:Easy
Source:Big Time Rush
Tags:english pop btr opening theme nickelodeon tv show op short ver
BeatmapID:3008956
BeatmapSetID:1445291

[Difficulty]
HPDrainRate:2
CircleSize:2
OverallDifficulty:2
ApproachRate:3
SliderMultiplier:1
SliderTickRate:1

[Events]
//Background and Video events
0,0,"Big Time Rush.png",0,0
Video,4400,"btr_video.mp4"
//Break Periods
//Storyboard Layer 0 (Background)
//Storyboard Layer 1 (Fail)
//Storyboard Layer 2 (Pass)
//Storyboard Layer 3 (Foreground)
//Storyboard Layer 4 (Overlay)
//Storyboard Sound Samples

[TimingPoints]
2457,495.867768595041,4,2,1,40,1,0
2457,-100,4,2,1,40,0,0
3448,-100,4,2,1,50,0,0
3944,-100,4,2,1,60,0,0
4440,-100,4,2,1,70,0,0
20308,-100,4,2,1,75,0,0
28242,-100,4,2,1,70,0,0
32209,-100,4,2,1,80,0,1
46093,-100,4,2,1,60,0,0
48903,-100,4,2,1,5,0,0

[Colours]
Combo1 : 152,201,241
Combo2 : 153,156,22
Combo3 : 21,86,238
Combo4 : 160,37,50

[HitObjects]
453,347,4440,6,0,L|439:207,1,100,6|10,1:2|0:0,0:0:0:0:
394,159,5432,1,2,1:2:0:0:
311,215,5928,1,10,0:0:0:0:
249,136,6423,2,0,P|207:110|142:103,1,100,2|10,1:2|0:0,0:0:0:0:
64,139,7415,2,0,L|45:257,1,100,2|10,1:2|0:0,0:0:0:0:
30,336,8407,5,0,1:2:0:0:
122,297,8903,1,10,0:0:0:0:
212,339,9399,2,0,L|323:348,2,100,2|10|0,1:2|0:0|1:2,0:0:0:0:
122,297,10886,1,8,0:0:0:0:
182,217,11382,2,0,L|197:112,1,100,0|8,1:2|0:0,0:0:0:0:
265,45,12374,6,0,P|312:27|381:33,1,100,2|10,1:2|0:0,0:0:0:0:
446,79,13366,2,0,P|464:126|458:195,1,100,2|10,1:2|0:0,0:0:0:0:
436,271,14357,1,2,1:2:0:0:
488,356,14853,1,10,0:0:0:0:
390,377,15349,2,0,L|289:359,1,100,2|10,1:2|0:0,0:0:0:0:
204,309,16341,6,0,L|103:327,1,100,0|10,1:2|0:0,0:0:0:0:
44,247,17333,2,0,L|31:130,2,100,2|10|0,1:2|0:0|1:2,0:0:0:0:
133,202,18820,1,8,0:0:0:0:
228,172,19316,2,0,L|345:189,1,100,2|2,1:2|1:2,0:0:0:0:
422,156,20308,6,0,P|444:108|430:58,1,100,6|10,1:2|0:0,0:0:0:0:
338,34,21299,2,0,L|221:17,1,100,2|10,1:2|0:0,0:0:0:0:
147,60,22291,1,2,1:2:0:0:
50,33,22787,1,10,0:0:0:0:
18,128,23283,2,0,L|37:244,1,100,2|10,1:2|0:0,0:0:0:0:
118,280,24275,6,0,P|163:252|237:255,1,100,2|10,1:2|0:0,0:0:0:0:
260,162,25266,2,0,P|309:167|350:194,1,100,2|10,1:2|0:0,0:0:0:0:
418,268,26258,2,0,L|400:371,2,100,2|10|2,1:2|0:0|1:2,0:0:0:0:
463,178,27746,1,0,1:2:0:0:
397,102,28242,6,0,P|351:79|277:80,2,100,0|0|0,1:2|1:2|1:2,0:0:0:0:
463,178,29729,1,8,1:2:0:0:
374,225,30225,2,0,L|256:212,1,100,0|0,1:2|1:2,0:0:0:0:
175,202,31217,1,0,1:2:0:0:
89,254,31713,1,0,1:2:0:0:
36,168,32209,6,0,L|19:58,1,100,6|10,1:2|0:2,0:0:0:0:
106,16,33200,2,0,P|148:44|212:46,1,100,2|10,1:2|0:2,0:0:0:0:
275,110,34192,2,0,P|324:104|365:76,1,100,2|8,1:2|0:2,0:0:0:0:
446,18,35184,1,0,1:2:0:0:
489,108,35680,1,8,0:2:0:0:
435,192,36176,6,0,L|425:303,1,100,2|10,1:2|0:2,0:0:0:0:
372,376,37167,1,2,1:2:0:0:
322,289,37663,1,10,0:2:0:0:
254,362,38159,2,0,L|142:340,1,100,2|8,1:2|0:2,0:0:0:0:
131,245,39151,1,0,1:2:0:0:
49,302,39647,1,8,0:2:0:0:
23,205,40142,6,0,L|11:90,1,100,6|10,1:2|0:2,0:0:0:0:
100,57,41134,2,0,P|70:19|-4:9,2,100,2|10|2,1:2|0:2|1:2,0:0:0:0:
159,137,42622,1,8,0:2:0:0:
256,159,43118,2,0,L|373:147,1,100,0|8,1:2|0:2,0:0:0:0:
414,63,44109,6,0,L|314:52,1,100,2|10,1:2|0:2,0:0:0:0:
217,32,45101,1,2,1:2:0:0:
117,19,45597,1,10,0:2:0:0:
17,5,46093,2,0,L|2:126,1,100,2|2,0:0|0:2,0:0:0:0:
65,183,47085,2,0,L|80:304,1,100,2|2,0:0|0:0,0:0:0:0:
149,351,48076,1,4,1:2:0:0:
