osu file format v14

[General]
AudioFilename: audio.mp3
AudioLeadIn: 0
PreviewTime: -1
Countdown: 1
SampleSet: Normal
StackLeniency: 0.7
Mode: 3
LetterboxInBreaks: 0
SpecialStyle: 0
WidescreenStoryboard: 0

[Editor]
DistanceSpacing: 1.2
BeatDivisor: 1
GridSize: 4
TimelineZoom: 1.9

[Metadata]
Title:Mans Not Hot
TitleUnicode:Mans Not Hot
Artist:Big Shaq
ArtistUnicode:Big Shaq
Creator:x_Papi_x
Version:Normal
Source:
Tags:
BeatmapID:1493672
BeatmapSetID:706365

[Difficulty]
HPDrainRate:5
CircleSize:4
OverallDifficulty:5
ApproachRate:5
SliderMultiplier:1.4
SliderTickRate:1

[Events]
//Background and Video events
Video,0,"BIG SHAQ - MANS NOT HOT (MUSIC VIDEO).mp4"
//Break Periods
2,164199,179244
2,233311,242577
//Storyboard Layer 0 (Background)
//Storyboard Layer 1 (Fail)
//Storyboard Layer 2 (Pass)
//Storyboard Layer 3 (Foreground)
//Storyboard Sound Samples

[TimingPoints]
0,444.444444444444,4,1,0,100,1,0

[HitObjects]
448,192,50000,5,0,0:0:0:0:
320,192,50888,1,0,0:0:0:0:
192,192,51777,1,0,0:0:0:0:
320,192,52666,1,0,0:0:0:0:
320,192,54666,1,0,0:0:0:0:
192,192,54888,1,0,0:0:0:0:
320,192,55333,1,0,0:0:0:0:
448,192,55444,1,0,0:0:0:0:
448,192,55555,1,0,0:0:0:0:
320,192,55666,1,0,0:0:0:0:
448,192,55888,1,0,0:0:0:0:
320,192,56222,1,0,0:0:0:0:
320,192,56444,1,0,0:0:0:0:
320,192,56666,1,0,0:0:0:0:
448,192,57111,1,0,0:0:0:0:
64,192,57111,1,0,0:0:0:0:
64,192,58000,1,0,0:0:0:0:
448,192,58222,1,0,0:0:0:0:
320,192,58333,1,0,0:0:0:0:
448,192,58444,1,0,0:0:0:0:
448,192,59333,1,0,0:0:0:0:
64,192,59777,1,0,0:0:0:0:
64,192,60111,1,0,0:0:0:0:
64,192,60222,1,0,0:0:0:0:
64,192,60333,1,0,0:0:0:0:
448,192,60666,1,0,0:0:0:0:
448,192,61555,1,0,0:0:0:0:
64,192,61666,1,0,0:0:0:0:
192,192,61777,1,0,0:0:0:0:
64,192,61888,1,0,0:0:0:0:
192,192,62111,1,0,0:0:0:0:
448,192,62888,1,0,0:0:0:0:
64,192,63333,1,0,0:0:0:0:
64,192,63777,1,0,0:0:0:0:
448,192,63777,1,0,0:0:0:0:
64,192,64222,128,0,64888:0:0:0:0:
320,192,65111,1,0,0:0:0:0:
192,192,65333,1,0,0:0:0:0:
320,192,65555,1,0,0:0:0:0:
192,192,65777,1,0,0:0:0:0:
320,192,66000,1,0,0:0:0:0:
448,192,66444,1,0,0:0:0:0:
320,192,66666,1,0,0:0:0:0:
192,192,66888,1,0,0:0:0:0:
64,192,67111,1,0,0:0:0:0:
192,192,67333,1,0,0:0:0:0:
320,192,67555,1,0,0:0:0:0:
448,192,67777,128,0,68222:0:0:0:0:
448,192,68666,1,0,0:0:0:0:
320,192,68777,1,0,0:0:0:0:
192,192,68888,1,0,0:0:0:0:
64,192,69111,1,0,0:0:0:0:
192,192,69333,1,0,0:0:0:0:
320,192,69444,1,0,0:0:0:0:
448,192,69555,1,0,0:0:0:0:
448,192,70444,1,0,0:0:0:0:
448,192,70666,1,0,0:0:0:0:
320,192,70888,1,0,0:0:0:0:
64,192,71333,1,0,0:0:0:0:
448,192,71333,1,0,0:0:0:0:
448,192,72222,1,0,0:0:0:0:
320,192,72444,1,0,0:0:0:0:
192,192,72666,1,0,0:0:0:0:
64,192,72888,1,0,0:0:0:0:
192,192,73000,1,0,0:0:0:0:
320,192,73111,1,0,0:0:0:0:
320,192,73777,1,0,0:0:0:0:
448,192,74000,1,0,0:0:0:0:
320,192,74111,1,0,0:0:0:0:
192,192,74222,1,0,0:0:0:0:
64,192,74444,1,0,0:0:0:0:
192,192,74666,128,0,74888:0:0:0:0:
448,192,75555,1,0,0:0:0:0:
320,192,75666,1,0,0:0:0:0:
192,192,75777,1,0,0:0:0:0:
64,192,76000,1,0,0:0:0:0:
320,192,76222,1,0,0:0:0:0:
320,192,76444,1,0,0:0:0:0:
320,192,76666,1,0,0:0:0:0:
448,192,77555,1,0,0:0:0:0:
320,192,77666,1,0,0:0:0:0:
448,192,77777,1,0,0:0:0:0:
320,192,78000,1,0,0:0:0:0:
448,192,78111,1,0,0:0:0:0:
320,192,78222,1,0,0:0:0:0:
448,192,78444,1,0,0:0:0:0:
64,192,78444,128,0,79000:0:0:0:0:
448,192,78888,1,0,0:0:0:0:
64,192,79333,1,0,0:0:0:0:
448,192,79777,1,0,0:0:0:0:
64,192,80222,1,0,0:0:0:0:
448,192,80222,1,0,0:0:0:0:
448,192,80666,1,0,0:0:0:0:
64,192,81111,1,0,0:0:0:0:
448,192,81555,1,0,0:0:0:0:
64,192,81999,1,0,0:0:0:0:
448,192,82000,1,0,0:0:0:0:
448,192,82444,1,0,0:0:0:0:
64,192,82888,1,0,0:0:0:0:
448,192,83333,1,0,0:0:0:0:
64,192,83777,1,0,0:0:0:0:
448,192,83777,1,0,0:0:0:0:
64,192,84222,1,0,0:0:0:0:
448,192,84666,1,0,0:0:0:0:
64,192,85111,1,0,0:0:0:0:
64,192,85555,1,0,0:0:0:0:
448,192,85555,1,0,0:0:0:0:
320,192,86444,1,0,0:0:0:0:
192,192,86444,1,0,0:0:0:0:
64,192,86666,1,0,0:0:0:0:
448,192,86666,1,0,0:0:0:0:
320,192,86888,1,0,0:0:0:0:
192,192,86888,1,0,0:0:0:0:
320,192,88222,1,0,0:0:0:0:
192,192,88222,1,0,0:0:0:0:
64,192,88333,1,0,0:0:0:0:
448,192,88333,1,0,0:0:0:0:
320,192,88444,1,0,0:0:0:0:
192,192,88444,1,0,0:0:0:0:
64,192,88666,1,0,0:0:0:0:
448,192,88666,1,0,0:0:0:0:
320,192,88888,1,0,0:0:0:0:
192,192,88888,1,0,0:0:0:0:
448,192,90222,1,0,0:0:0:0:
320,192,90444,1,0,0:0:0:0:
192,192,90666,128,0,91111:0:0:0:0:
192,192,91555,1,0,0:0:0:0:
320,192,91777,1,0,0:0:0:0:
448,192,91888,1,0,0:0:0:0:
320,192,92000,1,0,0:0:0:0:
448,192,92222,1,0,0:0:0:0:
320,192,92444,1,0,0:0:0:0:
64,192,92666,1,0,0:0:0:0:
448,192,92666,1,0,0:0:0:0:
448,192,93111,1,0,0:0:0:0:
64,192,93555,1,0,0:0:0:0:
448,192,94000,1,0,0:0:0:0:
64,192,94444,1,0,0:0:0:0:
448,192,94888,1,0,0:0:0:0:
64,192,95333,1,0,0:0:0:0:
448,192,95777,1,0,0:0:0:0:
64,192,96222,1,0,0:0:0:0:
448,192,96666,1,0,0:0:0:0:
64,192,97111,1,0,0:0:0:0:
448,192,97555,1,0,0:0:0:0:
64,192,98000,1,0,0:0:0:0:
448,192,98444,1,0,0:0:0:0:
64,192,98888,1,0,0:0:0:0:
448,192,99333,1,0,0:0:0:0:
64,192,99777,1,0,0:0:0:0:
448,192,99777,1,0,0:0:0:0:
64,192,100666,1,0,0:0:0:0:
448,192,101222,1,0,0:0:0:0:
64,192,101555,1,0,0:0:0:0:
448,192,102000,1,0,0:0:0:0:
64,192,102444,1,0,0:0:0:0:
448,192,103333,1,0,0:0:0:0:
64,192,103333,1,0,0:0:0:0:
448,192,104222,1,0,0:0:0:0:
64,192,104444,1,0,0:0:0:0:
64,192,104666,128,0,105111:0:0:0:0:
192,192,105333,1,0,0:0:0:0:
320,192,105555,1,0,0:0:0:0:
448,192,105777,1,0,0:0:0:0:
320,192,106000,1,0,0:0:0:0:
192,192,106222,1,0,0:0:0:0:
64,192,106333,128,0,106777:0:0:0:0:
448,192,106888,1,0,0:0:0:0:
64,192,106888,1,0,0:0:0:0:
448,192,107777,1,0,0:0:0:0:
64,192,108666,1,0,0:0:0:0:
448,192,109555,1,0,0:0:0:0:
64,192,110444,1,0,0:0:0:0:
448,192,111333,1,0,0:0:0:0:
64,192,112222,1,0,0:0:0:0:
448,192,113111,1,0,0:0:0:0:
448,192,113555,1,0,0:0:0:0:
64,192,113555,1,0,0:0:0:0:
64,192,114000,1,0,0:0:0:0:
448,192,114000,1,0,0:0:0:0:
64,192,114333,1,0,0:0:0:0:
448,192,114888,1,0,0:0:0:0:
64,192,115777,1,0,0:0:0:0:
448,192,116666,1,0,0:0:0:0:
64,192,117555,1,0,0:0:0:0:
448,192,118444,1,0,0:0:0:0:
64,192,119333,1,0,0:0:0:0:
448,192,120222,1,0,0:0:0:0:
448,192,120666,1,0,0:0:0:0:
64,192,120666,1,0,0:0:0:0:
64,192,121111,1,0,0:0:0:0:
448,192,121111,1,0,0:0:0:0:
64,192,122000,1,0,0:0:0:0:
448,192,122888,1,0,0:0:0:0:
64,192,123777,1,0,0:0:0:0:
448,192,124666,1,0,0:0:0:0:
64,192,125555,1,0,0:0:0:0:
448,192,126444,1,0,0:0:0:0:
64,192,127333,1,0,0:0:0:0:
64,192,128222,128,0,130777:0:0:0:0:
448,192,128222,128,0,130777:0:0:0:0:
448,192,130777,1,0,0:0:0:0:
448,192,130888,1,0,0:0:0:0:
64,192,131777,128,0,133111:0:0:0:0:
448,192,133666,128,0,134444:0:0:0:0:
64,192,134444,1,0,0:0:0:0:
64,192,135333,1,0,0:0:0:0:
448,192,135333,1,0,0:0:0:0:
64,192,136222,1,0,0:0:0:0:
448,192,136666,1,0,0:0:0:0:
64,192,137111,1,0,0:0:0:0:
448,192,137555,1,0,0:0:0:0:
64,192,138000,1,0,0:0:0:0:
448,192,138444,1,0,0:0:0:0:
64,192,138888,1,0,0:0:0:0:
448,192,139333,1,0,0:0:0:0:
64,192,139777,1,0,0:0:0:0:
448,192,140222,1,0,0:0:0:0:
64,192,140666,1,0,0:0:0:0:
448,192,141111,1,0,0:0:0:0:
64,192,141555,1,0,0:0:0:0:
448,192,142000,1,0,0:0:0:0:
64,192,142444,1,0,0:0:0:0:
448,192,142444,1,0,0:0:0:0:
320,192,142888,1,0,0:0:0:0:
192,192,142888,1,0,0:0:0:0:
64,192,143555,1,0,0:0:0:0:
448,192,143555,1,0,0:0:0:0:
192,192,143777,128,0,144333:0:0:0:0:
320,192,143777,128,0,144333:0:0:0:0:
448,192,144666,1,0,0:0:0:0:
64,192,144666,1,0,0:0:0:0:
192,192,144888,1,0,0:0:0:0:
320,192,144888,1,0,0:0:0:0:
448,192,145333,1,0,0:0:0:0:
320,192,145555,128,0,145888:0:0:0:0:
448,192,146444,1,0,0:0:0:0:
448,192,147333,1,0,0:0:0:0:
64,192,148222,1,0,0:0:0:0:
448,192,148222,1,0,0:0:0:0:
320,192,149111,1,0,0:0:0:0:
64,192,149111,1,0,0:0:0:0:
64,192,149555,128,0,150111:0:0:0:0:
448,192,149555,128,0,150111:0:0:0:0:
448,192,150333,1,0,0:0:0:0:
320,192,150444,1,0,0:0:0:0:
192,192,150666,1,0,0:0:0:0:
64,192,150888,1,0,0:0:0:0:
192,192,151000,1,0,0:0:0:0:
64,192,151111,1,0,0:0:0:0:
192,192,151222,1,0,0:0:0:0:
64,192,151333,1,0,0:0:0:0:
448,192,151777,1,0,0:0:0:0:
320,192,152222,1,0,0:0:0:0:
192,192,152222,1,0,0:0:0:0:
192,192,152444,1,0,0:0:0:0:
320,192,152444,1,0,0:0:0:0:
192,192,152666,1,0,0:0:0:0:
320,192,152666,1,0,0:0:0:0:
320,192,152888,1,0,0:0:0:0:
192,192,152888,1,0,0:0:0:0:
320,192,153111,1,0,0:0:0:0:
192,192,153111,1,0,0:0:0:0:
320,192,153555,1,0,0:0:0:0:
192,192,153555,1,0,0:0:0:0:
448,192,154222,1,0,0:0:0:0:
64,192,154333,1,0,0:0:0:0:
448,192,154444,1,0,0:0:0:0:
448,192,154666,1,0,0:0:0:0:
448,192,154888,1,0,0:0:0:0:
448,192,155555,1,0,0:0:0:0:
320,192,155666,1,0,0:0:0:0:
192,192,155777,1,0,0:0:0:0:
64,192,156000,1,0,0:0:0:0:
192,192,156222,1,0,0:0:0:0:
320,192,156333,1,0,0:0:0:0:
192,192,156444,1,0,0:0:0:0:
448,192,156666,1,0,0:0:0:0:
64,192,156666,1,0,0:0:0:0:
448,192,157111,1,0,0:0:0:0:
448,192,157555,1,0,0:0:0:0:
448,192,158222,1,0,0:0:0:0:
320,192,158333,1,0,0:0:0:0:
448,192,158444,1,0,0:0:0:0:
448,192,158888,1,0,0:0:0:0:
64,192,159111,1,0,0:0:0:0:
448,192,159277,1,0,0:0:0:0:
64,192,159500,1,0,0:0:0:0:
448,192,159722,1,0,0:0:0:0:
64,192,159944,1,0,0:0:0:0:
64,192,160166,1,0,0:0:0:0:
64,192,160666,1,0,0:0:0:0:
192,192,161333,1,0,0:0:0:0:
320,192,161555,1,0,0:0:0:0:
448,192,163222,1,0,0:0:0:0:
64,192,163333,1,0,0:0:0:0:
448,192,163555,1,0,0:0:0:0:
64,192,163777,1,0,0:0:0:0:
448,192,163999,1,0,0:0:0:0:
320,192,180444,5,0,0:0:0:0:
192,192,180555,1,0,0:0:0:0:
64,192,180666,1,0,0:0:0:0:
192,192,180777,1,0,0:0:0:0:
320,192,180999,1,0,0:0:0:0:
448,192,181222,1,0,0:0:0:0:
320,192,181333,1,0,0:0:0:0:
320,192,181555,1,0,0:0:0:0:
448,192,182111,1,0,0:0:0:0:
320,192,182222,1,0,0:0:0:0:
192,192,182333,1,0,0:0:0:0:
64,192,182444,1,0,0:0:0:0:
192,192,182666,1,0,0:0:0:0:
320,192,182888,1,0,0:0:0:0:
448,192,183111,1,0,0:0:0:0:
320,192,183222,1,0,0:0:0:0:
448,192,183333,1,0,0:0:0:0:
448,192,183555,1,0,0:0:0:0:
320,192,183666,1,0,0:0:0:0:
192,192,183777,1,0,0:0:0:0:
64,192,183999,1,0,0:0:0:0:
192,192,184222,1,0,0:0:0:0:
320,192,184444,1,0,0:0:0:0:
448,192,184555,1,0,0:0:0:0:
320,192,184666,1,0,0:0:0:0:
192,192,184888,1,0,0:0:0:0:
448,192,185222,1,0,0:0:0:0:
320,192,185333,1,0,0:0:0:0:
192,192,185555,1,0,0:0:0:0:
64,192,185999,1,0,0:0:0:0:
192,192,186222,1,0,0:0:0:0:
320,192,186444,1,0,0:0:0:0:
448,192,186666,1,0,0:0:0:0:
320,192,186777,1,0,0:0:0:0:
192,192,186888,1,0,0:0:0:0:
448,192,187555,1,0,0:0:0:0:
320,192,187666,1,0,0:0:0:0:
192,192,187777,1,0,0:0:0:0:
64,192,187888,1,0,0:0:0:0:
192,192,188111,1,0,0:0:0:0:
320,192,188333,1,0,0:0:0:0:
448,192,189222,1,0,0:0:0:0:
320,192,189333,1,0,0:0:0:0:
192,192,189444,1,0,0:0:0:0:
64,192,189555,1,0,0:0:0:0:
192,192,189777,1,0,0:0:0:0:
320,192,189999,1,0,0:0:0:0:
448,192,190222,1,0,0:0:0:0:
320,192,190333,1,0,0:0:0:0:
192,192,190444,1,0,0:0:0:0:
64,192,190555,1,0,0:0:0:0:
192,192,190666,1,0,0:0:0:0:
320,192,190888,1,0,0:0:0:0:
448,192,191111,1,0,0:0:0:0:
320,192,191333,1,0,0:0:0:0:
192,192,191444,1,0,0:0:0:0:
64,192,191666,1,0,0:0:0:0:
192,192,191888,1,0,0:0:0:0:
320,192,192111,1,0,0:0:0:0:
448,192,192333,1,0,0:0:0:0:
320,192,192444,1,0,0:0:0:0:
192,192,192555,1,0,0:0:0:0:
64,192,192666,1,0,0:0:0:0:
192,192,193111,1,0,0:0:0:0:
320,192,193333,1,0,0:0:0:0:
448,192,193555,1,0,0:0:0:0:
448,192,193999,128,0,194999:0:0:0:0:
64,192,193999,128,0,194999:0:0:0:0:
192,192,194555,1,0,0:0:0:0:
320,192,194777,1,0,0:0:0:0:
192,192,194888,1,0,0:0:0:0:
320,192,194999,1,0,0:0:0:0:
192,192,195111,1,0,0:0:0:0:
320,192,195333,1,0,0:0:0:0:
448,192,195555,1,0,0:0:0:0:
320,192,195666,1,0,0:0:0:0:
192,192,195777,1,0,0:0:0:0:
448,192,196777,1,0,0:0:0:0:
320,192,196999,1,0,0:0:0:0:
192,192,197222,1,0,0:0:0:0:
64,192,197333,1,0,0:0:0:0:
64,192,197555,1,0,0:0:0:0:
448,192,197555,1,0,0:0:0:0:
448,192,198111,1,0,0:0:0:0:
320,192,198222,1,0,0:0:0:0:
64,192,198888,1,0,0:0:0:0:
320,192,199222,1,0,0:0:0:0:
448,192,199333,1,0,0:0:0:0:
448,192,199888,1,0,0:0:0:0:
320,192,199999,1,0,0:0:0:0:
192,192,200111,1,0,0:0:0:0:
448,192,200444,1,0,0:0:0:0:
320,192,200555,1,0,0:0:0:0:
192,192,200666,1,0,0:0:0:0:
64,192,200777,1,0,0:0:0:0:
192,192,200888,1,0,0:0:0:0:
320,192,200999,1,0,0:0:0:0:
448,192,201111,1,0,0:0:0:0:
64,192,201111,1,0,0:0:0:0:
448,192,201444,128,0,201777:0:0:0:0:
320,192,202222,1,0,0:0:0:0:
192,192,202444,1,0,0:0:0:0:
64,192,202666,1,0,0:0:0:0:
192,192,203333,1,0,0:0:0:0:
320,192,203555,1,0,0:0:0:0:
448,192,203777,1,0,0:0:0:0:
320,192,203999,1,0,0:0:0:0:
192,192,204222,1,0,0:0:0:0:
64,192,204999,128,0,205444:0:0:0:0:
320,192,205666,1,0,0:0:0:0:
448,192,205777,1,0,0:0:0:0:
320,192,205888,1,0,0:0:0:0:
448,192,205999,1,0,0:0:0:0:
64,192,206555,1,0,0:0:0:0:
448,192,206999,1,0,0:0:0:0:
64,192,207333,1,0,0:0:0:0:
448,192,207777,1,0,0:0:0:0:
320,192,207999,1,0,0:0:0:0:
448,192,208111,1,0,0:0:0:0:
448,192,208333,1,0,0:0:0:0:
64,192,208333,1,0,0:0:0:0:
448,192,208999,1,0,0:0:0:0:
320,192,209111,1,0,0:0:0:0:
192,192,209333,1,0,0:0:0:0:
192,192,209555,1,0,0:0:0:0:
320,192,209555,1,0,0:0:0:0:
448,192,209666,1,0,0:0:0:0:
64,192,209666,1,0,0:0:0:0:
192,192,209777,1,0,0:0:0:0:
320,192,209777,1,0,0:0:0:0:
448,192,209888,1,0,0:0:0:0:
64,192,209888,1,0,0:0:0:0:
192,192,209999,1,0,0:0:0:0:
320,192,209999,1,0,0:0:0:0:
448,192,210555,1,0,0:0:0:0:
64,192,210888,1,0,0:0:0:0:
320,192,210888,1,0,0:0:0:0:
448,192,210888,1,0,0:0:0:0:
320,192,211111,1,0,0:0:0:0:
192,192,211111,1,0,0:0:0:0:
64,192,211333,1,0,0:0:0:0:
192,192,211333,1,0,0:0:0:0:
448,192,211333,1,0,0:0:0:0:
320,192,211555,1,0,0:0:0:0:
192,192,211555,1,0,0:0:0:0:
448,192,211777,1,0,0:0:0:0:
320,192,211777,1,0,0:0:0:0:
64,192,211777,1,0,0:0:0:0:
448,192,212888,1,0,0:0:0:0:
320,192,212999,1,0,0:0:0:0:
448,192,213111,1,0,0:0:0:0:
448,192,213333,1,0,0:0:0:0:
448,192,213555,1,0,0:0:0:0:
448,192,214222,1,0,0:0:0:0:
320,192,214333,1,0,0:0:0:0:
192,192,214444,1,0,0:0:0:0:
192,192,214666,1,0,0:0:0:0:
192,192,214888,1,0,0:0:0:0:
64,192,214999,1,0,0:0:0:0:
192,192,215111,1,0,0:0:0:0:
64,192,215333,1,0,0:0:0:0:
448,192,215333,1,0,0:0:0:0:
448,192,215888,1,0,0:0:0:0:
448,192,216333,1,0,0:0:0:0:
448,192,216888,128,0,217222:0:0:0:0:
64,192,217555,1,0,0:0:0:0:
64,192,217777,1,0,0:0:0:0:
192,192,217777,1,0,0:0:0:0:
192,192,217999,1,0,0:0:0:0:
320,192,217999,1,0,0:0:0:0:
320,192,218222,1,0,0:0:0:0:
448,192,218222,1,0,0:0:0:0:
320,192,218444,1,0,0:0:0:0:
192,192,218444,1,0,0:0:0:0:
192,192,218666,1,0,0:0:0:0:
64,192,218666,1,0,0:0:0:0:
64,192,218888,1,0,0:0:0:0:
192,192,218888,1,0,0:0:0:0:
64,192,219333,1,0,0:0:0:0:
448,192,219999,1,0,0:0:0:0:
64,192,219999,1,0,0:0:0:0:
448,192,220333,1,0,0:0:0:0:
64,192,220333,1,0,0:0:0:0:
448,192,220888,1,0,0:0:0:0:
448,192,221222,1,0,0:0:0:0:
448,192,221888,1,0,0:0:0:0:
320,192,221999,1,0,0:0:0:0:
192,192,222222,1,0,0:0:0:0:
64,192,222555,1,0,0:0:0:0:
448,192,222555,1,0,0:0:0:0:
448,192,223555,1,0,0:0:0:0:
64,192,223555,1,0,0:0:0:0:
192,192,223777,1,0,0:0:0:0:
320,192,223777,1,0,0:0:0:0:
448,192,225111,1,0,0:0:0:0:
320,192,225333,1,0,0:0:0:0:
192,192,225555,1,0,0:0:0:0:
64,192,225999,1,0,0:0:0:0:
448,192,225999,1,0,0:0:0:0:
448,192,226555,1,0,0:0:0:0:
320,192,226666,1,0,0:0:0:0:
448,192,226777,1,0,0:0:0:0:
320,192,226888,1,0,0:0:0:0:
448,192,227111,1,0,0:0:0:0:
320,192,227333,1,0,0:0:0:0:
448,192,227555,1,0,0:0:0:0:
320,192,227666,1,0,0:0:0:0:
448,192,227888,1,0,0:0:0:0:
64,192,227999,1,0,0:0:0:0:
192,192,228111,1,0,0:0:0:0:
320,192,228222,1,0,0:0:0:0:
448,192,228333,1,0,0:0:0:0:
448,192,228555,1,0,0:0:0:0:
320,192,228666,1,0,0:0:0:0:
192,192,228888,1,0,0:0:0:0:
64,192,229111,1,0,0:0:0:0:
448,192,229444,1,0,0:0:0:0:
320,192,229555,1,0,0:0:0:0:
448,192,229888,1,0,0:0:0:0:
448,192,230666,1,0,0:0:0:0:
448,192,231555,1,0,0:0:0:0:
64,192,231555,1,0,0:0:0:0:
320,192,231666,1,0,0:0:0:0:
192,192,231666,1,0,0:0:0:0:
64,192,231777,1,0,0:0:0:0:
448,192,231777,1,0,0:0:0:0:
192,192,231999,1,0,0:0:0:0:
320,192,231999,1,0,0:0:0:0:
448,192,232222,1,0,0:0:0:0:
320,192,232444,1,0,0:0:0:0:
192,192,232666,1,0,0:0:0:0:
64,192,232888,1,0,0:0:0:0:
192,192,232999,1,0,0:0:0:0:
64,192,233111,1,0,0:0:0:0:
448,192,243777,132,0,250666:0:0:0:0:
64,192,243777,128,0,250666:0:0:0:0:
320,192,244666,1,0,0:0:0:0:
192,192,244666,1,0,0:0:0:0:
320,192,245111,1,0,0:0:0:0:
192,192,245111,1,0,0:0:0:0:
320,192,245555,1,0,0:0:0:0:
192,192,245555,1,0,0:0:0:0:
320,192,245999,1,0,0:0:0:0:
192,192,245999,1,0,0:0:0:0:
320,192,246444,1,0,0:0:0:0:
192,192,246444,1,0,0:0:0:0:
320,192,247333,1,0,0:0:0:0:
192,192,247333,1,0,0:0:0:0:
320,192,248222,1,0,0:0:0:0:
192,192,248222,1,0,0:0:0:0:
192,192,248666,1,0,0:0:0:0:
320,192,248666,1,0,0:0:0:0:
192,192,249111,1,0,0:0:0:0:
320,192,249111,1,0,0:0:0:0:
320,192,249555,1,0,0:0:0:0:
192,192,249555,1,0,0:0:0:0:
