osu file format v14

[General]
AudioFilename: runninginthe90s.mp3
AudioLeadIn: 0
PreviewTime: 16733
Countdown: 1
SampleSet: Normal
StackLeniency: 0.7
Mode: 3
LetterboxInBreaks: 0
SpecialStyle: 0
WidescreenStoryboard: 1

[Editor]
DistanceSpacing: 0.8
BeatDivisor: 4
GridSize: 32
TimelineZoom: 1.3

[Metadata]
Title:Fire in the Booth Meme Complaination
TitleUnicode:Fire in the Booth Meme Complaination
Artist:Big Shaq
ArtistUnicode:Big Shaq
Creator:Amethyst507
Version:Running in the 90s
Source:Youtube
Tags:
BeatmapID:1437991
BeatmapSetID:680050

[Difficulty]
HPDrainRate:8
CircleSize:4
OverallDifficulty:8
ApproachRate:5
SliderMultiplier:1.4
SliderTickRate:1

[Events]
//Background and Video events
0,0,"skraa.jpg",0,0
//Break Periods
//Storyboard Layer 0 (Background)
//Storyboard Layer 1 (Fail)
//Storyboard Layer 2 (Pass)
//Storyboard Layer 3 (Foreground)
//Storyboard Sound Samples

[TimingPoints]
140,375,4,1,0,10,1,0
6140,379.746835443038,4,1,0,10,1,0
18291,375,4,1,0,10,1,0
24384,375,4,1,0,10,1,0
24384,375,4,1,0,10,1,0

[HitObjects]
64,192,140,5,0,0:0:0:0:
192,192,140,1,0,0:0:0:0:
448,192,140,1,0,0:0:0:0:
448,192,327,1,0,0:0:0:0:
192,192,327,1,0,0:0:0:0:
64,192,327,1,0,0:0:0:0:
64,192,515,1,0,0:0:0:0:
192,192,515,1,0,0:0:0:0:
320,192,515,1,0,0:0:0:0:
448,192,515,1,0,0:0:0:0:
320,192,890,1,0,0:0:0:0:
448,192,890,1,0,0:0:0:0:
64,192,890,1,0,0:0:0:0:
448,192,1077,1,0,0:0:0:0:
320,192,1077,1,0,0:0:0:0:
64,192,1077,1,0,0:0:0:0:
64,192,1265,1,0,0:0:0:0:
192,192,1265,1,0,0:0:0:0:
320,192,1265,1,0,0:0:0:0:
448,192,1265,1,0,0:0:0:0:
192,192,1640,1,0,0:0:0:0:
320,192,1640,1,0,0:0:0:0:
448,192,1640,1,0,0:0:0:0:
192,192,1827,1,0,0:0:0:0:
320,192,1827,1,0,0:0:0:0:
448,192,1827,1,0,0:0:0:0:
64,192,2015,1,0,0:0:0:0:
320,192,2015,1,0,0:0:0:0:
448,192,2015,1,0,0:0:0:0:
320,192,2202,1,0,0:0:0:0:
448,192,2202,1,0,0:0:0:0:
64,192,2202,1,0,0:0:0:0:
192,192,2390,1,0,0:0:0:0:
64,192,2390,1,0,0:0:0:0:
448,192,2390,1,0,0:0:0:0:
448,192,2577,1,0,0:0:0:0:
192,192,2577,1,0,0:0:0:0:
64,192,2577,1,0,0:0:0:0:
320,192,2765,1,0,0:0:0:0:
192,192,2765,1,0,0:0:0:0:
64,192,2765,1,0,0:0:0:0:
64,192,2952,1,0,0:0:0:0:
192,192,2952,1,0,0:0:0:0:
320,192,2952,1,0,0:0:0:0:
448,192,3140,1,0,0:0:0:0:
320,192,3140,1,0,0:0:0:0:
192,192,3140,1,0,0:0:0:0:
64,192,3140,1,0,0:0:0:0:
448,192,3327,1,0,0:0:0:0:
320,192,3327,1,0,0:0:0:0:
192,192,3327,1,0,0:0:0:0:
192,192,3515,1,0,0:0:0:0:
320,192,3515,1,0,0:0:0:0:
448,192,3515,1,0,0:0:0:0:
64,192,3515,1,0,0:0:0:0:
320,192,3890,1,0,0:0:0:0:
192,192,3890,1,0,0:0:0:0:
64,192,3890,1,0,0:0:0:0:
64,192,4077,1,0,0:0:0:0:
320,192,4077,1,0,0:0:0:0:
192,192,4077,1,0,0:0:0:0:
320,192,4265,1,0,0:0:0:0:
192,192,4265,1,0,0:0:0:0:
64,192,4265,1,0,0:0:0:0:
448,192,4265,1,0,0:0:0:0:
320,192,4640,1,0,0:0:0:0:
192,192,4640,1,0,0:0:0:0:
64,192,4640,1,0,0:0:0:0:
448,192,4827,1,0,0:0:0:0:
192,192,4827,1,0,0:0:0:0:
64,192,4827,1,0,0:0:0:0:
448,192,5015,1,0,0:0:0:0:
320,192,5015,1,0,0:0:0:0:
64,192,5015,1,0,0:0:0:0:
192,192,5202,1,0,0:0:0:0:
320,192,5202,1,0,0:0:0:0:
448,192,5202,1,0,0:0:0:0:
64,192,5390,1,0,0:0:0:0:
320,192,5390,1,0,0:0:0:0:
448,192,5390,1,0,0:0:0:0:
192,192,5577,1,0,0:0:0:0:
64,192,5577,1,0,0:0:0:0:
448,192,5577,1,0,0:0:0:0:
192,192,5765,1,0,0:0:0:0:
64,192,5765,1,0,0:0:0:0:
320,192,5765,1,0,0:0:0:0:
320,192,5952,1,0,0:0:0:0:
448,192,6140,1,0,0:0:0:0:
192,192,6140,1,0,0:0:0:0:
64,192,6140,1,0,0:0:0:0:
320,192,6140,1,0,0:0:0:0:
448,192,6329,128,0,6519:0:0:0:0:
320,192,6424,128,0,6614:0:0:0:0:
64,192,6519,128,0,6709:0:0:0:0:
192,192,6614,128,0,6804:0:0:0:0:
448,192,6709,128,0,7184:0:0:0:0:
320,192,7089,128,0,7279:0:0:0:0:
64,192,7184,128,0,7374:0:0:0:0:
192,192,7279,128,0,7469:0:0:0:0:
448,192,7374,128,0,7564:0:0:0:0:
320,192,7469,128,0,7658:0:0:0:0:
64,192,7564,128,0,8133:0:0:0:0:
192,192,7753,128,0,7943:0:0:0:0:
320,192,7848,128,0,8038:0:0:0:0:
448,192,7943,128,0,8228:0:0:0:0:
192,192,8228,128,0,8608:0:0:0:0:
320,192,8323,128,0,8418:0:0:0:0:
448,192,8513,128,0,8703:0:0:0:0:
64,192,8608,128,0,8798:0:0:0:0:
320,192,8703,128,0,8893:0:0:0:0:
192,192,8798,128,0,8988:0:0:0:0:
448,192,8988,128,0,9177:0:0:0:0:
320,192,9083,128,0,9272:0:0:0:0:
64,192,9272,128,0,9462:0:0:0:0:
192,192,9367,128,0,9557:0:0:0:0:
448,192,9462,128,0,9652:0:0:0:0:
320,192,9557,128,0,9747:0:0:0:0:
64,192,9652,128,0,9842:0:0:0:0:
192,192,9747,128,0,9937:0:0:0:0:
448,192,9842,128,0,10222:0:0:0:0:
320,192,10032,128,0,10127:0:0:0:0:
64,192,10127,128,0,10317:0:0:0:0:
192,192,10222,128,0,10412:0:0:0:0:
320,192,10317,128,0,10507:0:0:0:0:
448,192,10412,128,0,10602:0:0:0:0:
64,192,10507,128,0,10696:0:0:0:0:
192,192,10602,128,0,12121:0:0:0:0:
192,192,12215,1,0,0:0:0:0:
64,192,12215,1,0,0:0:0:0:
320,192,12215,1,0,0:0:0:0:
448,192,12215,1,0,0:0:0:0:
448,192,12405,128,0,12595:0:0:0:0:
320,192,12500,128,0,12690:0:0:0:0:
64,192,12595,1,0,0:0:0:0:
192,192,12595,128,0,12785:0:0:0:0:
448,192,12690,128,0,12880:0:0:0:0:
320,192,12785,128,0,13070:0:0:0:0:
192,192,12975,128,0,13165:0:0:0:0:
64,192,12975,1,0,0:0:0:0:
448,192,13070,128,0,13260:0:0:0:0:
320,192,13165,128,0,13355:0:0:0:0:
192,192,13260,128,0,13450:0:0:0:0:
448,192,13355,128,0,13545:0:0:0:0:
64,192,13355,1,0,0:0:0:0:
320,192,13450,128,0,13640:0:0:0:0:
192,192,13545,128,0,13829:0:0:0:0:
320,192,13734,128,0,13924:0:0:0:0:
64,192,13734,1,0,0:0:0:0:
448,192,13829,128,0,14019:0:0:0:0:
192,192,13924,128,0,14114:0:0:0:0:
320,192,14019,128,0,14209:0:0:0:0:
448,192,14114,128,0,14304:0:0:0:0:
64,192,14114,1,0,0:0:0:0:
192,192,14209,128,0,14399:0:0:0:0:
320,192,14304,128,0,14589:0:0:0:0:
448,192,14494,128,0,14684:0:0:0:0:
64,192,14494,1,0,0:0:0:0:
192,192,14589,128,0,14779:0:0:0:0:
320,192,14684,128,0,14874:0:0:0:0:
448,192,14779,128,0,14969:0:0:0:0:
192,192,14874,128,0,15064:0:0:0:0:
64,192,14874,1,0,0:0:0:0:
320,192,14969,128,0,15158:0:0:0:0:
448,192,15064,128,0,15348:0:0:0:0:
320,192,15253,128,0,15443:0:0:0:0:
64,192,15253,1,0,0:0:0:0:
192,192,15348,128,0,15538:0:0:0:0:
448,192,15443,128,0,15633:0:0:0:0:
320,192,15538,128,0,15728:0:0:0:0:
192,192,15633,128,0,15823:0:0:0:0:
64,192,15633,1,0,0:0:0:0:
448,192,15728,128,0,15918:0:0:0:0:
320,192,15823,128,0,16013:0:0:0:0:
192,192,16013,128,0,16203:0:0:0:0:
64,192,16013,1,0,0:0:0:0:
320,192,16108,128,0,16298:0:0:0:0:
448,192,16203,128,0,16393:0:0:0:0:
192,192,16298,128,0,16488:0:0:0:0:
320,192,16393,128,0,16583:0:0:0:0:
64,192,16393,1,0,0:0:0:0:
448,192,16488,128,0,16677:0:0:0:0:
192,192,16583,128,0,16772:0:0:0:0:
64,192,16772,1,0,0:0:0:0:
320,192,16772,1,0,0:0:0:0:
448,192,16772,1,0,0:0:0:0:
320,192,16962,1,0,0:0:0:0:
192,192,16962,1,0,0:0:0:0:
448,192,17152,1,0,0:0:0:0:
320,192,17152,1,0,0:0:0:0:
192,192,17342,1,0,0:0:0:0:
64,192,17342,1,0,0:0:0:0:
320,192,17532,1,0,0:0:0:0:
192,192,17532,1,0,0:0:0:0:
448,192,17722,1,0,0:0:0:0:
320,192,17722,1,0,0:0:0:0:
320,192,17912,1,0,0:0:0:0:
192,192,17912,1,0,0:0:0:0:
192,192,18102,1,0,0:0:0:0:
64,192,18102,1,0,0:0:0:0:
64,192,18291,1,0,0:0:0:0:
192,192,18291,1,0,0:0:0:0:
320,192,18291,1,0,0:0:0:0:
448,192,18291,1,0,0:0:0:0:
448,192,18384,1,0,0:0:0:0:
320,192,18384,1,0,0:0:0:0:
192,192,18384,1,0,0:0:0:0:
64,192,18384,1,0,0:0:0:0:
64,192,18478,1,0,0:0:0:0:
320,192,18478,1,0,0:0:0:0:
448,192,18478,1,0,0:0:0:0:
192,192,18478,1,0,0:0:0:0:
448,192,18572,1,0,0:0:0:0:
320,192,18572,1,0,0:0:0:0:
192,192,18572,1,0,0:0:0:0:
64,192,18572,1,0,0:0:0:0:
64,192,18666,1,0,0:0:0:0:
320,192,18666,1,0,0:0:0:0:
192,192,18666,1,0,0:0:0:0:
448,192,18666,1,0,0:0:0:0:
320,192,18759,1,0,0:0:0:0:
192,192,18759,1,0,0:0:0:0:
448,192,18759,1,0,0:0:0:0:
64,192,18759,1,0,0:0:0:0:
448,192,18853,1,0,0:0:0:0:
64,192,18853,1,0,0:0:0:0:
192,192,18853,1,0,0:0:0:0:
320,192,18853,1,0,0:0:0:0:
192,192,19041,1,0,0:0:0:0:
448,192,19041,1,0,0:0:0:0:
64,192,19041,1,0,0:0:0:0:
320,192,19041,1,0,0:0:0:0:
448,192,19134,1,0,0:0:0:0:
64,192,19134,1,0,0:0:0:0:
320,192,19134,1,0,0:0:0:0:
192,192,19134,1,0,0:0:0:0:
192,192,19228,1,0,0:0:0:0:
320,192,19228,1,0,0:0:0:0:
448,192,19228,1,0,0:0:0:0:
64,192,19228,1,0,0:0:0:0:
64,192,19322,1,0,0:0:0:0:
320,192,19322,1,0,0:0:0:0:
192,192,19322,1,0,0:0:0:0:
448,192,19322,1,0,0:0:0:0:
320,192,19416,1,0,0:0:0:0:
192,192,19416,1,0,0:0:0:0:
448,192,19416,1,0,0:0:0:0:
64,192,19416,1,0,0:0:0:0:
448,192,19509,1,0,0:0:0:0:
64,192,19509,1,0,0:0:0:0:
192,192,19509,1,0,0:0:0:0:
320,192,19509,1,0,0:0:0:0:
64,192,19603,1,0,0:0:0:0:
320,192,19603,1,0,0:0:0:0:
192,192,19603,1,0,0:0:0:0:
448,192,19603,1,0,0:0:0:0:
192,192,19791,1,0,0:0:0:0:
448,192,19791,1,0,0:0:0:0:
320,192,19791,1,0,0:0:0:0:
64,192,19884,1,0,0:0:0:0:
320,192,19884,1,0,0:0:0:0:
448,192,19884,1,0,0:0:0:0:
448,192,19978,1,0,0:0:0:0:
64,192,19978,1,0,0:0:0:0:
192,192,19978,1,0,0:0:0:0:
192,192,20072,1,0,0:0:0:0:
64,192,20072,1,0,0:0:0:0:
320,192,20072,1,0,0:0:0:0:
448,192,20166,1,0,0:0:0:0:
192,192,20166,1,0,0:0:0:0:
64,192,20166,1,0,0:0:0:0:
64,192,20259,1,0,0:0:0:0:
320,192,20259,1,0,0:0:0:0:
448,192,20259,1,0,0:0:0:0:
448,192,20353,1,0,0:0:0:0:
320,192,20353,1,0,0:0:0:0:
192,192,20353,1,0,0:0:0:0:
192,192,20541,1,0,0:0:0:0:
320,192,20541,1,0,0:0:0:0:
64,192,20541,1,0,0:0:0:0:
448,192,20634,1,0,0:0:0:0:
64,192,20634,1,0,0:0:0:0:
192,192,20634,1,0,0:0:0:0:
448,192,20728,1,0,0:0:0:0:
320,192,20728,1,0,0:0:0:0:
64,192,20728,1,0,0:0:0:0:
320,192,20822,1,0,0:0:0:0:
448,192,20822,1,0,0:0:0:0:
192,192,20822,1,0,0:0:0:0:
320,192,20916,1,0,0:0:0:0:
448,192,20916,1,0,0:0:0:0:
64,192,20916,1,0,0:0:0:0:
448,192,21009,1,0,0:0:0:0:
192,192,21009,1,0,0:0:0:0:
64,192,21009,1,0,0:0:0:0:
192,192,21103,1,0,0:0:0:0:
64,192,21103,1,0,0:0:0:0:
320,192,21103,1,0,0:0:0:0:
64,192,21291,1,0,0:0:0:0:
448,192,21291,1,0,0:0:0:0:
320,192,21291,1,0,0:0:0:0:
64,192,21384,1,0,0:0:0:0:
448,192,21384,1,0,0:0:0:0:
192,192,21384,1,0,0:0:0:0:
320,192,21478,1,0,0:0:0:0:
64,192,21478,1,0,0:0:0:0:
448,192,21478,1,0,0:0:0:0:
192,192,21572,1,0,0:0:0:0:
64,192,21572,1,0,0:0:0:0:
448,192,21572,1,0,0:0:0:0:
448,192,21666,1,0,0:0:0:0:
64,192,21666,1,0,0:0:0:0:
320,192,21666,1,0,0:0:0:0:
64,192,21759,1,0,0:0:0:0:
448,192,21759,1,0,0:0:0:0:
192,192,21759,1,0,0:0:0:0:
448,192,21853,1,0,0:0:0:0:
320,192,21853,1,0,0:0:0:0:
64,192,21853,1,0,0:0:0:0:
448,192,22041,1,0,0:0:0:0:
320,192,22041,1,0,0:0:0:0:
192,192,22041,1,0,0:0:0:0:
192,192,22134,1,0,0:0:0:0:
64,192,22134,1,0,0:0:0:0:
320,192,22134,1,0,0:0:0:0:
192,192,22228,1,0,0:0:0:0:
448,192,22228,1,0,0:0:0:0:
320,192,22228,1,0,0:0:0:0:
320,192,22322,1,0,0:0:0:0:
192,192,22322,1,0,0:0:0:0:
64,192,22322,1,0,0:0:0:0:
192,192,22416,1,0,0:0:0:0:
320,192,22416,1,0,0:0:0:0:
448,192,22416,1,0,0:0:0:0:
192,192,22509,1,0,0:0:0:0:
64,192,22509,1,0,0:0:0:0:
320,192,22509,1,0,0:0:0:0:
192,192,22603,1,0,0:0:0:0:
448,192,22603,1,0,0:0:0:0:
320,192,22603,1,0,0:0:0:0:
192,192,22791,1,0,0:0:0:0:
64,192,22791,1,0,0:0:0:0:
448,192,22791,1,0,0:0:0:0:
320,192,22791,1,0,0:0:0:0:
64,192,22884,1,0,0:0:0:0:
192,192,22884,1,0,0:0:0:0:
320,192,22978,1,0,0:0:0:0:
64,192,22978,1,0,0:0:0:0:
192,192,22978,1,0,0:0:0:0:
448,192,22978,1,0,0:0:0:0:
320,192,23072,1,0,0:0:0:0:
448,192,23072,1,0,0:0:0:0:
448,192,23166,1,0,0:0:0:0:
64,192,23166,1,0,0:0:0:0:
192,192,23166,1,0,0:0:0:0:
320,192,23166,1,0,0:0:0:0:
64,192,23259,1,0,0:0:0:0:
192,192,23259,1,0,0:0:0:0:
448,192,23353,1,0,0:0:0:0:
320,192,23353,1,0,0:0:0:0:
192,192,23353,1,0,0:0:0:0:
64,192,23353,1,0,0:0:0:0:
448,192,23541,1,0,0:0:0:0:
320,192,23541,1,0,0:0:0:0:
192,192,23541,1,0,0:0:0:0:
64,192,23541,1,0,0:0:0:0:
448,192,23634,1,0,0:0:0:0:
320,192,23634,1,0,0:0:0:0:
192,192,23728,1,0,0:0:0:0:
448,192,23728,1,0,0:0:0:0:
320,192,23728,1,0,0:0:0:0:
64,192,23728,1,0,0:0:0:0:
192,192,23822,1,0,0:0:0:0:
64,192,23822,1,0,0:0:0:0:
192,192,23916,1,0,0:0:0:0:
320,192,23916,1,0,0:0:0:0:
448,192,23916,1,0,0:0:0:0:
64,192,23916,1,0,0:0:0:0:
448,192,24009,1,0,0:0:0:0:
320,192,24009,1,0,0:0:0:0:
192,192,24103,1,0,0:0:0:0:
64,192,24103,1,0,0:0:0:0:
448,192,24103,1,0,0:0:0:0:
320,192,24103,1,0,0:0:0:0:
64,192,24384,1,0,0:0:0:0:
192,192,24384,1,0,0:0:0:0:
320,192,24384,1,0,0:0:0:0:
448,192,24384,1,0,0:0:0:0:
448,192,24477,1,0,0:0:0:0:
320,192,24477,1,0,0:0:0:0:
192,192,24477,1,0,0:0:0:0:
64,192,24477,1,0,0:0:0:0:
64,192,24571,1,0,0:0:0:0:
320,192,24571,1,0,0:0:0:0:
448,192,24571,1,0,0:0:0:0:
192,192,24571,1,0,0:0:0:0:
448,192,24665,1,0,0:0:0:0:
320,192,24665,1,0,0:0:0:0:
192,192,24665,1,0,0:0:0:0:
64,192,24665,1,0,0:0:0:0:
64,192,24759,1,0,0:0:0:0:
320,192,24759,1,0,0:0:0:0:
192,192,24759,1,0,0:0:0:0:
448,192,24759,1,0,0:0:0:0:
320,192,24852,1,0,0:0:0:0:
192,192,24852,1,0,0:0:0:0:
448,192,24852,1,0,0:0:0:0:
64,192,24852,1,0,0:0:0:0:
448,192,24946,1,0,0:0:0:0:
64,192,24946,1,0,0:0:0:0:
192,192,24946,1,0,0:0:0:0:
320,192,24946,1,0,0:0:0:0:
192,192,25134,1,0,0:0:0:0:
448,192,25134,1,0,0:0:0:0:
64,192,25134,1,0,0:0:0:0:
320,192,25134,1,0,0:0:0:0:
448,192,25227,1,0,0:0:0:0:
64,192,25227,1,0,0:0:0:0:
320,192,25227,1,0,0:0:0:0:
192,192,25227,1,0,0:0:0:0:
192,192,25321,1,0,0:0:0:0:
320,192,25321,1,0,0:0:0:0:
448,192,25321,1,0,0:0:0:0:
64,192,25321,1,0,0:0:0:0:
64,192,25415,1,0,0:0:0:0:
320,192,25415,1,0,0:0:0:0:
192,192,25415,1,0,0:0:0:0:
448,192,25415,1,0,0:0:0:0:
320,192,25509,1,0,0:0:0:0:
192,192,25509,1,0,0:0:0:0:
448,192,25509,1,0,0:0:0:0:
64,192,25509,1,0,0:0:0:0:
448,192,25602,1,0,0:0:0:0:
64,192,25602,1,0,0:0:0:0:
192,192,25602,1,0,0:0:0:0:
320,192,25602,1,0,0:0:0:0:
64,192,25696,1,0,0:0:0:0:
320,192,25696,1,0,0:0:0:0:
192,192,25696,1,0,0:0:0:0:
448,192,25696,1,0,0:0:0:0:
320,192,25884,1,0,0:0:0:0:
64,192,25884,1,0,0:0:0:0:
192,192,25884,1,0,0:0:0:0:
448,192,25977,1,0,0:0:0:0:
192,192,25977,1,0,0:0:0:0:
64,192,25977,1,0,0:0:0:0:
64,192,26071,1,0,0:0:0:0:
448,192,26071,1,0,0:0:0:0:
320,192,26071,1,0,0:0:0:0:
320,192,26165,1,0,0:0:0:0:
448,192,26165,1,0,0:0:0:0:
192,192,26165,1,0,0:0:0:0:
64,192,26259,1,0,0:0:0:0:
320,192,26259,1,0,0:0:0:0:
448,192,26259,1,0,0:0:0:0:
448,192,26352,1,0,0:0:0:0:
192,192,26352,1,0,0:0:0:0:
64,192,26352,1,0,0:0:0:0:
64,192,26446,1,0,0:0:0:0:
192,192,26446,1,0,0:0:0:0:
320,192,26446,1,0,0:0:0:0:
320,192,26634,1,0,0:0:0:0:
192,192,26634,1,0,0:0:0:0:
448,192,26634,1,0,0:0:0:0:
64,192,26727,1,0,0:0:0:0:
448,192,26727,1,0,0:0:0:0:
320,192,26727,1,0,0:0:0:0:
64,192,26821,1,0,0:0:0:0:
192,192,26821,1,0,0:0:0:0:
448,192,26821,1,0,0:0:0:0:
192,192,26915,1,0,0:0:0:0:
64,192,26915,1,0,0:0:0:0:
320,192,26915,1,0,0:0:0:0:
192,192,27009,1,0,0:0:0:0:
64,192,27009,1,0,0:0:0:0:
448,192,27009,1,0,0:0:0:0:
64,192,27102,1,0,0:0:0:0:
320,192,27102,1,0,0:0:0:0:
448,192,27102,1,0,0:0:0:0:
320,192,27196,1,0,0:0:0:0:
448,192,27196,1,0,0:0:0:0:
192,192,27196,1,0,0:0:0:0:
448,192,27384,1,0,0:0:0:0:
64,192,27384,1,0,0:0:0:0:
192,192,27384,1,0,0:0:0:0:
448,192,27477,1,0,0:0:0:0:
64,192,27477,1,0,0:0:0:0:
320,192,27477,1,0,0:0:0:0:
192,192,27571,1,0,0:0:0:0:
448,192,27571,1,0,0:0:0:0:
64,192,27571,1,0,0:0:0:0:
320,192,27665,1,0,0:0:0:0:
448,192,27665,1,0,0:0:0:0:
64,192,27665,1,0,0:0:0:0:
64,192,27759,1,0,0:0:0:0:
448,192,27759,1,0,0:0:0:0:
192,192,27759,1,0,0:0:0:0:
448,192,27852,1,0,0:0:0:0:
64,192,27852,1,0,0:0:0:0:
320,192,27852,1,0,0:0:0:0:
64,192,27946,1,0,0:0:0:0:
192,192,27946,1,0,0:0:0:0:
448,192,27946,1,0,0:0:0:0:
64,192,28134,1,0,0:0:0:0:
192,192,28134,1,0,0:0:0:0:
320,192,28134,1,0,0:0:0:0:
320,192,28227,1,0,0:0:0:0:
448,192,28227,1,0,0:0:0:0:
192,192,28227,1,0,0:0:0:0:
320,192,28321,1,0,0:0:0:0:
64,192,28321,1,0,0:0:0:0:
192,192,28321,1,0,0:0:0:0:
192,192,28415,1,0,0:0:0:0:
320,192,28415,1,0,0:0:0:0:
448,192,28415,1,0,0:0:0:0:
320,192,28509,1,0,0:0:0:0:
192,192,28509,1,0,0:0:0:0:
64,192,28509,1,0,0:0:0:0:
320,192,28602,1,0,0:0:0:0:
448,192,28602,1,0,0:0:0:0:
192,192,28602,1,0,0:0:0:0:
320,192,28696,1,0,0:0:0:0:
64,192,28696,1,0,0:0:0:0:
192,192,28696,1,0,0:0:0:0:
320,192,28884,1,0,0:0:0:0:
448,192,28884,1,0,0:0:0:0:
64,192,28884,1,0,0:0:0:0:
192,192,28884,1,0,0:0:0:0:
192,192,29071,1,0,0:0:0:0:
448,192,29071,1,0,0:0:0:0:
320,192,29071,1,0,0:0:0:0:
64,192,29071,1,0,0:0:0:0:
64,192,29259,1,0,0:0:0:0:
448,192,29259,1,0,0:0:0:0:
320,192,29259,1,0,0:0:0:0:
192,192,29259,1,0,0:0:0:0:
64,192,29446,1,0,0:0:0:0:
192,192,29446,1,0,0:0:0:0:
320,192,29493,1,0,0:0:0:0:
448,192,29493,1,0,0:0:0:0:
192,192,29540,1,0,0:0:0:0:
64,192,29540,1,0,0:0:0:0:
320,192,29587,1,0,0:0:0:0:
448,192,29587,1,0,0:0:0:0:
64,192,29634,1,0,0:0:0:0:
192,192,29634,1,0,0:0:0:0:
448,192,29680,1,0,0:0:0:0:
320,192,29680,1,0,0:0:0:0:
64,192,29727,1,0,0:0:0:0:
192,192,29727,1,0,0:0:0:0:
320,192,29774,1,0,0:0:0:0:
448,192,29774,1,0,0:0:0:0:
64,192,29821,1,0,0:0:0:0:
192,192,29821,1,0,0:0:0:0:
320,192,29868,1,0,0:0:0:0:
448,192,29868,1,0,0:0:0:0:
192,192,29915,1,0,0:0:0:0:
64,192,29915,1,0,0:0:0:0:
320,192,29962,1,0,0:0:0:0:
448,192,29962,1,0,0:0:0:0:
192,192,30009,1,0,0:0:0:0:
64,192,30009,1,0,0:0:0:0:
320,192,30055,1,0,0:0:0:0:
448,192,30055,1,0,0:0:0:0:
64,192,30102,1,0,0:0:0:0:
192,192,30102,1,0,0:0:0:0:
448,192,30149,1,0,0:0:0:0:
320,192,30149,1,0,0:0:0:0:
64,192,30196,1,0,0:0:0:0:
192,192,30196,1,0,0:0:0:0:
