osu file format v14

[General]
AudioFilename: audio.mp3
AudioLeadIn: 0
PreviewTime: 126100
Countdown: 0
SampleSet: Soft
StackLeniency: 0.7
Mode: 0
LetterboxInBreaks: 0
WidescreenStoryboard: 1

[Editor]
DistanceSpacing: 2
BeatDivisor: 4
GridSize: 8
TimelineZoom: 1.1

[Metadata]
Title:"Fight the Current (Flashy Mix)" (remix by flashygoodness)
TitleUnicode:"Fight the Current (Flashy Mix)" (remix by flashygoodness)
Artist:Big Giant Circles
ArtistUnicode:Big Giant Circles
Creator:TD_Kerman
Version:Normal
Source:
Tags:8 bit big giant circles nostalgia flashygoodness
BeatmapID:1282224
BeatmapSetID:599431

[Difficulty]
HPDrainRate:3
CircleSize:2
OverallDifficulty:5
ApproachRate:5
SliderMultiplier:0.700000005960464
SliderTickRate:1

[Events]
//Background and Video events
0,0,"dots-and-circles-blue-24173877-2560-1600.jpg",0,0
//Break Periods
2,44195,52900
2,106089,114795
//Storyboard Layer 0 (Background)
//Storyboard Layer 1 (Fail)
//Storyboard Layer 2 (Pass)
//Storyboard Layer 3 (Foreground)
//Storyboard Sound Samples

[TimingPoints]
2311,315.789473684211,4,2,0,75,1,0
44004,-133.333333333333,4,2,0,75,0,0
62951,-100,4,2,0,75,0,0
105898,-133.333333333333,4,2,0,75,0,0
123583,-100,4,2,0,75,0,0
126100,-100,4,2,0,75,0,1
146311,-100,4,2,0,75,0,0

[Colours]
Combo1 : 0,0,160
Combo2 : 0,128,255
Combo3 : 128,0,128
Combo4 : 0,255,255

[HitObjects]
104,72,2311,6,0,P|216:72|304:128,1,210.000001788139
312,224,3574,2,0,P|264:264|176:272,1,140.000001192093
112,208,4521,1,8,0:0:0:0:
176,128,4837,6,0,P|224:112|312:112,1,140.000001192093
392,168,5784,1,8,0:0:0:0:
328,248,6100,2,0,L|184:248,1,140.000001192093
112,184,7047,1,8,0:0:0:0:
176,96,7363,6,0,P|216:128|376:152,1,210.000001788139
456,104,8626,2,0,P|464:56|472:32,2,70.0000005960464
448,200,9574,1,8,0:0:0:0:
384,280,9889,6,0,P|344:296|176:312,1,210.000001788139
120,240,11153,2,0,B|112:208|120:152|192:128,1,140.000001192093
280,120,12100,1,8,0:0:0:0:
376,112,12416,6,0,P|440:72|480:64,2,105.00000089407
328,200,13679,2,0,P|264:240|224:248,2,105.00000089407
328,104,14942,6,0,P|240:72|144:136,1,210.000001788139
112,224,16205,2,0,P|120:296|120:336,2,105.00000089407
48,144,17468,6,0,B|40:88|88:40|208:40,1,210.000001788139
296,56,18732,2,0,P|328:96|416:128,1,140.000001192093
456,216,19679,1,8,0:0:0:0:
384,280,19995,6,0,P|336:288|232:272,1,140.000001192093
168,224,20942,1,8,0:0:0:0:
216,136,21258,2,0,P|248:80|256:40,2,105.00000089407
272,216,22521,6,0,P|328:280|384:280,1,140.000001192093
440,208,23468,1,8,0:0:0:0:
384,128,23784,2,0,P|320:88|248:80,1,140.000001192093
160,88,24732,1,8,0:0:0:0:
192,184,25047,6,0,P|264:200|296:216,2,105.00000089407
96,200,26311,2,0,B|96:296|160:312|232:320|248:320,1,210.000001788139
336,272,27574,6,0,P|344:184|376:136,1,140.000001192093
400,56,28521,1,8,0:0:0:0:
312,80,28837,2,0,P|248:112|168:104,1,140.000001192093
88,88,29784,1,8,0:0:0:0:
96,184,30100,6,0,L|160:224,3,70.0000005960464
248,240,31363,2,0,L|328:240,3,70.0000005960464
392,168,32626,6,0,P|360:104|296:72,1,140.000001192093
272,168,33574,1,8,0:0:0:0:
328,256,33889,2,0,P|400:272|472:240,1,140.000001192093
392,168,34837,1,8,0:0:0:0:
288,152,35153,6,0,P|240:176|176:184,2,105.00000089407
336,64,36416,2,0,P|408:64|448:72,2,105.00000089407
232,64,37679,5,8,0:0:0:0:
152,128,37995,2,0,P|120:192|152:264,1,140.000001192093
224,192,38942,1,8,0:0:0:0:
248,96,39258,2,0,P|192:40|128:32,1,140.000001192093
64,112,40205,6,0,L|112:176,3,70.0000005960464
200,144,41468,2,0,L|248:208,3,70.0000005960464
256,192,42732,12,4,43995,0:0:0:0:
176,176,54100,6,0,P|208:128|256:104,1,105.000004899502
280,208,55047,2,0,B|256:272|184:296|96:264,1,210.000009799004
144,176,56626,6,0,P|96:144|80:96,1,105.000004899502
144,32,57574,2,0,P|200:48|360:56,1,210.000009799004
448,56,59153,6,0,P|448:96|416:160,1,105.000004899502
336,208,60100,1,8,0:0:0:0:
272,136,60416,2,0,P|224:104|128:80,1,157.500007349253
80,168,61679,6,0,L|120:208,1,52.500002449751
192,208,62311,2,0,L|240:248,1,52.500002449751
336,256,62942,1,4,0:0:0:0:
152,104,64205,5,4,0:0:0:0:
216,176,64521,2,0,P|280:208|360:208,1,140.000001192093
416,144,65468,1,8,0:0:0:0:
368,64,65784,2,0,P|304:40|224:40,1,140.000001192093
168,104,66732,5,8,0:0:0:0:
176,200,67047,2,0,P|256:216|304:264,1,140.000001192093
384,224,67995,1,8,0:0:0:0:
424,136,68311,2,0,P|472:80|488:48,2,105.00000089407
328,128,69574,6,0,P|264:96|184:96,1,140.000001192093
120,144,70521,1,8,0:0:0:0:
160,232,70837,2,0,P|240:272|304:272,1,140.000001192093
368,224,71784,5,8,0:0:0:0:
440,160,72100,2,0,P|416:96|360:56,1,140.000001192093
264,64,73047,2,0,P|200:40|152:32,2,105.00000089407
320,144,74311,5,8,0:0:0:0:
248,208,74626,2,0,L|152:160,2,105.00000089407
304,288,75889,2,0,P|384:240|416:192,1,140.000001192093
416,112,76837,5,8,0:0:0:0:
336,64,77153,2,0,P|256:64|136:128,1,210.000001788139
128,216,78416,2,0,P|192:240|216:304,1,140.000001192093
120,312,79363,5,8,0:0:0:0:
40,256,79679,2,0,P|32:216|48:120,1,140.000001192093
136,80,80626,2,0,P|200:120|344:144,1,210.000001788139
416,88,81889,5,8,0:0:0:0:
328,56,82205,2,0,P|272:48|216:24,2,105.00000089407
416,88,83468,2,0,P|448:128|456:224,1,140.000001192093
392,272,84416,6,0,L|320:232,1,70.0000005960464
248,192,85047,1,8,0:0:0:0:
248,88,85363,2,0,P|208:56|120:48,1,140.000001192093
160,144,86311,1,8,0:0:0:0:
256,192,86626,2,0,P|320:160|352:96,1,140.000001192093
256,96,87574,5,8,0:0:0:0:
168,144,87889,2,0,P|152:176|176:272,1,140.000001192093
272,288,88837,2,0,L|336:248,1,70.0000005960464
424,232,89468,6,0,P|440:176|432:88,1,140.000001192093
352,56,90416,1,8,0:0:0:0:
264,88,90732,2,0,P|224:56|168:40,2,105.00000089407
304,176,91995,6,0,L|256:232,3,70.0000005960464
168,256,93258,2,0,L|88:256,3,70.0000005960464
64,168,94521,5,4,0:0:0:0:
136,104,94837,2,0,P|200:104|264:144,1,140.000001192093
176,208,95784,1,4,0:0:0:0:
80,192,96100,2,0,P|40:144|48:64,1,140.000001192093
136,112,97047,5,4,0:0:0:0:
176,200,97363,2,0,P|152:256|72:288,1,140.000001192093
80,184,98311,2,0,P|40:160|0:112,2,105.00000089407
160,136,99574,1,4,0:0:0:0:
248,96,99889,2,0,P|296:96|376:152,1,140.000001192093
304,208,100837,2,0,P|240:240|200:248,2,105.00000089407
400,216,102100,6,0,L|432:152,3,70.0000005960464
400,64,103363,2,0,L|328:48,3,70.0000005960464
256,112,104626,6,0,L|256:152,8,35.0000002980232
56,312,115995,6,0,B|112:280|168:280|200:240,1,157.500007349253
288,240,117258,2,0,B|336:216|352:144|296:104,1,157.500007349253
208,128,118521,6,0,P|184:152|168:176,1,52.500002449751
96,216,119153,1,8,0:0:0:0:
56,128,119468,2,0,P|96:80|232:32,1,210.000009799004
328,48,121047,5,8,0:0:0:0:
400,112,121363,2,0,P|400:160|432:216,1,105.000004899502
488,280,122311,1,8,0:0:0:0:
400,304,122626,2,0,P|336:312|288:312,1,105.000004899502
216,272,123574,6,0,L|192:248,1,26.2500012248755
168,104,124837,1,4,0:0:0:0:
424,64,126100,6,0,L|424:136,3,70.0000005960464
344,184,127363,2,0,L|344:256,3,70.0000005960464
280,320,128626,6,0,L|208:320,3,70.0000005960464
168,240,129889,2,0,L|88:240,3,70.0000005960464
40,160,131153,6,0,B|96:104|176:80|240:80,1,210.000001788139
248,168,132416,2,0,P|344:176|456:224,1,210.000001788139
408,304,133679,6,0,L|328:304,3,70.0000005960464
280,232,134942,2,0,L|224:176,3,70.0000005960464
168,112,136205,6,0,P|104:96|56:72,2,105.00000089407
264,112,137468,2,0,P|328:96|376:72,2,105.00000089407
272,208,138732,6,0,L|344:208,3,70.0000005960464
384,288,139995,2,0,L|464:288,3,70.0000005960464
488,200,141258,6,0,P|464:144|336:56,1,210.000001788139
312,144,142521,2,0,P|336:192|344:248,2,105.00000089407
256,72,143784,6,0,L|176:72,3,70.0000005960464
96,72,145047,2,0,L|56:72,7,35.0000002980232
0,72,146311,5,4,0:0:0:0:
16,168,146626,2,0,P|40:224|112:256,1,140.000001192093
112,160,147574,1,8,0:0:0:0:
192,112,147889,2,0,P|264:96|336:128,1,140.000001192093
256,192,148837,5,4,0:0:0:0:
160,208,149153,2,0,P|104:152|96:88,1,140.000001192093
192,112,150100,1,8,0:0:0:0:
248,192,150416,2,0,P|320:224|320:224,2,70.0000005960464
168,144,151363,5,4,0:0:0:0:
232,80,151679,2,0,P|280:72|368:96,1,140.000001192093
392,184,152626,1,8,0:0:0:0:
328,256,152942,2,0,P|256:280|184:272,1,140.000001192093
120,216,153889,6,0,L|112:168,3,35.0000002980232
144,96,154521,2,0,L|184:80,3,35.0000002980232
256,192,155153,12,4,156416,0:0:0:0:
