osu file format v14

[General]
AudioFilename: audio.mp3
AudioLeadIn: 0
PreviewTime: 126100
Countdown: 0
SampleSet: Soft
StackLeniency: 0.7
Mode: 0
LetterboxInBreaks: 0
WidescreenStoryboard: 1

[Editor]
DistanceSpacing: 2
BeatDivisor: 4
GridSize: 8
TimelineZoom: 1.4

[Metadata]
Title:"Fight the Current (Flashy Mix)" (remix by flashygoodness)
TitleUnicode:"Fight the Current (Flashy Mix)" (remix by flashygoodness)
Artist:Big Giant Circles
ArtistUnicode:Big Giant Circles
Creator:TD_Kerman
Version:Insane
Source:
Tags:8 bit big giant circles nostalgia flashygoodness
BeatmapID:1292135
BeatmapSetID:599431

[Difficulty]
HPDrainRate:6
CircleSize:4
OverallDifficulty:7
ApproachRate:8
SliderMultiplier:1.2
SliderTickRate:1

[Events]
//Background and Video events
0,0,"dots-and-circles-blue-24173877-2560-1600.jpg",0,0
//Break Periods
2,44195,53200
2,106089,115095
//Storyboard Layer 0 (Background)
//Storyboard Layer 1 (Fail)
//Storyboard Layer 2 (Pass)
//Storyboard Layer 3 (Foreground)
//Storyboard Sound Samples

[TimingPoints]
2311,315.789473684211,4,2,0,75,1,0
44004,-133.333333333333,4,2,0,75,0,0
62951,-100,4,2,0,75,0,0
105898,-133.333333333333,4,2,0,75,0,0
123583,-100,4,2,0,75,0,0
126100,-100,4,2,0,75,0,1
146311,-100,4,2,0,75,0,0

[Colours]
Combo1 : 0,0,160
Combo2 : 0,128,255
Combo3 : 128,0,128
Combo4 : 0,255,255

[HitObjects]
72,88,2311,6,0,P|144:80|200:104,1,120
128,208,2784,1,2,0:0:0:0:
248,160,2942,2,0,P|288:128|320:112,1,60
352,32,3258,1,2,0:0:0:0:
384,128,3416,1,2,0:0:0:0:
360,208,3574,6,0,P|336:248|328:288,1,60
448,264,3889,2,2,P|472:216|472:184,1,60
464,112,4205,2,0,P|456:72|424:40,1,60
336,88,4521,2,2,P|296:88|264:80,1,60
152,96,4837,5,0,0:0:0:0:
152,96,4916,1,0,0:0:0:0:
152,96,4995,2,2,P|192:128|208:152,1,60
104,192,5311,2,0,L|104:272,1,60
168,344,5626,1,0,0:0:0:0:
216,232,5784,2,2,L|296:232,1,60
376,328,6100,5,0,0:0:0:0:
376,328,6179,1,0,0:0:0:0:
376,328,6258,1,0,0:0:0:0:
464,232,6416,1,2,0:0:0:0:
352,168,6574,2,0,P|312:152|288:128,1,60
216,72,6889,2,2,L|216:40,1,30
200,72,7047,2,2,L|200:32,1,30
184,72,7205,2,2,L|184:32,1,30
168,72,7363,6,0,P|128:96|80:168,1,120
80,264,7837,2,0,L|160:264,1,60
240,304,8153,2,0,P|280:280|304:248,1,60
192,184,8468,1,2,0:0:0:0:
248,72,8626,6,0,P|304:104|312:112,1,60
376,56,8942,2,2,P|392:104|392:120,1,60
336,192,9258,2,0,P|288:184|256:192,1,60
192,184,9574,2,2,P|200:128|208:112,1,60
216,296,9889,5,0,0:0:0:0:
216,296,9968,1,0,0:0:0:0:
216,296,10047,1,0,0:0:0:0:
344,296,10205,1,2,0:0:0:0:
424,216,10363,2,0,P|392:168|392:144,1,60
488,112,10679,1,0,0:0:0:0:
392,64,10837,2,2,P|336:56|304:56,1,60
240,120,11153,5,0,0:0:0:0:
240,120,11232,1,0,0:0:0:0:
240,120,11311,1,0,0:0:0:0:
336,200,11468,1,2,0:0:0:0:
256,264,11626,2,0,P|200:256|176:248,1,60
120,160,11942,2,2,L|152:160,1,30
120,144,12100,2,2,L|152:144,1,30
120,128,12258,2,2,L|152:128,1,30
120,112,12416,6,0,P|144:64|208:48,1,120
208,160,12889,1,0,0:0:0:0:
296,224,13047,2,0,P|344:192|360:168,1,60
376,112,13363,2,2,L|384:80,3,30
352,32,13679,6,0,P|304:32|272:48,1,60
208,80,13995,2,2,P|232:128|256:144,1,60
144,152,14311,2,0,P|144:200|128:224,1,60
224,256,14626,2,2,P|264:248|296:248,1,60
376,264,14942,6,0,L|392:304,2,30
440,176,15258,1,2,0:0:0:0:
320,176,15416,2,0,L|240:176,1,60
224,80,15732,1,0,0:0:0:0:
112,40,15889,2,2,L|112:104,1,60
136,232,16205,5,2,0:0:0:0:
248,304,16363,1,0,0:0:0:0:
248,304,16442,1,0,0:0:0:0:
248,304,16521,1,0,0:0:0:0:
296,184,16679,2,0,P|320:144|328:112,1,60
400,64,16995,2,2,L|400:32,1,30
416,64,17153,2,2,L|416:32,1,30
432,64,17311,2,2,L|432:32,1,30
448,64,17468,6,0,B|496:80|496:112|496:168,1,120
376,160,17942,1,0,0:0:0:0:
272,104,18100,2,0,P|256:144|248:176,1,60
312,248,18416,2,2,L|352:264,3,30
392,248,18732,6,0,L|392:184,1,60
392,112,19047,2,2,L|320:112,1,60
256,112,19363,2,0,L|256:184,1,60
256,248,19679,2,2,L|320:248,1,60
400,280,19995,6,0,L|424:320,2,30
440,176,20311,1,2,0:0:0:0:
320,176,20468,2,0,L|256:176,1,60
224,80,20784,1,0,0:0:0:0:
112,40,20942,2,2,L|112:104,1,60
120,200,21258,6,2,L|80:224,1,30
128,216,21416,2,2,L|96:240,1,30
136,232,21574,1,2,0:0:0:0:
240,288,21732,2,2,L|256:336,2,30
328,192,22047,2,2,L|288:184,1,30
336,176,22205,2,2,L|296:168,1,30
344,160,22363,2,2,L|304:152,1,30
352,144,22521,6,0,P|328:104|248:64,1,120
168,104,22995,2,0,L|168:176,1,60
48,200,23311,1,0,0:0:0:0:
80,304,23468,2,2,L|168:304,1,60
240,264,23784,6,0,P|280:208|344:192,1,120
336,96,24258,2,0,L|336:32,1,60
248,72,24574,1,0,0:0:0:0:
160,96,24732,2,2,L|160:32,1,60
64,72,25047,6,0,B|40:104|88:144|40:208,1,120
128,272,25521,2,0,L|184:208,1,60
272,208,25837,1,0,0:0:0:0:
288,96,25995,2,2,L|352:152,1,60
368,240,26311,5,0,0:0:0:0:
448,312,26468,2,2,L|488:312,2,30
288,312,26784,2,2,L|240:312,2,30
368,232,27100,2,2,L|332:200,1,30
384,224,27258,2,2,L|352:192,1,30
400,216,27416,2,2,L|368:184,1,30
416,208,27574,6,0,B|448:168|464:120|376:128|416:80,1,120
312,72,28047,2,0,L|272:136,1,60
256,248,28363,1,2,0:0:0:0:
232,120,28521,2,0,L|200:56,1,60
112,56,28837,6,0,P|96:104|112:184,1,120
48,264,29311,2,0,L|136:264,1,60
216,288,29626,1,2,0:0:0:0:
192,176,29784,2,0,L|192:112,1,60
256,40,30100,6,0,P|304:64|320:88,1,60
360,144,30416,2,0,P|360:192|344:224,1,60
304,280,30732,2,0,P|272:296|224:296,1,60
160,280,31047,2,0,P|104:248|96:232,1,60
136,144,31363,6,2,L|184:144,3,30
216,88,31679,2,2,L|272:88,3,30
296,144,31995,2,2,L|344:144,3,30
376,88,32311,2,2,L|424:88,3,30
456,152,32626,6,0,P|424:184|392:264,1,120
312,304,33100,2,0,L|240:304,1,60
248,224,33416,2,2,L|176:224,1,60
80,248,33732,1,2,0:0:0:0:
96,136,33889,6,0,P|152:120|208:56,1,120
280,48,34363,2,0,L|344:48,1,60
344,128,34679,2,2,L|424:128,1,60
496,184,34995,1,2,0:0:0:0:
440,264,35153,6,0,P|416:296|320:328,1,120
248,296,35626,2,0,P|264:248|280:232,1,60
352,192,35942,2,2,P|376:160|384:120,1,60
280,120,36258,1,2,0:0:0:0:
192,56,36416,6,2,L|208:24,2,30
96,32,36732,1,0,0:0:0:0:
88,128,36889,2,2,L|48:128,2,30
128,216,37205,2,2,L|168:216,1,30
128,232,37363,2,2,L|168:232,1,30
128,248,37521,2,2,L|160:248,1,30
128,264,37679,6,0,B|120:312|56:296|48:224,1,120
40,120,38153,1,0,0:0:0:0:
152,64,38311,1,0,0:0:0:0:
168,168,38468,2,2,P|208:160|240:168,1,60
248,272,38784,1,0,0:0:0:0:
352,288,38942,6,0,B|360:336|424:320|432:248,1,120
376,192,39416,1,0,0:0:0:0:
480,136,39574,1,0,0:0:0:0:
464,40,39732,2,2,P|424:32|384:48,1,60
336,104,40047,1,0,0:0:0:0:
256,40,40205,6,0,P|208:64|192:88,1,60
152,144,40521,2,0,P|152:192|168:224,1,60
208,280,40837,2,0,P|240:296|288:296,1,60
352,280,41153,2,0,P|408:248|416:232,1,60
376,144,41468,6,2,L|328:144,3,30
296,88,41784,2,2,L|240:88,3,30
216,144,42100,2,2,L|168:144,3,30
136,88,42416,2,2,L|88:88,3,30
256,192,42732,12,4,43995,0:0:0:0:
96,64,54100,6,0,P|160:64|232:152,1,180.000006866455
112,184,55047,2,0,P|120:224|240:288,1,180.000006866455
336,200,55995,2,0,L|336:96,1,90.0000034332277
224,56,56626,6,0,B|168:88|192:160|96:192,1,180.000006866455
176,296,57574,2,0,B|296:296|296:264|336:208,1,180.000006866455
440,120,58521,2,0,L|336:120,1,90.0000034332277
240,56,59153,6,0,P|208:112|96:152,1,180.000006866455
208,216,60100,2,0,P|232:224|288:272,1,90.0000034332277
400,240,60732,2,0,P|416:176|448:152,1,90.0000034332277
304,112,61363,1,0,0:0:0:0:
240,240,61679,6,2,L|176:240,1,45.0000017166138
368,160,62311,2,2,L|432:160,1,45.0000017166138
120,240,62942,1,4,0:0:0:0:
144,104,64205,6,0,P|208:128|272:128,1,120
384,80,64679,1,0,0:0:0:0:
280,184,64837,1,0,0:0:0:0:
416,120,64995,2,2,L|416:208,1,60
360,280,65311,1,0,0:0:0:0:
240,288,65468,6,2,P|192:256|176:232,1,60
112,264,65784,2,0,P|120:208|136:184,1,60
56,160,66100,2,2,P|96:120|120:112,1,60
80,40,66416,2,0,P|128:40|152:48,1,60
208,128,66732,5,0,0:0:0:0:
312,56,66889,1,2,0:0:0:0:
280,176,67047,2,0,P|256:208|224:232,1,60
136,240,67363,1,0,0:0:0:0:
128,112,67521,1,2,0:0:0:0:
216,48,67679,2,0,L|304:48,1,60
384,96,67995,5,2,0:0:0:0:
384,96,68074,1,2,0:0:0:0:
384,96,68153,1,2,0:0:0:0:
384,104,68232,2,2,L|352:136,1,30
280,192,68468,2,0,P|320:240|328:264,1,60
208,312,68784,2,2,L|208:272,1,30
192,312,68942,2,2,L|192:272,1,30
176,312,69100,2,2,L|176:280,1,30
160,312,69258,6,0,B|120:312|88:312|96:216,1,120
160,160,69732,1,0,0:0:0:0:
48,104,69889,1,0,0:0:0:0:
160,72,70047,2,0,P|208:56|232:40,1,60
325,68,70363,1,2,0:0:0:0:
392,152,70521,6,0,L|333:181,1,60
376,272,70837,2,2,P|339:276|292:264,1,60
176,256,71153,2,0,L|240:224,1,60
192,136,71468,2,2,P|229:132|276:144,1,60
376,152,71784,5,0,0:0:0:0:
296,56,71942,1,2,0:0:0:0:
416,88,72100,2,0,P|448:120|456:144,1,60
448,232,72416,1,0,0:0:0:0:
376,304,72574,1,2,0:0:0:0:
280,328,72732,2,0,L|192:328,1,60
144,248,73047,5,2,0:0:0:0:
144,248,73126,1,2,0:0:0:0:
144,248,73205,1,2,0:0:0:0:
152,240,73284,2,2,L|176:216,1,30
280,192,73521,2,0,P|336:176|352:160,1,60
408,80,73837,2,2,L|408:40,1,30
392,80,73995,2,2,L|392:48,1,30
376,80,74153,2,2,L|376:48,1,30
360,80,74311,6,0,B|296:80|288:120|224:120,1,120
144,32,74784,1,0,0:0:0:0:
128,144,74942,1,0,0:0:0:0:
224,208,75100,2,0,P|288:240|296:248,1,60
360,184,75416,1,2,0:0:0:0:
360,72,75574,6,0,P|320:80|280:72,1,60
224,80,75889,2,2,P|232:120|224:160,1,60
232,216,76205,2,0,P|272:208|312:216,1,60
368,208,76521,2,2,P|360:168|368:128,1,60
472,152,76837,5,0,0:0:0:0:
416,48,76995,1,0,0:0:0:0:
296,56,77153,2,2,P|256:80|232:96,1,60
144,160,77468,1,0,0:0:0:0:
160,48,77626,1,0,0:0:0:0:
48,128,77784,2,2,L|48:208,1,60
112,280,78100,6,2,L|144:288,1,30
120,264,78258,2,2,L|152:272,1,30
128,248,78416,1,2,0:0:0:0:
232,200,78574,2,0,P|280:192|312:176,1,60
272,80,78889,2,2,L|272:48,1,30
288,80,79047,2,2,L|288:48,1,30
304,80,79205,2,2,L|304:40,1,30
320,80,79363,6,0,P|352:80|424:136,1,120
304,168,79837,1,0,0:0:0:0:
424,216,79995,1,0,0:0:0:0:
304,256,80153,2,2,L|224:256,1,60
136,304,80468,1,0,0:0:0:0:
88,208,80626,6,0,L|160:208,1,60
120,112,80942,2,2,L|179:149,1,60
200,40,81258,2,0,L|232:104,1,60
296,24,81574,2,2,L|296:88,1,60
256,184,81889,5,0,0:0:0:0:
320,296,82047,1,0,0:0:0:0:
416,240,82205,2,2,P|424:192|416:160,1,60
368,96,82521,1,0,0:0:0:0:
240,120,82679,1,0,0:0:0:0:
200,232,82837,2,2,P|160:240|128:232,1,60
48,176,83153,6,2,L|80:176,1,30
48,160,83311,2,2,L|88:160,1,30
48,144,83468,1,2,0:0:0:0:
104,80,83626,1,2,0:0:0:0:
104,80,83705,1,2,0:0:0:0:
104,80,83784,1,2,0:0:0:0:
192,40,83942,2,2,L|192:80,1,30
208,40,84100,2,2,L|208:80,1,30
224,40,84258,2,2,L|224:72,1,30
240,40,84416,6,0,B|304:40|352:40|344:72,1,120
256,144,84889,2,0,P|240:176|232:208,1,60
288,304,85205,1,0,0:0:0:0:
416,288,85363,1,0,0:0:0:0:
336,184,85521,1,2,0:0:0:0:
416,80,85679,6,0,P|360:72|280:40,1,120
208,96,86153,2,0,P|184:128|160:144,1,60
64,160,86468,1,0,0:0:0:0:
88,72,86626,1,0,0:0:0:0:
136,216,86784,1,2,0:0:0:0:
256,192,86942,6,0,P|288:176|376:160,1,120
376,256,87416,2,0,P|336:264|312:280,1,60
376,344,87732,1,0,0:0:0:0:
464,264,87889,1,0,0:0:0:0:
464,144,88047,1,2,0:0:0:0:
376,48,88205,1,0,0:0:0:0:
304,120,88363,6,2,L|304:176,2,30
216,64,88679,2,0,P|184:56|144:64,1,60
80,136,88995,2,2,L|112:136,1,30
80,152,89153,2,2,L|120:152,1,30
80,168,89311,2,2,L|120:168,1,30
80,184,89468,6,0,P|104:224|192:256,1,120
232,184,89942,2,0,L|232:104,1,60
304,56,90258,1,0,0:0:0:0:
376,144,90416,1,0,0:0:0:0:
304,232,90574,1,2,0:0:0:0:
216,312,90732,6,0,P|272:328|344:328,1,120
400,264,91205,2,0,L|400:192,1,60
448,72,91521,1,0,0:0:0:0:
480,192,91679,1,0,0:0:0:0:
360,96,91837,1,2,0:0:0:0:
256,144,91995,6,0,L|200:104,1,60
256,240,92311,2,0,L|304:280,1,60
168,192,92626,2,0,L|120:248,1,60
344,192,92942,2,0,L|391:135,1,60
304,72,93258,6,0,L|256:72,3,30
208,136,93574,2,2,L|168:136,1,30
208,152,93732,2,2,L|176:152,1,30
264,216,93889,2,0,L|320:216,3,30
360,280,94205,2,2,L|392:280,1,30
360,296,94363,2,2,L|400:296,1,30
360,312,94521,6,0,P|304:336|232:336,1,120
272,240,94995,1,0,0:0:0:0:
160,200,95153,1,0,0:0:0:0:
272,152,95311,2,0,P|320:136|352:120,1,60
264,56,95626,1,2,0:0:0:0:
160,72,95784,6,0,P|104:104|72:160,1,120
112,248,96258,1,0,0:0:0:0:
216,328,96416,1,0,0:0:0:0:
192,216,96574,2,0,P|192:184|208:136,1,60
296,208,96889,1,2,0:0:0:0:
312,104,97047,6,0,P|384:112|440:152,1,120
472,232,97521,1,0,0:0:0:0:
360,256,97679,1,0,0:0:0:0:
448,328,97837,2,0,P|416:344|368:352,1,60
264,320,98153,1,2,0:0:0:0:
200,208,98311,6,0,L|240:176,2,30
88,200,98626,1,2,0:0:0:0:
72,88,98784,2,0,L|40:120,2,30
184,64,99100,2,2,L|184:32,1,30
200,64,99258,2,2,L|200:32,1,30
216,64,99416,2,2,L|216:24,1,30
232,64,99574,6,0,B|288:64|304:112|360:112,1,120
304,264,100047,2,0,P|256:256|192:216,1,120
320,184,100521,2,2,P|360:200|392:224,1,60
376,312,100837,6,0,P|336:344|256:344,1,120
144,288,101311,2,0,P|112:224|120:176,1,120
168,96,101784,2,2,P|120:72|104:48,1,60
256,144,102100,6,0,L|312:104,1,60
256,240,102416,2,0,L|208:280,1,60
344,192,102731,2,0,L|392:248,1,60
168,192,103047,2,0,L|121:135,1,60
208,72,103363,6,0,L|256:72,3,30
304,136,103679,2,2,L|344:136,1,30
304,152,103837,2,2,L|336:152,1,30
248,216,103995,2,0,L|192:216,3,30
152,280,104311,2,2,L|120:280,1,30
152,296,104468,2,2,L|112:296,1,30
256,192,104626,12,4,105889,0:0:0:0:
400,72,115995,6,0,P|376:144|272:200,1,180.000006866455
264,72,116942,2,0,B|224:56|168:72|152:128|128:184,1,180.000006866455
256,264,117889,2,0,L|352:264,1,90.0000034332277
440,136,118521,6,0,B|384:88|336:184|256:112,1,180.000006866455
192,232,119468,2,0,P|152:192|168:64,1,180.000006866455
320,88,120416,2,0,L|320:184,1,90.0000034332277
472,224,121047,6,0,P|432:264|296:288,1,180.000006866455
264,128,121995,2,0,P|232:88|192:72,1,90.0000034332277
184,232,122626,2,0,P|216:272|256:288,1,90.0000034332277
352,232,123258,1,0,0:0:0:0:
376,72,123574,6,0,L|320:96,1,45.0000017166138
304,104,123889,1,2,0:0:0:0:
112,192,124205,2,0,L|176:224,1,60
192,232,124521,1,2,0:0:0:0:
415,173,124837,1,4,0:0:0:0:
160,184,125468,2,2,L|160:136,1,30
184,184,125626,2,2,L|184:144,1,30
208,184,125784,2,2,L|208:144,1,30
232,184,125942,2,2,L|232:144,1,30
256,120,126100,6,0,L|304:96,3,30
352,136,126416,2,0,L|368:176,3,30
328,232,126732,2,0,L|296:248,3,30
224,200,127047,2,0,L|176:200,3,30
136,128,127363,6,2,L|168:128,1,30
136,112,127521,2,2,L|168:112,1,30
136,96,127679,2,2,L|168:96,1,30
136,80,127837,2,2,L|168:80,1,30
56,80,127995,2,2,L|24:80,1,30
56,96,128153,2,2,L|24:96,1,30
56,112,128311,2,2,L|16:112,1,30
56,128,128468,2,2,L|24:128,1,30
32,208,128626,6,0,L|72:232,3,30
128,176,128942,2,0,L|176:160,3,30
240,128,129258,2,2,L|256:80,1,30
256,136,129416,2,2,L|272:88,1,30
272,144,129574,2,2,L|288:104,1,30
288,152,129732,2,2,L|304:112,1,30
376,112,129889,6,0,L|376:160,3,30
344,216,130205,2,0,L|296:232,3,30
232,264,130521,2,2,L|264:280,1,30
224,280,130679,2,2,L|256:296,1,30
216,296,130837,2,2,L|256:320,1,30
208,312,130995,2,2,L|248:336,1,30
312,320,131153,6,0,L|360:288,3,30
368,232,131468,2,2,L|400:232,1,30
344,216,131626,2,2,L|304:216,1,30
256,168,131784,2,0,L|216:144,3,30
168,80,132100,2,2,L|200:80,1,30
152,96,132258,2,2,L|120:96,1,30
88,160,132416,6,0,L|88:200,3,30
152,248,132732,2,2,L|152:288,1,30
192,248,132889,2,2,L|192:208,1,30
232,248,133047,2,2,L|232:288,1,30
272,248,133205,2,2,L|272:208,1,30
312,248,133363,2,2,L|312:288,1,30
352,248,133521,2,2,L|352:216,1,30
400,168,133679,6,0,L|424:128,3,30
416,64,133995,2,0,L|368:56,3,30
320,96,134311,2,0,L|288:96,3,30
224,128,134626,2,2,L|224:160,1,30
192,144,134784,2,2,L|192:176,1,30
256,224,134942,6,0,L|280:256,3,30
328,312,135258,2,2,L|272:312,1,30
352,288,135416,2,2,L|384:288,1,30
416,216,135574,2,0,L|432:176,3,30
440,112,135889,2,2,L|480:112,1,30
424,88,136047,2,2,L|392:88,1,30
304,88,136205,6,0,L|248:88,3,30
272,160,136521,2,0,L|224:160,3,30
304,224,136837,2,0,L|344:224,3,30
344,296,137153,2,0,L|384:296,3,30
264,296,137468,6,2,L|264:336,1,30
232,296,137626,2,2,L|232:328,1,30
200,296,137784,2,2,L|200:264,1,30
168,296,137942,2,2,L|168:256,1,30
208,200,138100,2,0,L|248:160,3,30
176,120,138416,2,0,L|216:80,3,30
280,80,138732,6,2,L|280:48,1,30
312,80,138889,2,2,L|312:40,1,30
344,80,139047,2,2,L|344:120,1,30
376,80,139205,2,2,L|376:120,1,30
424,168,139363,2,0,L|392:200,3,30
328,184,139679,2,0,L|288:168,3,30
192,136,139995,6,0,L|248:136,3,30
224,208,140311,2,0,L|272:208,3,30
192,272,140627,2,0,L|152:272,3,30
152,344,140943,2,0,L|112:344,3,30
80,272,141258,6,2,L|48:272,1,30
80,248,141416,2,2,L|48:248,1,30
88,176,141574,2,0,L|112:144,3,30
176,112,141889,2,2,L|176:80,1,30
200,112,142047,2,2,L|200:72,1,30
272,152,142205,2,0,L|320:184,3,30
384,160,142521,6,2,L|360:128,1,30
408,144,142679,2,2,L|384:112,1,30
352,56,142837,2,0,L|296:56,3,30
248,104,143153,2,2,L|248:136,1,30
216,104,143311,2,2,L|216:144,1,30
256,208,143468,2,0,L|224:224,3,30
136,248,143784,6,0,L|104:208,3,30
120,136,144100,2,0,L|152:96,3,30
224,80,144416,2,0,L|272:80,3,30
336,120,144732,2,0,L|368:152,3,30
296,192,145047,6,2,L|328:192,1,30
280,216,145205,2,2,L|304:240,1,30
256,232,145363,2,2,L|256:264,1,30
232,216,145521,2,2,L|200:248,1,30
216,192,145679,2,2,L|176:192,1,30
232,168,145837,2,2,L|200:136,1,30
256,152,145995,2,2,L|256:120,1,30
280,168,146153,2,2,L|312:136,1,30
296,192,146311,6,2,B|336:208|384:208|424:168,1,120
352,80,146784,2,0,P|304:64|272:64,1,60
192,88,147100,1,0,0:0:0:0:
192,88,147179,1,0,0:0:0:0:
192,88,147258,2,2,L|120:88,1,60
56,160,147574,6,0,P|120:208|144:264,1,120
240,216,148047,2,0,P|272:224|312:248,1,60
400,304,148363,1,0,0:0:0:0:
400,304,148442,1,0,0:0:0:0:
400,304,148521,2,2,P|440:272|448:240,1,60
432,152,148837,6,2,P|392:160|312:160,1,120
312,64,149311,2,0,P|264:64|232:80,1,60
208,176,149626,1,0,0:0:0:0:
208,176,149705,1,0,0:0:0:0:
208,176,149784,2,2,P|232:200|272:224,1,60
344,216,150100,5,2,0:0:0:0:
352,224,150179,1,2,0:0:0:0:
352,224,150258,1,2,0:0:0:0:
424,144,150416,2,0,P|408:112|368:80,1,60
384,88,150653,1,2,0:0:0:0:
376,80,150732,1,2,0:0:0:0:
264,72,150889,2,2,L|264:40,1,30
232,72,151047,2,2,L|232:32,1,30
200,72,151205,2,2,L|200:40,1,30
168,72,151363,6,2,P|136:104|40:128,1,120
24,224,151837,2,0,P|48:256|88:272,1,60
176,224,152153,1,0,0:0:0:0:
176,224,152232,1,0,0:0:0:0:
176,224,152311,2,2,P|200:192|240:176,1,60
288,264,152626,6,2,P|384:264|424:256,1,120
376,168,153100,2,0,P|336:152|304:120,1,60
224,72,153416,1,0,0:0:0:0:
224,72,153495,1,0,0:0:0:0:
224,72,153574,2,2,L|224:144,1,60
320,192,153889,5,0,0:0:0:0:
192,224,154047,1,0,0:0:0:0:
320,256,154205,1,0,0:0:0:0:
192,288,154363,1,0,0:0:0:0:
320,288,154521,5,2,0:0:0:0:
192,256,154679,1,2,0:0:0:0:
320,224,154837,1,2,0:0:0:0:
192,200,154995,1,2,0:0:0:0:
256,192,155153,12,4,156416,0:0:0:0:
