osu file format v14

[General]
AudioFilename: audio.mp3
AudioLeadIn: 0
PreviewTime: 126100
Countdown: 0
SampleSet: Soft
StackLeniency: 0.7
Mode: 0
LetterboxInBreaks: 0
WidescreenStoryboard: 1

[Editor]
DistanceSpacing: 2
BeatDivisor: 4
GridSize: 8
TimelineZoom: 1.1

[Metadata]
Title:"Fight the Current (Flashy Mix)" (remix by flashygoodness)
TitleUnicode:"Fight the Current (Flashy Mix)" (remix by flashygoodness)
Artist:Big Giant Circles
ArtistUnicode:Big Giant Circles
Creator:TD_Kerman
Version:Advanced
Source:
Tags:8 bit big giant circles nostalgia flashygoodness
BeatmapID:1277785
BeatmapSetID:599431

[Difficulty]
HPDrainRate:3
CircleSize:3
OverallDifficulty:5
ApproachRate:5
SliderMultiplier:0.699999999999999
SliderTickRate:1

[Events]
//Background and Video events
0,0,"dots-and-circles-blue-24173877-2560-1600.jpg",0,0
//Break Periods
2,44195,52900
2,106089,114795
//Storyboard Layer 0 (Background)
//Storyboard Layer 1 (Fail)
//Storyboard Layer 2 (Pass)
//Storyboard Layer 3 (Foreground)
//Storyboard Sound Samples

[TimingPoints]
2311,315.789473684211,4,2,0,75,1,0
44004,-133.333333333333,4,2,0,75,0,0
62951,-100,4,2,0,75,0,0
105898,-133.333333333333,4,2,0,75,0,0
123583,-100,4,2,0,75,0,0
126100,-100,4,2,0,75,0,1
146311,-100,4,2,0,75,0,0

[Colours]
Combo1 : 0,0,128
Combo2 : 0,128,255
Combo3 : 128,0,128
Combo4 : 0,255,255

[HitObjects]
96,88,2311,6,0,P|200:64|240:64,1,140
328,104,3258,1,8,0:0:0:0:
424,104,3574,2,0,L|440:184,1,69.9999999999999
368,248,4205,2,0,P|336:288|312:296,1,69.9999999999999
248,200,4837,6,0,L|248:160,2,35
200,240,5311,2,0,P|144:232|104:200,1,105
112,96,6100,2,0,L|88:56,2,35
168,112,6574,2,0,P|216:128|240:128,1,69.9999999999999
288,128,7047,2,0,L|320:88,1,35
360,80,7363,6,0,P|408:144|416:208,1,140
328,232,8311,1,8,0:0:0:0:
272,304,8626,2,0,P|224:280|208:256,1,69.9999999999999
120,256,9258,2,0,P|96:216|88:184,1,69.9999999999999
128,88,9889,6,0,L|160:48,2,35
152,152,10363,2,0,P|192:176|256:184,1,105
336,112,11153,2,0,L|360:72,2,35
368,168,11626,2,0,P|392:216|392:240,1,69.9999999999999
352,280,12100,2,0,L|304:296,1,35
248,288,12416,6,0,B|200:272|160:216|144:184,1,140
96,104,13363,2,0,L|56:72,2,35
176,56,13995,1,8,0:0:0:0:
240,128,14311,1,0,0:0:0:0:
304,56,14626,1,8,0:0:0:0:
376,128,14942,6,0,P|416:112|464:64,2,105
344,224,16205,2,0,L|384:248,2,35
288,248,16679,2,0,P|256:248|208:232,1,69.9999999999999
176,192,17153,2,0,L|168:144,1,35
160,96,17468,6,0,B|136:56|96:32|40:56|32:64,1,140
32,168,18416,2,0,L|-8:176,2,35
120,224,19047,1,8,0:0:0:0:
120,128,19363,1,0,0:0:0:0:
216,128,19679,1,8,0:0:0:0:
304,192,19995,6,0,P|336:144|384:120,2,105
224,272,21258,2,0,L|264:288,2,35
176,232,21732,2,0,L|160:184,2,35
128,280,22205,2,0,L|80:288,1,35
32,256,22521,6,0,P|32:192|72:112,1,140
144,80,23468,2,0,L|184:96,1,35
240,96,23784,2,0,P|288:80|384:104,1,140
408,208,24732,2,0,L|368:192,1,35
328,240,25047,6,0,L|288:224,1,35
256,184,25363,2,0,P|232:136|152:96,1,140
96,176,26311,1,0,0:0:0:0:
160,248,26626,1,8,0:0:0:0:
256,264,26942,1,0,0:0:0:0:
320,176,27258,2,8,L|352:152,1,35
408,128,27574,6,0,L|448:152,1,35
448,200,27889,2,0,P|400:256|392:320,1,140
296,320,28837,2,0,L|248:304,1,35
208,280,29153,2,0,P|160:224|152:152,1,140
216,80,30100,5,0,0:0:0:0:
240,176,30416,1,8,0:0:0:0:
288,256,30732,1,8,0:0:0:0:
336,176,31047,1,8,0:0:0:0:
360,80,31363,2,0,L|320:64,1,35
272,64,31679,2,0,L|232:88,1,35
176,64,31995,2,0,L|128:48,1,35
88,88,32311,2,4,L|72:136,1,35
88,192,32626,6,0,B|184:192|184:200|240:200,1,140
192,296,33574,2,8,L|240:304,1,35
296,304,33889,2,0,P|336:232|384:192,1,140
424,80,34837,2,8,L|384:80,1,35
336,120,35153,6,0,L|288:120,1,35
240,136,35468,2,0,B|224:168|192:200|128:208|120:200,1,140
64,120,36416,1,0,0:0:0:0:
152,80,36732,1,8,0:0:0:0:
240,40,37047,1,8,0:0:0:0:
328,80,37363,1,8,0:0:0:0:
336,176,37679,6,0,P|336:208|328:248,1,69.9999999999999
272,280,38153,2,0,P|232:288|192:280,1,69.9999999999999
168,224,38626,2,8,L|136:200,1,35
152,136,38942,2,0,P|200:120|224:104,1,69.9999999999999
256,56,39416,2,0,P|272:48|328:40,1,69.9999999999999
384,40,39889,2,8,L|384:88,1,35
320,144,40205,5,0,0:0:0:0:
416,176,40521,1,8,0:0:0:0:
336,248,40837,1,0,0:0:0:0:
256,312,41153,1,8,0:0:0:0:
152,288,41468,2,4,L|120:256,1,35
136,200,41784,2,4,L|136:160,1,35
192,136,42100,2,4,L|224:104,1,35
280,112,42416,2,4,L|328:112,1,35
256,192,42732,12,4,43995,0:0:0:0:
80,64,54100,6,0,P|112:104|168:112,1,105.000004005432
264,112,55047,2,0,B|320:112|336:200|312:280|264:280,1,210.000008010864
176,248,56626,6,0,B|168:192|144:184|136:144,1,105.000004005432
208,72,57574,2,0,B|288:72|288:128|352:104|352:160|400:160,1,210.000008010864
432,256,59153,6,0,P|400:288|336:296,1,105.000004005432
248,240,60100,2,0,P|248:192|208:144,1,105.000004005432
128,96,61047,2,0,L|160:48,1,52.5000020027161
264,72,61679,6,0,L|264:40,2,26.250001001358
272,136,62153,2,0,P|304:184|328:192,1,78.7500030040741
400,128,62942,1,4,0:0:0:0:
136,96,64205,5,4,0:0:0:0:
208,160,64521,2,0,P|248:184|280:184,1,69.9999999999999
352,128,65153,2,0,L|368:88,2,35
384,224,65784,1,8,0:0:0:0:
464,160,66100,1,0,0:0:0:0:
480,256,66416,1,8,0:0:0:0:
408,328,66732,6,0,L|360:328,1,35
312,320,67047,2,0,P|272:296|232:200,1,140
248,88,67995,2,0,L|288:72,2,35
184,96,68468,2,0,P|152:80|104:72,1,69.9999999999999
56,80,68942,2,8,L|56:120,1,35
56,176,69258,5,4,0:0:0:0:
136,240,69574,2,0,P|176:208|208:200,1,69.9999999999999
288,160,70205,2,0,L|304:120,2,35
304,256,70837,1,8,0:0:0:0:
200,256,71153,1,0,0:0:0:0:
256,168,71468,1,8,0:0:0:0:
328,264,71784,6,0,L|368:264,1,35
408,216,72100,2,0,P|360:152|344:80,1,140
264,48,73047,2,8,L|216:48,1,35
184,96,73363,2,0,P|152:144|96:168,1,105
48,144,73995,2,8,L|32:104,1,35
48,48,74311,5,4,0:0:0:0:
144,32,74626,2,0,P|192:40|224:56,1,69.9999999999999
248,136,75258,2,8,L|248:176,1,35
248,240,75574,1,0,0:0:0:0:
336,184,75889,1,8,0:0:0:0:
336,280,76205,1,0,0:0:0:0:
424,232,76521,1,8,0:0:0:0:
432,128,76837,6,0,L|408:88,1,35
360,56,77153,2,0,P|304:104|232:120,1,140
144,104,78100,2,8,L|152:152,1,35
160,192,78416,1,0,0:0:0:0:
96,208,78574,2,0,P|48:144|40:112,1,105
112,48,79363,5,4,0:0:0:0:
192,96,79679,2,0,P|240:112|272:112,1,69.9999999999999
360,112,80311,2,8,L|376:160,1,35
392,200,80626,1,0,0:0:0:0:
312,256,80942,1,8,0:0:0:0:
248,184,81258,1,0,0:0:0:0:
168,240,81574,2,8,L|136:256,1,35
80,264,81889,6,0,P|64:216|32:168,2,105
152,320,83153,1,0,0:0:0:0:
240,296,83468,2,8,L|240:248,1,35
240,208,83784,2,0,L|288:192,1,35
328,176,84100,2,8,L|328:128,1,35
328,80,84416,6,0,P|264:80|216:64,2,105
408,136,85679,2,0,P|416:192|440:240,2,105
408,40,86942,6,8,L|360:40,1,35
320,48,87258,2,0,P|272:64|224:104,1,105
200,144,87889,2,0,L|200:192,1,35
224,232,88205,2,0,P|288:272|312:304,2,105
128,208,89468,6,0,L|24:208,2,105
200,144,90732,2,0,L|312:144,2,105
104,96,91995,6,0,L|144:64,3,35
192,48,92626,2,0,L|240:48,3,35
288,48,93258,2,0,L|320:80,1,35
320,120,93574,2,8,L|320:160,1,35
328,208,93889,2,0,L|360:240,1,35
400,256,94205,2,8,L|448:256,1,35
472,168,94521,6,0,P|424:120|320:88,1,175
264,88,95468,2,0,L|224:120,1,35
192,152,95784,1,4,0:0:0:0:
104,112,96100,1,8,0:0:0:0:
56,144,96258,2,0,P|40:192|80:280,1,140
128,272,97047,5,0,0:0:0:0:
176,192,97363,2,8,L|208:160,1,35
248,128,97679,1,0,0:0:0:0:
288,208,97995,2,8,L|328:232,1,35
384,232,98311,2,0,P|424:160|376:48,1,210
280,56,99574,6,0,L|240:80,1,35
200,104,99889,1,8,0:0:0:0:
280,168,100205,2,0,L|240:192,1,35
200,216,100521,1,8,0:0:0:0:
280,272,100837,2,0,L|328:272,1,35
368,272,101153,1,8,0:0:0:0:
344,184,101468,2,0,L|392:184,1,35
440,184,101784,1,8,0:0:0:0:
432,88,102100,6,0,L|392:72,3,35
336,64,102732,2,0,L|288:72,3,35
256,112,103363,2,4,L|256:160,1,35
208,216,103679,2,8,L|256:216,1,35
312,256,103995,2,4,L|312:216,1,35
360,176,104311,2,8,L|312:176,1,35
256,192,104626,12,4,105889,0:0:0:0:
256,256,115995,6,0,P|304:264|344:264,2,78.7500030040741
176,200,117258,2,0,P|192:152|272:80,1,157.500006008148
360,128,118521,6,0,L|432:88,2,78.7500030040741
336,208,119784,2,0,B|248:224|240:216|176:232,1,157.500006008148
120,152,121047,6,0,L|160:104,1,52.5000020027161
240,80,121679,1,0,0:0:0:0:
320,120,121995,2,0,P|376:96|400:80,2,78.7500030040741
240,160,123258,1,0,0:0:0:0:
160,200,123574,6,8,L|128:208,1,26.250001001358
134,206,124837,1,4,0:0:0:0:
272,272,126100,6,0,L|320:256,3,35
352,224,126732,2,0,L|352:176,3,35
352,128,127363,2,0,L|312:96,3,35
272,88,127995,2,0,P|208:120|160:120,1,105
128,160,128626,6,0,L|144:200,3,35
184,232,129258,2,0,L|232:232,3,35
272,224,129889,2,0,L|296:192,1,35
336,160,130205,2,8,L|376:152,1,35
376,80,130521,2,0,L|328:80,1,35
280,96,130837,2,8,L|256:128,1,35
272,192,131153,6,0,P|288:240|320:296,2,105
248,144,132258,1,8,0:0:0:0:
200,120,132416,2,0,L|152:104,1,35
168,48,132732,2,8,L|216:40,1,35
264,40,133047,2,0,L|312:40,3,35
360,72,133679,6,0,P|416:64|464:48,2,105
328,120,134784,1,8,0:0:0:0:
352,176,134942,2,0,L|360:216,1,35
312,248,135258,2,8,L|264:256,1,35
232,208,135574,2,0,L|192:216,3,35
136,200,136205,6,0,L|136:160,1,35
136,104,136521,2,8,L|88:104,1,35
40,104,136837,2,4,L|40:144,1,35
40,200,137153,2,8,L|88:200,1,35
136,208,137468,2,0,L|176:240,3,35
224,240,138100,2,0,L|264:216,3,35
312,192,138732,6,0,L|312:152,1,35
312,96,139047,2,8,L|360:96,1,35
408,96,139363,2,4,L|408:144,1,35
408,192,139679,2,8,L|360:192,1,35
312,192,139995,2,0,L|288:232,3,35
232,232,140626,2,0,L|200:200,3,35
176,160,141258,5,8,0:0:0:0:
136,112,141416,2,0,L|136:72,2,35
96,160,141889,1,8,0:0:0:0:
96,216,142047,2,0,L|120:248,1,35
168,272,142363,1,8,0:0:0:0:
224,280,142521,2,0,P|280:280|368:240,1,140
400,216,143311,2,0,L|448:224,2,35
360,176,143784,6,0,L|336:144,3,35
304,96,144416,2,0,L|256:96,3,35
208,96,145047,2,4,L|208:136,1,35
208,192,145363,2,4,L|160:192,1,35
112,192,145679,2,8,L|112:160,4,17.5
136,88,146311,6,0,L|176:64,1,35
224,56,146626,1,8,0:0:0:0:
280,64,146784,2,0,P|336:80|368:112,1,105
392,160,147416,1,8,0:0:0:0:
368,208,147574,2,0,P|400:248|416:304,2,105
312,208,148679,1,8,0:0:0:0:
256,208,148837,6,0,P|208:192|184:168,1,69.9999999999999
168,128,149311,1,8,0:0:0:0:
152,80,149468,2,0,L|120:48,1,35
72,64,149784,2,0,P|56:120|144:248,1,210
184,248,150889,2,8,L|232:232,1,35
272,216,151205,1,0,0:0:0:0:
336,208,151363,5,8,0:0:0:0:
400,208,151521,2,0,P|448:256|480:296,2,105
392,152,152626,1,8,0:0:0:0:
408,96,152784,2,0,P|464:64|496:32,2,105
360,72,153889,6,12,L|312:72,1,35
264,80,154205,2,12,L|264:128,1,35
192,120,154521,2,12,L|192:80,1,35
136,72,154837,2,14,L|88:72,1,35
256,192,155232,12,4,156416,0:0:0:0:
