osu file format v14

[General]
AudioFilename: audio.ogg
AudioLeadIn: 0
PreviewTime: 67476
Countdown: 0
SampleSet: Soft
StackLeniency: 0.7
Mode: 0
LetterboxInBreaks: 0
WidescreenStoryboard: 0

[Editor]
Bookmarks: 33873,67577,90047,123751,146220,179924,202393,213628
DistanceSpacing: 1.4
BeatDivisor: 4
GridSize: 4
TimelineZoom: 1.7

[Metadata]
Title:Shine Blockas feat. Gucci Mane
TitleUnicode:Shine Blockas feat. Gucci Mane
Artist:Big Boi
ArtistUnicode:Big Boi
Creator:Fsjallink
Version:My High
Source:
Tags:english hip hop pop outkast antwan andre patton gucci mane radric delantic davis sir lucious left foot the son of chico dusty dj cutmaster swiff archie hall album version
BeatmapID:4142155
BeatmapSetID:1993272

[Difficulty]
HPDrainRate:6
CircleSize:4
OverallDifficulty:8
ApproachRate:9
SliderMultiplier:1.4
SliderTickRate:1

[Events]
//Background and Video events
0,0,"gangstashit.jpg",0,0
//Break Periods
2,146418,150534
2,152036,156050
//Storyboard Layer 0 (Background)
//Storyboard Layer 1 (Fail)
//Storyboard Layer 2 (Pass)
//Storyboard Layer 3 (Foreground)
//Storyboard Layer 4 (Overlay)
//Storyboard Sound Samples

[TimingPoints]
0,350.877192982456,4,2,0,40,1,0
0,-133.333333333333,4,2,0,40,0,0
4912,-200,4,2,0,60,0,0
8574,351.133869787857,4,2,0,40,1,0
10505,-100,4,2,0,50,0,0
11383,-83.3333333333333,4,2,0,60,0,0
17527,-66.6666666666667,4,2,0,60,0,0
18054,-83.3333333333333,4,2,0,60,0,0
23146,-66.6666666666667,4,2,0,60,0,0
23672,-83.3333333333333,4,2,0,60,0,0
28764,-66.6666666666667,4,2,0,60,0,0
29290,-83.3333333333333,4,2,0,60,0,0
33855,-133.333333333333,4,2,0,40,0,0
45091,-100,4,2,0,50,0,0
64755,-90.9090909090909,4,2,0,60,0,0
65457,-83.3333333333333,4,2,0,60,0,0
67564,-76.9230769230769,4,2,0,70,0,1
90037,-133.333333333333,4,2,0,40,0,0
101273,-100,4,2,0,50,0,0
117776,-71.4285714285714,4,2,0,50,0,0
120936,-71.4285714285714,4,2,0,60,0,0
123394,-58.8235294117647,4,2,0,60,0,0
123745,-76.9230769230769,4,2,0,70,0,1
144813,-133.333333333333,4,2,0,40,0,0
146218,-133.333333333333,4,2,0,50,0,0
151134,-100,4,2,0,50,0,0
167286,-133.333333333333,4,2,0,40,0,0
168691,-100,4,2,0,50,0,0
173958,-83.3333333333333,4,2,0,50,0,0
177118,-83.3333333333333,4,2,0,60,0,0
179927,-71.4285714285714,4,2,0,70,0,1
202399,-100,4,2,0,50,0,0
208018,-111.111111111111,4,2,0,45,0,0
209071,-125,4,2,0,40,0,0
210827,-142.857142857143,4,2,0,35,0,0
212231,-166.666666666667,4,2,0,30,0,0
212971,351.133869787857,4,2,0,30,1,0
212971,-166.666666666667,4,2,0,30,0,0
213628,351.133869787857,4,2,0,30,1,0
216437,-166.666666666667,4,2,0,25,0,0
217841,-166.666666666667,4,2,0,20,0,0
219246,-166.666666666667,4,2,0,15,0,0
220650,-166.666666666667,4,2,0,10,0,0
222055,-166.666666666667,4,2,0,5,0,0

[Colours]
Combo1 : 17,254,176
Combo2 : 173,255,95
Combo3 : 255,88,100
Combo4 : 255,94,55

[HitObjects]
387,158,0,6,0,P|452:151|498:149,2,105.000004005432,4|2|2,1:2|0:0|0:0,0:0:0:0:
387,158,1052,2,0,P|392:124|392:100,1,52.5000020027161,2|0,0:1|0:0,0:0:0:0:
255,194,1403,2,0,P|286:190|316:189,1,52.5000020027161,2|0,0:0|0:0,0:0:0:0:
453,236,1754,2,0,P|451:278|395:313,1,105.000004005432,2|0,0:0|3:0,0:0:0:0:
299,353,2280,1,0,3:0:0:0:
299,353,2456,2,0,L|304:294,1,52.5000020027161,0|0,3:0|3:0,0:0:0:0:
298,99,2807,6,2,P|236:103|159:273,1,262.500010013581,2|2,0:0|0:0,0:1:0:0:
155,263,4210,2,0,L|230:253,1,52.5000020027161,2|0,3:0|3:0,0:0:0:0:
282,317,4561,2,0,L|357:307,1,52.5000020027161,0|0,3:0|3:0,0:0:0:0:
428,359,4912,2,0,L|500:349,1,70,2|2,3:0|0:0,0:0:0:0:
496,34,5614,6,2,P|426:37|393:49,1,105,4|2,1:2|0:0,0:1:0:0:
282,132,6315,2,2,P|262:111|273:71,1,70,2|0,3:0|0:0,0:1:0:0:
350,32,8925,5,2,0:1:0:0:
352,60,9627,1,2,0:1:0:0:
354,87,10329,1,2,0:1:0:0:
420,157,10505,2,0,L|444:158,4,17.5,8|0|0|0|0,3:2|0:0|3:2|0:0|3:2,0:0:0:0:
211,133,10856,1,8,0:2:0:0:
211,133,10944,1,8,0:2:0:0:
211,133,11031,1,10,0:1:0:0:
305,242,11207,1,10,0:1:0:0:
193,33,11383,6,0,P|133:59|114:161,1,167.999994873047,4|2,1:2|0:3,0:0:0:0:
68,308,11909,1,0,1:2:0:0:
285,266,12085,2,0,P|240:233|182:244,1,83.9999974365235,8|2,0:0|0:0,0:0:0:0:
29,73,12436,1,0,1:2:0:0:
29,73,12612,1,0,1:2:0:0:
68,187,12787,2,0,P|125:177|165:169,1,83.9999974365235,2|2,0:0|0:3,0:0:0:0:
415,242,13138,2,0,P|418:295|385:341,1,83.9999974365235,0|2,1:2|0:0,0:0:0:0:
217,348,13489,5,10,0:0:0:0:
161,186,13665,1,8,0:3:0:0:
328,266,13841,1,4,0:3:0:0:
429,124,14016,1,4,0:3:0:0:
219,79,14192,6,0,P|249:138|362:157,1,167.999994873047,4|2,1:2|0:3,0:0:0:0:
340,21,14718,1,0,1:2:0:0:
330,249,14894,2,0,P|402:235|424:224,1,83.9999974365235,8|2,0:0|0:0,0:0:0:0:
504,20,15245,2,0,P|432:34|410:45,1,83.9999974365235,0|0,1:2|1:2,0:0:0:0:
261,178,15596,5,2,0:0:0:0:
116,103,15772,1,0,1:2:0:0:
244,37,15947,1,0,1:2:0:0:
198,262,16123,1,2,0:0:0:0:
261,178,16298,2,0,L|352:185,1,83.9999974365235,8|8,0:0|0:3,0:0:0:0:
176,337,16650,2,0,L|85:330,1,83.9999974365235,6|4,0:3|0:3,0:0:0:0:
19,88,17001,6,0,P|85:81|190:119,1,167.999994873047,4|2,1:2|0:3,0:0:0:0:
330,78,17527,2,0,P|332:137|300:210,1,105.000004005432,0|8,1:3|0:0,0:0:0:0:
318,180,18054,1,0,1:2:0:0:
51,271,18230,2,0,P|58:215|77:167,1,83.9999974365235,0|2,1:2|0:2,0:0:0:0:
170,46,18581,1,0,1:2:0:0:
231,265,18756,2,0,P|152:244|133:229,1,83.9999974365235,0|2,1:2|0:2,0:0:0:0:
331,20,19108,2,0,P|381:47|396:159,1,167.999994873047,8|4,0:2|1:3,0:0:0:0:
473,258,19634,1,4,1:3:0:0:
312,113,19810,6,0,P|295:182|297:226,1,83.9999974365235,4|0,1:2|0:0,0:0:0:0:
196,369,20161,1,2,0:3:0:0:
171,235,20336,1,0,1:2:0:0:
380,276,20512,1,10,0:1:0:0:
380,276,20863,6,0,P|330:286|282:298,1,83.9999974365235,2|0,1:2|1:2,0:0:0:0:
47,216,21214,2,0,P|44:171|51:117,1,83.9999974365235,2|0,0:0|1:2,0:0:0:0:
254,223,21565,1,2,1:2:0:0:
72,109,21741,1,2,0:0:0:0:
37,334,21917,2,0,P|90:321|136:310,1,83.9999974365235,8|2,0:2|0:0,0:0:0:0:
312,93,22268,2,2,P|259:106|213:117,1,83.9999974365235,8|8,0:0|0:3,0:1:0:0:
421,354,22619,6,0,P|428:263|367:202,1,167.999994873047,4|2,1:2|0:3,0:0:0:0:
289,80,23146,2,0,P|242:154|242:186,1,105.000004005432,0|8,1:2|0:2,0:0:0:0:
240,168,23672,1,0,1:2:0:0:
456,245,23848,1,0,1:2:0:0:
272,293,24023,2,0,P|210:293|138:275,1,125.999996154785,2|0,0:0|0:0,0:0:0:0:
121,255,24375,1,0,1:2:0:0:
204,95,24550,1,2,0:0:0:0:
67,186,24726,5,8,0:2:0:0:
252,168,24901,1,8,1:3:0:0:
113,92,25077,1,4,0:3:0:0:
217,257,25252,1,4,0:3:0:0:
331,91,25428,5,4,1:2:0:0:
331,91,25603,2,0,P|359:183|351:239,1,125.999996154785,0|0,1:2|0:0,0:0:0:0:
347,248,25955,1,0,1:2:0:0:
168,180,26130,2,0,L|255:167,1,83.9999974365235,8|2,0:2|0:0,0:0:0:0:
470,344,26481,2,0,L|383:357,1,83.9999974365235,0|0,1:2|1:2,0:0:0:0:
320,135,26832,5,2,0:0:0:0:
424,261,27008,1,2,0:3:0:0:
252,320,27184,1,0,1:2:0:0:
306,233,27359,1,8,0:3:0:0:
100,170,27535,5,8,0:2:0:0:
141,343,27710,1,0,1:2:0:0:
208,232,27886,1,4,0:3:0:0:
22,228,28061,1,4,0:3:0:0:
128,48,28237,6,0,P|245:74|276:114,1,167.999994873047,4|2,1:2|0:3,0:0:0:0:
256,233,28764,2,0,P|190:200|161:154,1,105.000004005432,0|8,1:2|0:0,0:0:0:0:
171,176,29290,1,0,1:2:0:0:
102,300,29466,1,0,1:2:0:0:
262,110,29642,2,0,P|316:121|395:122,1,125.999996154785,2|0,0:0|0:0,0:0:0:0:
417,118,29993,1,0,1:2:0:0:
273,233,30168,1,2,0:0:0:0:
469,337,30344,6,0,P|461:262|370:217,1,167.999994873047,8|2,0:0|1:2,0:0:0:0:
325,83,30871,1,0,1:0:0:0:
391,305,31046,2,0,P|467:242|464:153,1,167.999994873047,4|2,1:2|0:0,0:0:0:0:
315,60,31573,1,0,1:2:0:0:
208,123,31748,2,0,P|196:163|193:214,1,83.9999974365235,8|2,0:0|0:3,0:0:0:0:
336,368,32099,1,0,1:2:0:0:
336,368,32275,1,0,1:2:0:0:
216,315,32451,6,0,L|114:324,1,83.9999974365235,2|8,0:0|0:0,0:0:0:0:
132,322,32977,1,8,0:0:0:0:
365,279,33153,1,8,0:0:0:0:
140,227,33328,1,8,0:0:0:0:
367,180,33504,1,10,0:1:0:0:
143,139,33680,1,8,0:0:0:0:
263,65,33855,6,0,P|259:130|256:176,1,105.000004005432,0|2,1:2|0:0,0:0:0:0:
254,338,34382,1,0,1:2:0:0:
254,338,34557,2,0,P|258:291|259:276,1,52.5000020027161,8|2,0:2|0:0,0:0:0:0:
62,163,34909,1,0,1:2:0:0:
41,253,35084,2,0,P|104:241|162:231,1,105.000004005432,0|2,1:2|0:0,0:0:0:0:
220,27,35611,2,0,P|167:34|146:38,1,52.5000020027161,0|0,1:2|0:0,0:0:0:0:
367,7,35962,5,8,0:2:0:0:
415,68,36138,1,8,0:3:0:0:
417,146,36313,1,4,0:3:0:0:
368,208,36489,1,4,0:3:0:0:
226,135,36664,6,0,P|220:190|217:241,1,105.000004005432,4|2,1:2|0:0,0:0:0:0:
70,352,37191,1,0,1:2:0:0:
70,352,37366,2,0,P|98:342|123:332,1,52.5000020027161,8|0,0:2|0:0,0:0:0:0:
139,175,37718,1,0,1:2:0:0:
139,175,37893,2,0,P|111:185|86:195,1,52.5000020027161,0|0,1:2|0:0,0:0:0:0:
61,21,38244,5,0,1:2:0:0:
155,78,38420,1,0,1:2:0:0:
257,28,38595,1,0,0:0:0:0:
246,141,38771,2,0,P|289:119|307:111,1,52.5000020027161,10|0,0:2|0:0,0:0:0:0:
497,150,39122,1,2,0:1:0:0:
497,150,39473,6,0,L|438:183,1,52.5000020027161,4|0,1:2|0:0,0:0:0:0:
435,350,39824,2,0,P|420:321|408:303,1,52.5000020027161,2|0,0:0|1:2,0:0:0:0:
315,203,40176,1,8,0:2:0:0:
315,203,40263,1,2,0:0:0:0:
315,203,40351,1,2,0:0:0:0:
256,353,40527,1,0,1:2:0:0:
210,277,40702,2,0,P|223:243|230:213,1,52.5000020027161,0|0,1:2|0:0,0:0:0:0:
104,77,41053,1,0,1:2:0:0:
101,166,41229,2,0,P|156:156|173:153,1,52.5000020027161,0|0,1:2|0:0,0:0:0:0:
27,317,41580,1,8,0:2:0:0:
27,317,41931,5,0,1:2:0:0:
181,347,42107,1,0,1:2:0:0:
163,248,42282,2,0,P|222:260|276:271,1,105.000004005432,4|2,1:2|0:3,0:0:0:0:
430,178,42809,1,0,1:2:0:0:
268,178,42985,2,0,P|306:185|340:191,1,52.5000020027161,8|0,0:2|0:0,0:0:0:0:
498,90,43336,5,0,1:2:0:0:
498,90,43511,2,0,P|460:83|426:77,1,52.5000020027161,0|2,1:2|0:0,0:0:0:0:
337,270,43862,1,0,1:2:0:0:
298,157,44038,2,0,P|260:150|226:144,1,52.5000020027161,0|0,1:2|0:0,0:0:0:0:
439,339,44389,2,0,P|477:346|511:352,1,52.5000020027161,2|0,0:0|0:0,0:0:0:0:
378,124,44740,1,2,0:1:0:0:
378,124,44916,1,2,0:0:0:0:
298,157,45091,6,0,P|282:198|296:296,1,140,4|2,1:2|0:2,0:0:0:0:
401,222,45618,1,0,1:2:0:0:
231,107,45794,2,0,P|199:185|195:198,1,70,8|2,0:2|0:0,0:0:0:0:
146,286,46145,1,0,1:2:0:0:
19,176,46320,2,0,P|63:191|109:207,1,70,0|2,1:2|0:3,0:0:0:0:
274,258,46672,1,2,0:2:0:0:
129,113,46847,1,0,1:2:0:0:
66,309,47023,1,2,0:0:0:0:
226,149,47198,2,0,P|308:136|378:133,1,140,8|2,0:2|0:1,0:0:0:0:
364,133,47900,5,6,1:2:0:0:
327,329,48076,2,0,P|287:332|247:337,1,70,0|2,1:2|0:0,0:0:0:0:
56,187,48427,1,0,1:2:0:0:
127,121,48603,2,0,P|171:130|195:144,1,70,8|2,0:2|0:0,0:0:0:0:
279,246,48954,1,0,1:2:0:0:
88,354,49129,1,0,1:2:0:0:
116,276,49305,6,0,P|135:224|146:196,1,70,2|2,0:3|0:0,0:0:0:0:
71,33,49656,2,0,P|52:85|41:113,1,70,0|2,1:2|0:0,0:0:0:0:
0,249,50007,1,8,0:2:0:0:
141,98,50183,2,0,P|205:94|268:165,1,140,0|8,1:2|0:3,0:0:0:0:
486,110,50710,1,4,1:2:0:0:
486,110,51061,5,2,0:0:0:0:
456,248,51236,1,0,1:2:0:0:
405,75,51412,2,0,P|368:67|336:60,1,70,8|2,0:2|0:0,0:0:0:0:
262,272,51763,1,0,1:2:0:0:
354,253,51939,2,0,P|357:207|337:159,1,70,0|2,1:2|0:3,0:0:0:0:
319,350,52290,1,2,0:0:0:0:
280,130,52465,2,0,L|207:139,1,70,0|2,1:2|0:3,0:0:0:0:
29,293,52816,2,0,P|96:295|175:274,1,140,10|0,0:2|1:2,0:0:0:0:
198,43,53343,1,0,1:2:0:0:
79,170,53519,6,0,P|125:168|176:187,1,70,0|2,1:2|0:3,0:0:0:0:
270,288,53870,2,0,P|322:291|364:274,1,70,2|0,0:0|1:3,0:0:0:0:
345,116,54221,2,0,P|293:113|248:132,1,70,2|2,0:0|0:3,0:0:0:0:
304,202,54572,1,2,1:2:0:0:
304,202,54748,2,0,L|382:192,1,70,0|0,1:2|0:0,0:0:0:0:
256,192,55011,12,2,55977,0:1:0:0:
15,222,56328,6,0,P|81:215|112:212,1,70,0|0,1:2|0:0,0:0:0:0:
160,43,56679,2,0,P|94:50|63:53,1,70,2|0,0:1|1:2,0:0:0:0:
274,213,57030,2,0,P|292:157|281:96,1,105,10|2,0:1|0:3,0:0:0:0:
275,87,57381,1,0,1:2:0:0:
213,283,57557,1,0,1:2:0:0:
189,147,57732,6,0,P|131:152|42:161,1,140,2|0,0:1|1:2,0:0:0:0:
49,160,58259,1,2,0:0:0:0:
175,50,58435,1,8,0:0:0:0:
135,266,58610,1,2,0:3:0:0:
4,246,58786,1,2,0:1:0:0:
374,176,59137,6,0,P|382:215|391:274,1,70,2|0,1:1|1:2,0:0:0:0:
325,322,59488,1,2,0:0:0:0:
325,322,59663,1,0,1:2:0:0:
446,104,59839,2,0,P|454:143|463:202,1,70,10|2,0:1|0:3,0:0:0:0:
406,333,60190,1,0,1:2:0:0:
369,129,60366,1,0,1:2:0:0:
236,235,60541,5,2,0:1:0:0:
386,209,60717,1,8,0:3:0:0:
122,172,60892,1,4,1:3:0:0:
272,146,61068,1,4,0:3:0:0:
26,112,61244,2,2,P|36:186|43:282,1,140,8|2,0:2|0:3,0:1:0:0:
41,251,61770,1,2,0:0:0:0:
10,20,61946,5,4,1:2:0:0:
256,312,63350,1,4,1:2:0:0:
502,20,64755,5,4,1:2:0:0:
472,202,64930,1,8,1:3:0:0:
396,111,65106,2,0,P|386:168|376:217,1,77.0000023498536,2|8,1:1|1:3,0:0:0:0:
198,325,65457,5,4,1:2:0:0:
403,268,65633,1,8,1:3:0:0:
253,222,65808,2,0,P|189:238|147:246,1,83.9999974365235,2|8,1:1|1:3,0:0:0:0:
331,340,66159,5,4,1:2:0:0:
370,124,66335,1,8,1:3:0:0:
142,155,66511,1,2,1:1:0:0:
269,234,66686,1,4,1:3:0:0:
344,35,66862,5,4,1:2:0:0:
237,146,67037,1,4,1:3:0:0:
168,60,67213,1,2,1:1:0:0:
168,60,67388,1,4,1:3:0:0:
14,258,67564,6,0,P|84:243|185:237,1,136.499993751526,6|0,1:1|0:0,0:0:0:0:
227,236,67915,1,2,0:0:0:0:
83,349,68091,1,0,1:2:0:0:
70,93,68266,2,0,P|135:84|167:109,1,90.9999958343508,10|2,0:2|0:3,0:0:0:0:
263,317,68617,2,0,P|198:326|157:297,1,90.9999958343508,2|0,1:2|1:2,0:0:0:0:
297,149,68969,6,2,B|422:151|357:204|488:203,1,181.999991668702,2|0,0:2|1:2,1:0:0:0:
414,35,69495,1,2,0:0:0:0:
225,86,69671,2,0,P|204:137|204:197,1,90.9999958343508,10|8,0:1|0:3,0:0:0:0:
319,238,70022,5,4,0:3:0:0:
274,20,70197,1,4,0:3:0:0:
57,65,70373,1,4,1:2:0:0:
57,65,70724,5,2,0:0:0:0:
235,161,70900,1,0,1:2:0:0:
53,175,71075,2,0,P|115:157|167:158,1,90.9999958343508,10|2,0:2|0:3,0:0:0:0:
335,330,71426,2,0,P|273:348|221:347,1,90.9999958343508,2|0,1:2|1:2,0:0:0:0:
192,79,71778,6,2,P|290:92|320:192,1,181.999991668702,2|0,0:0|1:2,0:1:0:0:
416,259,72304,1,2,0:0:0:0:
212,249,72480,2,0,P|216:177|243:152,1,90.9999958343508,10|8,0:1|0:3,0:0:0:0:
126,23,72831,2,0,P|68:32|21:37,1,90.9999958343508,4|4,0:3|0:3,0:0:0:0:
285,215,73182,6,0,P|359:201|406:194,1,90.9999958343508,4|2,1:2|0:3,0:0:0:0:
5,174,73533,1,2,0:1:0:0:
5,174,73884,6,0,P|8:232|17:272,1,90.9999958343508,8|2,0:2|0:3,0:0:0:0:
262,362,74236,2,0,P|259:304|250:264,1,90.9999958343508,2|0,1:1|1:2,0:0:0:0:
308,66,74587,1,2,0:2:0:0:
341,274,74762,1,0,1:2:0:0:
501,165,74938,1,2,1:1:0:0:
281,62,75113,1,2,0:2:0:0:
413,14,75289,2,0,P|411:70|399:116,1,90.9999958343508,10|2,0:1|0:3,0:0:0:0:
222,264,75640,2,0,P|224:208|236:162,1,90.9999958343508,2|0,1:1|1:2,0:0:0:0:
380,358,75991,6,0,P|297:340|272:339,1,90.9999958343508,0|2,1:2|0:3,0:0:0:0:
39,234,76342,2,0,P|122:216|147:215,1,90.9999958343508,2|0,0:1|1:2,0:0:0:0:
378,101,76693,2,0,P|421:159|376:263,1,181.999991668702,8|2,0:2|1:1,0:0:0:0:
190,282,77220,1,0,1:2:0:0:
307,38,77396,6,0,P|288:93|281:132,1,90.9999958343508,2|0,0:0|1:2,0:0:0:0:
182,303,77747,1,2,1:1:0:0:
201,85,77922,1,2,0:1:0:0:
360,183,78098,1,10,0:1:0:0:
93,239,78274,1,2,0:3:0:0:
286,335,78449,2,2,B|392:276|360:344|476:274,1,181.999991668702,2|4,0:0|1:2,0:1:0:0:
164,167,78976,5,2,0:2:0:0:
254,217,79151,2,0,P|331:192|359:180,1,90.9999958343508,2|0,0:1|1:2,0:0:0:0:
133,31,79503,2,0,P|56:56|28:68,1,90.9999958343508,10|2,0:0|0:3,0:0:0:0:
131,318,79854,2,0,P|129:265|103:213,1,90.9999958343508,2|0,1:2|1:2,0:0:0:0:
239,28,80205,6,2,P|310:30|388:109,1,181.999991668702,2|0,0:2|1:0,0:1:0:0:
496,185,80732,1,2,0:0:0:0:
359,293,80907,2,0,P|288:280|238:262,1,90.9999958343508,10|8,0:1|0:3,0:0:0:0:
222,115,81258,1,4,0:3:0:0:
388,211,81434,1,4,0:3:0:0:
232,346,81609,5,4,1:2:0:0:
232,346,81785,1,0,1:2:0:0:
268,266,81960,2,0,P|286:205|290:154,1,90.9999958343508,2|0,0:0|1:2,0:0:0:0:
126,13,82312,2,0,P|125:76|133:115,1,90.9999958343508,10|2,0:0|0:3,0:0:0:0:
36,295,82663,2,0,P|15:243|19:182,1,90.9999958343508,2|0,1:2|1:2,0:0:0:0:
240,61,83014,6,2,P|282:104|273:224,1,181.999991668702,2|0,0:2|1:0,0:1:0:0:
395,347,83541,1,2,0:0:0:0:
238,207,83716,2,0,P|170:213|126:220,1,90.9999958343508,10|0,0:1|1:2,0:0:0:0:
341,46,84067,1,4,0:3:0:0:
341,46,84418,5,4,1:2:0:0:
296,275,84594,1,2,0:3:0:0:
392,203,84770,2,0,P|384:264|379:295,1,90.9999958343508,2|0,0:0|1:2,0:0:0:0:
275,97,85121,5,8,0:0:0:0:
308,186,85296,1,2,0:1:0:0:
154,225,85472,2,0,P|94:214|57:212,1,90.9999958343508,0|2,1:1|1:1,0:0:0:0:
19,25,85823,6,0,P|79:36|116:38,1,90.9999958343508,2|2,0:0|0:3,0:0:0:0:
217,13,86174,1,0,1:2:0:0:
217,13,86350,1,2,0:0:0:0:
41,126,86525,6,0,P|105:132|138:140,1,90.9999958343508,8|2,0:0|0:0,0:0:0:0:
237,246,86876,1,2,1:2:0:0:
116,327,87052,1,0,1:2:0:0:
269,359,87227,5,0,1:2:0:0:
120,235,87403,1,2,0:0:0:0:
220,167,87579,1,2,0:3:0:0:
220,167,87754,1,0,1:2:0:0:
26,201,87930,5,8,0:0:0:0:
217,265,88105,1,2,0:3:0:0:
329,205,88281,2,0,P|340:280|344:309,1,90.9999958343508,0|0,1:2|1:2,0:0:0:0:
383,92,88632,5,2,0:0:0:0:
257,44,88808,2,0,P|246:119|242:148,1,90.9999958343508,8|2,0:0|0:3,0:0:0:0:
116,267,89159,1,8,0:0:0:0:
176,67,89334,1,8,0:0:0:0:
0,189,89510,1,8,0:0:0:0:
211,169,89685,1,10,0:1:0:0:
36,67,89861,1,8,0:0:0:0:
207,248,90037,6,0,P|254:241|283:237,1,52.5000020027161,0|2,1:2|0:3,0:0:0:0:
383,111,90388,2,0,P|336:118|307:122,1,52.5000020027161,2|0,0:0|1:2,0:0:0:0:
504,257,90739,2,2,P|448:265|381:278,1,105.000004005432,10|0,0:1|1:2,0:1:0:0:
403,194,91266,1,0,1:2:0:0:
457,80,91441,6,0,P|491:97|513:176,2,105.000004005432,2|0|10,0:0|1:2|0:1,0:0:0:0:
396,16,92319,1,2,0:0:0:0:
396,16,92494,2,0,L|331:21,1,52.5000020027161,2|2,0:2|0:3,0:0:0:0:
181,109,92846,6,0,P|208:143|281:143,1,105.000004005432,0|2,1:2|0:0,0:0:0:0:
343,101,93372,1,0,1:2:0:0:
277,233,93548,2,2,P|339:219|387:208,1,105.000004005432,10|0,0:1|1:2,0:1:0:0:
180,261,94075,1,0,1:2:0:0:
248,336,94250,2,0,P|310:322|322:320,1,52.5000020027161,2|0,0:0|1:2,0:0:0:0:
143,179,94601,2,0,P|81:193|69:195,1,52.5000020027161,0|2,1:2|0:0,0:0:0:0:
244,73,94952,2,2,P|185:52|143:59,1,105.000004005432,10|2,0:1|0:0,0:1:0:0:
134,347,95655,6,0,P|82:352|34:332,1,105.000004005432,4|2,1:2|0:0,0:0:0:0:
26,144,96181,2,0,P|73:157|96:159,1,52.5000020027161,0|8,1:2|0:0,0:0:0:0:
248,57,96533,1,2,0:0:0:0:
137,82,96708,6,2,P|161:120|219:157,1,105.000004005432,2|2,1:1|0:0,0:1:0:0:
402,46,97235,1,0,1:2:0:0:
387,150,97410,2,0,P|340:170|328:175,1,52.5000020027161,0|2,1:2|0:0,0:0:0:0:
137,82,97762,6,2,P|180:110|209:153,1,105.000004005432,8|0,0:0|1:0,0:1:0:0:
96,313,98288,1,0,1:2:0:0:
27,164,98464,2,2,P|96:166|123:178,1,78.7500030040742,0|0,1:0|0:0,0:1:0:0:
104,168,98815,2,0,P|133:203|144:229,1,52.5000020027161,2|0,0:0|1:2,0:0:0:0:
239,366,99166,1,8,0:0:0:0:
239,366,99342,1,2,0:0:0:0:
364,252,99517,6,2,P|311:227|252:225,1,105.000004005432,0|2,1:0|0:0,0:1:0:0:
195,129,100044,1,0,1:2:0:0:
155,329,100219,2,0,P|179:276|181:259,1,52.5000020027161,0|2,1:2|0:3,0:0:0:0:
89,47,100571,1,2,0:1:0:0:
89,47,100922,6,2,L|150:37,1,52.5000020027161,2|0,0:1|0:1,0:1:0:0:
329,101,101273,2,0,P|267:125|193:128,1,140,0|2,1:2|0:3,0:0:0:0:
38,258,101800,1,0,1:2:0:0:
108,188,101975,2,0,P|142:208|165:238,1,70,8|2,0:0|0:3,0:0:0:0:
66,368,102326,1,0,1:2:0:0:
287,268,102502,2,0,P|262:207|260:171,1,70,0|2,1:2|0:0,0:0:0:0:
336,80,102853,1,2,0:3:0:0:
456,160,103029,1,0,1:2:0:0:
456,160,103204,1,2,0:0:0:0:
269,186,103380,6,0,L|181:192,1,70,8|8,0:0|0:3,0:0:0:0:
92,248,103731,2,0,L|4:254,1,70,4|4,0:3|0:3,0:0:0:0:
195,295,104082,1,4,1:2:0:0:
70,159,104257,2,0,P|145:157|205:197,1,140,0|0,1:2|1:2,0:0:0:0:
131,369,104784,2,0,P|81:365|59:348,1,70,8|2,0:0|0:3,0:0:0:0:
155,117,105135,5,2,1:2:0:0:
218,195,105311,2,0,P|269:186|307:178,1,70,0|2,1:2|0:0,0:0:0:0:
434,37,105662,1,2,0:3:0:0:
350,3,105838,2,0,P|339:65|339:85,1,70,2|2,1:3|0:0,0:0:0:0:
478,282,106189,1,10,0:1:0:0:
478,282,106540,6,0,L|397:291,1,70,4|4,0:3|0:3,0:0:0:0:
230,361,106891,2,0,P|209:303|257:218,1,140,4|2,1:2|0:3,0:0:0:0:
301,125,107418,1,0,1:2:0:0:
120,137,107593,2,0,P|153:149|210:143,1,70,8|2,0:0|0:0,0:0:0:0:
436,299,107944,5,0,1:2:0:0:
237,233,108120,1,0,1:2:0:0:
349,333,108296,2,0,P|356:274|359:243,1,70,2|2,0:0|0:3,0:0:0:0:
423,34,108647,2,0,P|416:93|413:124,1,70,0|2,1:2|0:3,0:0:0:0:
234,212,108998,2,0,P|224:144|282:91,1,140,10|0,0:0|1:2,0:0:0:0:
422,207,109524,1,2,1:1:0:0:
504,131,109700,6,0,P|450:115|408:106,1,70,4|0,1:2|0:0,0:0:0:0:
288,303,110051,1,2,0:3:0:0:
288,303,110227,1,0,1:2:0:0:
386,284,110402,2,0,P|440:300|482:309,1,70,2|2,0:2|0:3,0:0:0:0:
226,179,110753,2,0,P|210:229|204:268,1,70,2|0,1:2|1:2,0:0:0:0:
136,352,111105,5,2,0:0:0:0:
319,185,111456,1,2,0:0:0:0:
110,51,111807,2,0,P|65:50|40:59,1,70,2|2,0:0|0:3,0:0:0:0:
254,101,112158,1,2,0:1:0:0:
254,101,112509,6,0,P|264:43|255:13,1,70,0|0,1:2|0:0,0:0:0:0:
57,323,112860,1,2,0:1:0:0:
146,272,113211,6,0,P|98:229|65:220,1,70,8|2,0:0|0:3,0:0:0:0:
448,289,113563,1,2,1:1:0:0:
355,281,113914,6,0,P|363:335|379:368,1,70,2|2,0:0|0:3,0:0:0:0:
414,39,114265,1,2,0:1:0:0:
344,96,114616,6,0,P|382:122|429:131,1,70,8|2,0:0|0:3,0:0:0:0:
107,48,114967,1,2,0:1:0:0:
94,134,115318,6,0,P|61:123|34:102,1,70,0|0,1:0|1:0,0:0:0:0:
335,190,115669,1,2,0:1:0:0:
257,118,116020,6,0,P|232:174|233:209,1,70,8|2,0:0|0:3,0:0:0:0:
438,368,116372,2,0,P|463:312|462:277,1,70,0|0,1:2|1:2,0:0:0:0:
410,109,116723,1,2,0:0:0:0:
320,287,116898,1,2,0:3:0:0:
191,162,117074,2,0,P|218:97|236:74,1,70,2|2,1:3|0:0,0:0:0:0:
503,58,117425,1,8,0:0:0:0:
503,58,117776,6,2,L|404:63,1,97.9999970092774,2|8,0:1|0:3,0:1:0:0:
256,192,118127,5,4,1:2:0:0:
256,192,119532,1,4,1:2:0:0:
256,192,120936,6,0,L|144:200,1,97.9999970092774,4|8,1:2|1:3,0:0:0:0:
36,212,121287,1,8,1:3:0:0:
36,212,121463,1,8,1:3:0:0:
256,100,121639,6,0,L|368:92,1,97.9999970092774,4|8,1:2|1:3,0:0:0:0:
476,88,121990,1,8,1:3:0:0:
476,88,122166,1,8,1:3:0:0:
284,12,122341,5,4,1:2:0:0:
320,188,122516,1,8,1:3:0:0:
143,137,122692,1,4,1:3:0:0:
352,88,122868,1,4,1:3:0:0:
228,268,123043,5,4,1:2:0:0:
428,308,123219,1,4,1:3:0:0:
144,328,123394,2,0,P|136:232|172:172,1,119.000002269745,2|2,1:1|1:1,0:0:0:0:
456,56,123745,5,6,1:1:0:0:
456,56,123921,1,2,0:1:0:0:
328,184,124097,2,0,P|272:184|208:180,1,90.9999958343508,2|0,0:1|1:2,0:0:0:0:
129,22,124448,2,0,P|191:18|240:43,1,90.9999958343508,10|2,0:2|0:3,0:0:0:0:
431,209,124799,2,0,P|370:216|312:201,1,90.9999958343508,2|0,1:2|1:2,0:0:0:0:
87,239,125150,6,2,P|96:147|209:104,1,181.999991668702,2|0,0:2|1:2,1:0:0:0:
296,49,125677,1,2,0:0:0:0:
36,83,125852,2,0,P|64:129|117:156,1,90.9999958343508,10|8,0:1|0:3,0:0:0:0:
329,185,126203,5,4,0:3:0:0:
137,65,126379,1,4,0:3:0:0:
5,263,126554,1,4,1:2:0:0:
5,263,126906,5,2,0:0:0:0:
228,289,127081,1,0,1:2:0:0:
106,340,127257,2,0,P|94:295|95:238,1,90.9999958343508,10|2,0:2|0:3,0:0:0:0:
266,34,127608,2,0,P|274:88|265:130,1,90.9999958343508,2|0,1:2|1:2,0:0:0:0:
26,16,127959,6,2,P|102:18|170:109,1,181.999991668702,2|0,0:0|1:2,0:1:0:0:
32,237,128486,1,2,0:0:0:0:
252,221,128661,2,0,P|252:166|261:125,1,90.9999958343508,10|8,0:1|0:3,0:0:0:0:
484,31,129012,2,0,P|484:86|475:127,1,90.9999958343508,4|4,0:3|0:3,0:0:0:0:
194,314,129364,1,4,1:2:0:0:
194,314,129715,6,0,P|272:321|308:325,1,90.9999958343508,2|0,0:1|1:2,0:0:0:0:
67,120,130066,1,8,0:2:0:0:
67,120,130417,6,0,P|145:127|181:131,1,90.9999958343508,2|0,1:1|1:2,0:0:0:0:
469,179,130768,2,0,P|450:114|311:70,1,181.999991668702,2|2,0:2|1:1,0:0:0:0:
223,191,131295,1,2,0:2:0:0:
384,22,131470,2,0,P|301:28|253:47,1,90.9999958343508,10|2,0:1|0:3,0:0:0:0:
247,288,131821,1,2,1:1:0:0:
306,140,131997,1,0,1:2:0:0:
130,65,132173,6,0,P|126:138|136:218,1,136.499993751526,0|0,1:2|0:0,0:0:0:0:
143,290,132524,1,2,0:1:0:0:
29,100,132699,1,0,1:2:0:0:
213,137,132875,2,0,P|287:131|381:154,1,136.499993751526,8|0,0:2|0:0,0:0:0:0:
381,155,133226,2,0,P|385:107|395:37,1,90.9999958343508,2|0,1:1|1:2,0:0:0:0:
452,328,133577,6,0,P|396:316|348:304,1,90.9999958343508,2|0,0:0|1:2,0:0:0:0:
272,56,133928,1,2,1:1:0:0:
464,108,134104,1,2,0:1:0:0:
244,256,134279,1,10,0:1:0:0:
440,244,134455,1,2,0:3:0:0:
296,360,134631,2,2,B|196:319|221:375|108:332,1,181.999991668702,2|4,0:0|1:2,0:1:0:0:
72,88,135157,5,2,0:2:0:0:
164,260,135333,2,0,P|208:256|252:220,1,90.9999958343508,2|0,0:1|1:2,0:0:0:0:
88,8,135684,2,0,P|44:12|0:48,1,90.9999958343508,10|2,0:0|0:3,0:0:0:0:
272,228,136035,2,0,P|264:168|260:116,1,90.9999958343508,2|0,1:2|1:2,0:0:0:0:
436,16,136386,6,2,P|492:60|460:172,1,181.999991668702,2|0,0:2|1:0,0:1:0:0:
288,128,136913,1,2,0:0:0:0:
496,272,137088,2,0,P|424:240|392:236,1,90.9999958343508,10|8,0:1|0:3,0:0:0:0:
188,136,137440,1,4,0:3:0:0:
160,348,137615,1,4,0:3:0:0:
342,265,137791,5,4,1:2:0:0:
342,265,137966,1,0,1:2:0:0:
253,234,138142,2,0,P|245:282|241:330,1,90.9999958343508,2|0,0:0|1:2,0:0:0:0:
45,179,138493,2,0,P|82:205|117:234,1,90.9999958343508,10|2,0:0|0:3,0:0:0:0:
263,76,138844,2,0,P|220:91|179:110,1,90.9999958343508,2|0,1:2|1:2,0:0:0:0:
254,354,139195,6,2,P|341:330|434:258,1,181.999991668702,2|0,0:2|1:0,0:1:0:0:
274,101,139722,1,2,0:0:0:0:
378,350,139898,2,0,P|433:357|490:361,1,90.9999958343508,10|0,0:1|1:2,0:0:0:0:
487,89,140249,2,0,P|432:82|375:78,1,90.9999958343508,4|4,0:3|0:3,0:0:0:0:
251,0,140600,5,4,1:2:0:0:
221,196,140775,1,2,0:3:0:0:
140,134,140951,2,0,L|156:33,1,90.9999958343508,2|0,0:0|1:2,0:0:0:0:
14,66,141302,5,8,0:0:0:0:
123,225,141478,1,2,0:0:0:0:
39,250,141653,2,0,L|23:351,1,90.9999958343508,0|2,1:1|1:2,0:0:0:0:
217,234,142004,6,0,L|307:247,1,90.9999958343508,2|2,0:0|0:3,0:0:0:0:
414,73,142356,1,0,1:2:0:0:
322,227,142531,1,2,0:0:0:0:
421,53,142707,6,0,L|331:40,1,90.9999958343508,8|2,0:0|0:0,0:0:0:0:
125,192,143058,1,2,1:2:0:0:
125,192,143233,1,0,1:2:0:0:
217,20,143409,5,0,1:2:0:0:
205,137,143584,1,2,0:0:0:0:
322,152,143760,1,2,0:3:0:0:
336,34,143936,1,0,1:2:0:0:
441,236,144111,1,8,0:0:0:0:
430,79,144287,1,2,0:3:0:0:
442,255,144462,2,0,P|446:303|439:349,1,90.9999958343508,0|0,1:2|1:2,0:0:0:0:
354,358,144813,5,2,0:0:0:0:
354,358,144989,1,2,0:3:0:0:
265,347,145165,1,2,0:0:0:0:
265,347,145340,1,2,0:3:0:0:
200,271,145516,2,0,L|134:275,1,52.5000020027161,2|0,0:0|0:0,0:0:0:0:
68,316,145867,2,0,L|2:320,1,52.5000020027161,2|0,0:0|0:0,0:0:0:0:
256,192,146218,5,4,1:2:0:0:
376,148,151134,6,0,P|372:184|368:236,1,70,8|8,0:0|0:0,0:0:0:0:
369,217,151397,1,8,0:0:0:0:
369,217,151485,1,8,0:0:0:0:
296,64,151661,1,8,0:0:0:0:
280,156,151836,1,12,1:2:0:0:
475,51,157103,5,2,0:1:0:0:
475,51,157279,1,2,0:1:0:0:
409,129,157454,2,0,P|337:139|261:137,1,140,4|2,1:2|0:3,0:0:0:0:
226,208,157981,1,0,1:2:0:0:
218,288,158157,2,0,P|220:332|227:365,1,70,10|2,0:1|0:3,0:0:0:0:
364,219,158508,2,0,P|356:148|341:91,1,105,0|0,1:2|0:0,0:0:0:0:
360,89,158859,6,0,P|346:56|328:26,1,70,2|2,0:1|0:3,0:0:0:0:
121,192,159210,2,0,P|110:225|103:259,1,70,0|2,1:2|0:0,0:0:0:0:
99,67,159561,2,2,P|152:66|219:118,1,140,10|2,0:1|0:3,0:1:0:0:
280,248,160088,1,2,0:0:0:0:
323,70,160263,5,2,1:1:0:0:
323,70,160439,1,2,1:1:0:0:
360,212,160614,2,0,L|452:222,1,70,2|0,0:3|1:2,0:0:0:0:
148,124,160966,2,0,L|217:116,1,70,10|2,0:1|0:3,0:0:0:0:
112,305,161317,2,0,L|42:312,1,70,0|0,1:2|1:2,0:0:0:0:
82,67,161668,5,2,0:1:0:0:
103,227,161843,1,2,0:1:0:0:
190,212,162019,2,0,P|197:267|202:303,1,70,0|2,1:2|0:3,0:0:0:0:
370,84,162370,2,0,P|303:104|275:158,1,105,8|0,0:2|0:0,0:0:0:0:
252,115,162721,2,0,P|199:126|154:135,1,70,2|2,0:3|0:0,0:0:0:0:
116,325,163072,6,0,P|199:322|263:294,1,140,2|2,1:1|0:2,0:0:0:0:
279,190,163599,1,0,1:2:0:0:
179,237,163775,2,0,P|174:299|194:406,1,140,8|0,0:2|1:2,0:0:0:0:
350,320,164301,2,0,P|346:256|334:229,1,70,0|2,1:2|0:0,0:0:0:0:
131,142,164653,1,2,3:0:0:0:
131,142,164740,1,2,3:0:0:0:
131,142,164828,1,0,1:2:0:0:
105,218,165004,2,0,L|87:300,1,70,2|10,0:3|0:1,0:0:0:0:
60,10,165530,5,2,0:3:0:0:
135,50,165706,1,2,0:0:0:0:
215,21,165881,2,0,P|268:33|297:41,1,70,0|2,1:2|0:3,0:0:0:0:
318,111,166233,1,2,0:0:0:0:
413,97,166408,1,2,1:3:0:0:
413,97,166496,1,2,0:3:0:0:
413,97,166584,5,2,0:0:0:0:
467,166,166759,1,2,0:3:0:0:
374,202,166935,2,0,P|325:197|287:194,1,70,0|0,1:2|1:2,0:0:0:0:
42,178,167286,6,2,P|23:248|36:299,1,105.000004005432,2|0,0:2|0:2,0:1:0:0:
28,278,167988,2,0,L|92:270,1,52.5000020027161,10|0,0:0|0:0,0:0:0:0:
163,300,168339,2,0,L|227:292,1,52.5000020027161,2|0,0:0|0:0,0:0:0:0:
43,359,168691,5,4,1:2:0:0:
91,175,168866,2,0,P|133:178|180:196,1,70,0|2,0:0|0:2,0:0:0:0:
233,294,169217,1,0,1:2:0:0:
273,78,169393,2,0,L|291:176,1,70,10|2,0:0|0:3,0:0:0:0:
382,209,169744,1,0,1:2:0:0:
382,209,169920,1,0,1:2:0:0:
251,327,170095,6,2,P|291:336|358:337,1,105,2|0,0:1|0:0,0:1:0:0:
378,355,170446,2,0,P|431:339|457:305,1,70,0|2,1:2|0:0,0:0:0:0:
382,46,170797,2,2,P|327:61|275:137,1,140,10|4,0:1|0:3,0:1:0:0:
189,214,171324,1,4,0:3:0:0:
406,254,171500,6,0,P|399:184|391:155,1,70,4|0,1:2|1:2,0:0:0:0:
187,46,171851,2,0,P|194:116|202:145,1,70,2|0,0:0|1:2,0:0:0:0:
293,288,172202,1,8,0:2:0:0:
286,82,172377,1,2,0:3:0:0:
163,229,172553,1,0,1:2:0:0:
371,183,172729,1,0,1:2:0:0:
175,297,172904,2,0,P|166:246|158:199,1,70,2|2,0:0|0:3,0:0:0:0:
38,37,173255,6,2,P|20:111|47:153,1,105,2|0,1:2|0:0,1:1:0:0:
70,141,173606,1,8,1:2:0:0:
0,330,173782,1,0,0:0:0:0:
196,259,173958,6,0,P|91:244|19:234,1,167.999994873047
457,57,175713,1,4,1:2:0:0:
432,344,177117,5,4,1:2:0:0:
442,183,177293,1,8,1:3:0:0:
356,249,177468,1,2,1:1:0:0:
356,249,177644,1,8,1:3:0:0:
502,268,177820,5,4,1:2:0:0:
346,161,177996,1,8,1:3:0:0:
287,345,178171,1,2,1:1:0:0:
379,257,178347,1,8,1:3:0:0:
179,182,178522,5,4,1:2:0:0:
288,269,178698,1,8,1:3:0:0:
391,63,178873,1,2,1:1:0:0:
275,170,179049,1,4,1:3:0:0:
185,30,179225,5,4,1:2:0:0:
367,160,179400,1,4,1:3:0:0:
189,280,179576,1,4,0:3:0:0:
205,109,179751,1,4,0:3:0:0:
26,183,179927,5,6,1:1:0:0:
38,280,180102,1,2,0:1:0:0:
116,212,180278,2,0,P|114:152|100:89,1,97.9999970092774,2|0,0:1|1:2,0:0:0:0:
344,15,180629,2,0,P|393:32|422:69,1,97.9999970092774,10|2,0:2|0:3,0:0:0:0:
313,332,180980,2,0,P|240:342|205:349,1,97.9999970092774,2|0,1:2|1:2,0:0:0:0:
462,236,181331,6,2,P|391:193|267:230,1,195.999994018555,2|0,0:2|1:2,1:0:0:0:
142,128,181858,1,2,0:0:0:0:
38,314,182034,1,10,0:1:0:0:
185,241,182209,1,8,0:3:0:0:
8,84,182385,5,4,0:3:0:0:
71,232,182560,1,4,0:3:0:0:
189,23,182736,1,4,1:2:0:0:
189,23,183087,5,2,0:0:0:0:
35,181,183263,1,0,1:2:0:0:
236,126,183438,2,0,P|293:112|350:108,1,97.9999970092774,10|2,0:2|0:3,0:0:0:0:
488,302,183789,2,0,P|434:315|389:317,1,97.9999970092774,2|0,1:2|1:2,0:0:0:0:
124,292,184140,6,2,P|87:187|138:115,1,195.999994018555,2|0,0:0|1:2,0:1:0:0:
226,28,184667,1,2,0:0:0:0:
437,270,184843,2,0,P|375:288|321:293,1,97.9999970092774,10|8,0:1|0:3,0:0:0:0:
303,0,185194,2,0,P|320:48|314:116,1,97.9999970092774,4|4,0:3|0:3,0:0:0:0:
280,363,185545,6,0,L|161:357,1,97.9999970092774,4|2,1:2|0:3,0:0:0:0:
386,189,185896,2,0,L|505:195,1,97.9999970092774,2|0,0:1|1:2,0:0:0:0:
208,35,186247,1,8,0:2:0:0:
208,35,186598,6,0,L|89:29,1,97.9999970092774,2|0,1:1|1:2,0:0:0:0:
7,229,186950,2,0,P|89:246|235:232,1,195.999994018555,2|2,0:2|1:1,0:0:0:0:
104,43,187476,1,2,0:2:0:0:
151,170,187652,2,0,P|143:243|147:356,1,146.999995513916,10|0,0:1|0:0,0:0:0:0:
202,377,188003,1,2,1:1:0:0:
49,151,188178,1,0,1:2:0:0:
236,241,188354,6,0,L|336:228,1,97.9999970092774,0|2,1:2|0:3,0:0:0:0:
427,106,188705,1,2,0:1:0:0:
389,363,188881,1,0,1:2:0:0:
489,311,189056,2,0,L|469:214,1,97.9999970092774,8|2,0:2|0:3,0:0:0:0:
296,56,189407,2,0,L|276:151,1,97.9999970092774,2|0,1:1|1:2,0:0:0:0:
497,33,189759,6,0,L|401:13,1,97.9999970092774,2|0,0:0|1:2,0:0:0:0:
231,209,190110,1,2,1:1:0:0:
385,39,190285,1,2,0:1:0:0:
381,291,190461,1,10,0:1:0:0:
134,169,190636,1,2,0:3:0:0:
273,152,190812,2,2,B|294:278|232:214|259:343,1,195.999994018555,2|4,0:0|1:2,0:1:0:0:
3,233,191339,5,2,0:2:0:0:
140,183,191514,2,0,P|152:239|143:282,1,97.9999970092774,2|0,0:1|1:2,0:0:0:0:
27,37,191865,2,0,P|83:20|139:30,1,97.9999970092774,10|2,0:0|0:3,0:0:0:0:
333,218,192217,2,0,P|277:235|221:225,1,97.9999970092774,2|0,1:2|1:2,0:0:0:0:
430,22,192568,6,2,P|472:89|422:197,1,195.999994018555,2|0,0:2|1:0,0:1:0:0:
293,300,193094,1,2,0:0:0:0:
207,54,193270,1,10,0:1:0:0:
340,93,193445,1,8,0:3:0:0:
182,299,193621,1,4,0:3:0:0:
356,232,193797,1,4,0:3:0:0:
256,158,193972,5,4,1:2:0:0:
256,158,194148,1,0,1:2:0:0:
367,339,194323,2,0,L|482:324,1,97.9999970092774,2|0,0:0|1:2,0:0:0:0:
173,211,194674,2,0,L|58:226,1,97.9999970092774,10|2,0:0|0:3,0:0:0:0:
316,50,195026,2,0,L|431:35,1,97.9999970092774,2|0,1:2|1:2,0:0:0:0:
485,225,195377,6,2,P|383:253|283:257,1,195.999994018555,2|0,0:2|1:0,0:1:0:0:
223,92,195903,1,2,0:0:0:0:
235,352,196079,2,0,P|322:341|350:342,1,97.9999970092774,10|0,0:1|1:2,0:0:0:0:
486,194,196430,2,0,P|399:183|371:184,1,97.9999970092774,4|4,0:3|0:3,0:0:0:0:
184,277,196781,5,4,1:2:0:0:
235,71,196957,1,2,0:3:0:0:
106,139,197132,2,0,P|87:221|81:246,1,97.9999970092774,2|0,0:0|1:2,0:0:0:0:
420,108,197484,5,8,0:0:0:0:
250,49,197659,1,2,0:0:0:0:
300,173,197835,2,0,P|218:154|193:148,1,97.9999970092774,0|2,1:1|1:2,0:0:0:0:
23,320,198186,6,0,P|105:339|130:345,1,97.9999970092774,2|2,0:0|0:3,0:0:0:0:
250,373,198537,1,0,1:2:0:0:
250,373,198712,1,2,0:0:0:0:
98,135,198888,2,0,P|77:197|59:258,1,97.9999970092774,8|2,0:0|0:0,0:0:0:0:
90,21,199239,1,2,1:2:0:0:
191,190,199415,1,0,1:2:0:0:
17,85,199590,5,0,1:2:0:0:
177,111,199766,1,2,0:0:0:0:
286,23,199941,1,2,0:3:0:0:
286,23,200117,1,0,1:2:0:0:
64,198,200293,5,8,0:0:0:0:
189,99,200468,1,2,0:3:0:0:
256,265,200644,2,0,P|190:255|148:251,1,97.9999970092774,0|0,1:2|1:2,0:0:0:0:
330,185,200995,5,2,0:0:0:0:
366,362,201170,2,0,P|317:356|268:348,1,97.9999970092774,8|2,0:0|0:3,0:0:0:0:
189,99,201522,1,8,0:0:0:0:
392,130,201697,1,8,0:0:0:0:
495,300,201873,1,8,0:0:0:0:
292,269,202048,1,10,0:1:0:0:
475,64,202224,6,0,P|481:142|484:181,1,97.9999970092774,8|4,0:0|1:2,0:0:0:0:
147,353,202751,6,0,P|141:275|140:264,1,70,2|0,0:1|1:2,0:0:0:0:
135,196,203102,1,8,0:2:0:0:
135,196,203453,5,2,1:1:0:0:
291,193,203628,2,0,P|304:245|302:334,1,140,0|0,1:1|0:0,0:0:0:0:
46,339,204155,2,0,P|41:283|43:258,1,70,2|0,1:1|0:0,0:0:0:0:
175,337,204506,2,0,P|175:302|170:267,1,70,10|0,0:1|0:0,0:0:0:0:
300,342,204857,1,2,0:3:0:0:
209,22,205208,1,2,1:2:0:0:
24,177,205560,6,0,P|71:174|116:170,1,70,2|0,0:3|1:2,0:0:0:0:
182,166,205911,1,8,0:2:0:0:
182,166,206262,5,0,1:2:0:0:
175,33,206437,2,0,P|113:23|28:42,1,140,2|0,1:2|1:2,0:0:0:0:
21,268,206964,1,0,1:2:0:0:
98,215,207140,2,0,L|130:217,4,17.5,8|0|0|0|2,3:2|0:0|3:2|0:0|3:1,0:0:0:0:
31,152,207491,1,8,0:2:0:0:
31,152,207579,1,8,0:2:0:0:
31,152,207666,1,10,0:1:0:0:
107,104,207842,1,10,0:0:0:0:
186,261,208018,6,0,P|134:292|109:306,1,62.9999980773926,2|0,1:0|0:0,0:0:0:0:
180,162,208369,2,0,P|232:131|257:117,1,62.9999980773926,2|0,0:1|1:0,0:0:0:0:
322,162,208720,1,8,0:0:0:0:
322,162,209071,5,0,1:0:0:0:
200,55,209247,2,0,P|257:22|322:16,1,112,0|0,1:0|1:0,0:0:0:0:
467,117,209773,2,0,L|396:151,1,56,0|0,1:0|0:0,0:0:0:0:
388,48,210124,2,0,L|466:9,2,74.6666666666667,8|2|2,0:0|0:0|0:0,0:0:0:0:
382,222,210827,6,0,L|462:258,2,65.3333313395183,2|2|2,1:2|0:2|0:2,0:0:0:0:
314,282,211529,1,8,0:2:0:0:
166,108,211880,5,0,1:2:0:0:
166,108,212056,1,0,1:2:0:0:
142,195,212231,2,0,L|126:255,2,55.9999982910157,2|2|2,0:2|0:2|0:2,0:0:0:0:
370,195,212971,2,0,L|386:255,2,55.9999982910157,2|2|2,0:2|0:2|0:2,0:0:0:0:
256,192,213628,5,4,1:2:0:0:
256,192,213715,12,0,222055,0:0:0:0:
