osu file format v14

[General]
AudioFilename: audio.ogg
AudioLeadIn: 0
PreviewTime: 67476
Countdown: 0
SampleSet: Soft
StackLeniency: 0.7
Mode: 0
LetterboxInBreaks: 0
WidescreenStoryboard: 1

[Editor]
Bookmarks: 33873,67577,90047,123751,146220,179924,202393,213628
DistanceSpacing: 1.4
BeatDivisor: 4
GridSize: 4
TimelineZoom: 1.7

[Metadata]
Title:Shine Blockas feat. Gucci Mane
TitleUnicode:Shine Blockas feat. Gucci Mane
Artist:Big Boi
ArtistUnicode:Big Boi
Creator:Fsjallink
Version:Hard
Source:
Tags:english hip hop pop outkast antwan andre patton gucci mane radric delantic davis sir lucious left foot the son of chico dusty dj cutmaster swiff archie hall album version
BeatmapID:4180001
BeatmapSetID:1993272

[Difficulty]
HPDrainRate:4
CircleSize:4
OverallDifficulty:6
ApproachRate:7.5
SliderMultiplier:1
SliderTickRate:1

[Events]
//Background and Video events
0,0,"gangstashit.jpg",0,0
//Break Periods
2,146218,156629
//Storyboard Layer 0 (Background)
//Storyboard Layer 1 (Fail)
//Storyboard Layer 2 (Pass)
//Storyboard Layer 3 (Foreground)
//Storyboard Layer 4 (Overlay)
//Storyboard Sound Samples

[TimingPoints]
0,350.877192982456,4,2,0,40,1,0
0,-133.333333333333,4,2,0,40,0,0
4912,-133.333333333333,4,2,0,60,0,0
8574,351.133869787857,4,2,0,40,1,0
8925,-133.333333333333,4,2,0,40,0,0
10505,-100,4,2,0,50,0,0
11383,-83.3333333333333,4,2,0,60,0,0
33855,-100,4,2,0,40,0,0
45091,-100,4,2,0,50,0,0
64755,-100,4,2,0,60,0,0
67564,-83.3333333333333,4,2,0,70,0,1
90037,-100,4,2,0,40,0,0
101273,-100,4,2,0,50,0,0
120936,-100,4,2,0,60,0,0
123745,-83.3333333333333,4,2,0,70,0,1
144813,-133.333333333333,4,2,0,40,0,0
146218,-133.333333333333,4,2,0,50,0,0
157454,-100,4,2,0,50,0,0
167286,-100,4,2,0,40,0,0
168691,-100,4,2,0,50,0,0
177118,-100,4,2,0,60,0,0
179927,-83.3333333333333,4,2,0,70,0,1
202399,-100,4,2,0,50,0,0
208018,-100,4,2,0,45,0,0
209071,-100,4,2,0,40,0,0
210827,-100,4,2,0,35,0,0
212231,-100,4,2,0,30,0,0
212971,351.133869787857,4,2,0,30,1,0
213628,351.133869787857,4,2,0,30,1,0
216437,-100,4,2,0,25,0,0
217841,-100,4,2,0,20,0,0
219246,-100,4,2,0,15,0,0
220650,-100,4,2,0,10,0,0
222055,-100,4,2,0,5,0,0

[Colours]
Combo1 : 17,254,176
Combo2 : 173,255,95
Combo3 : 255,88,100
Combo4 : 255,94,55

[HitObjects]
91,137,0,6,0,P|83:190|80:220,2,75.000002861023,4|2|2,1:2|0:0|0:0,0:0:0:0:
91,137,1052,2,0,L|172:148,1,75.000002861023,2|2,0:1|0:0,0:0:0:0:
299,167,1754,1,2,0:0:0:0:
210,268,2105,5,0,3:0:0:0:
210,268,2280,2,0,L|158:260,2,37.5000014305115,0|0|0,3:0|3:0|3:0,0:0:0:0:
278,315,2807,2,2,P|315:331|452:272,1,187.500007152558,2|2,0:0|0:0,0:1:0:0:
444,283,4210,6,0,L|441:231,1,37.5000014305115,2|0,3:0|3:0,0:0:0:0:
353,214,4561,2,0,L|356:266,1,37.5000014305115,0|0,3:0|3:0,0:0:0:0:
361,345,4912,1,2,3:0:0:0:
91,358,5614,6,2,P|82:311|95:202,1,150.000005722046,4|2,1:2|3:0,0:1:0:0:
45,23,8925,6,0,P|49:58|20:172,2,150.000005722046,2|2|2,0:1|0:1|0:1,0:0:0:0:
131,73,10505,2,0,L|199:69,1,50,8|0,3:2|3:2,0:0:0:0:
261,124,10856,1,8,0:2:0:0:
261,124,10944,1,8,0:2:0:0:
261,124,11031,2,0,L|329:120,1,50,10|10,0:1|0:1,0:0:0:0:
429,141,11383,6,0,P|446:174|435:263,1,119.999996337891,4|2,1:2|0:3,0:0:0:0:
335,227,11909,1,0,1:2:0:0:
362,313,12085,2,0,L|240:301,1,119.999996337891,8|0,0:0|1:2,0:0:0:0:
156,345,12612,1,0,1:2:0:0:
74,274,12787,2,0,P|106:218|179:216,1,119.999996337891,2|0,0:0|1:2,0:0:0:0:
234,132,13314,1,2,0:0:0:0:
340,149,13489,2,0,P|390:160|426:163,1,59.9999981689454,10|8,0:0|0:3,0:0:0:0:
310,241,13841,2,0,P|260:230|224:227,1,59.9999981689454,4|4,0:3|0:3,0:0:0:0:
133,170,14192,6,0,P|130:130|172:46,1,119.999996337891,4|2,1:2|0:3,0:0:0:0:
283,11,14718,1,0,1:2:0:0:
268,90,14894,2,0,L|252:169,1,59.9999981689454,8|2,0:0|0:0,0:0:0:0:
343,155,15245,2,0,L|332:214,1,59.9999981689454,0|0,1:2|1:2,0:0:0:0:
375,286,15596,5,2,0:0:0:0:
308,233,15772,1,0,1:2:0:0:
232,269,15947,1,0,1:2:0:0:
162,222,16123,1,2,0:0:0:0:
88,261,16298,2,0,P|74:302|79:328,1,59.9999981689454,8|8,0:0|0:3,0:0:0:0:
80,185,16650,2,0,P|48:167|10:175,1,59.9999981689454,6|4,0:3|0:3,0:0:0:0:
25,59,17001,6,0,P|57:90|140:96,1,119.999996337891,4|2,1:2|0:3,0:0:0:0:
213,32,17527,1,0,1:3:0:0:
196,161,17703,2,0,P|241:187|301:176,1,89.999997253418,8|0,0:0|0:0,0:0:0:0:
301,205,18054,2,0,L|373:192,1,59.9999981689454,0|0,1:2|1:2,0:0:0:0:
430,85,18405,6,0,P|377:65|305:94,1,119.999996337891,2|0,0:2|1:2,0:0:0:0:
227,33,18932,1,2,0:2:0:0:
161,114,19108,1,8,0:2:0:0:
161,114,19459,5,4,1:3:0:0:
253,152,19634,1,4,1:3:0:0:
210,247,19810,2,0,P|153:265|78:256,1,119.999996337891,4|2,1:2|0:3,0:0:0:0:
22,217,20336,1,0,1:2:0:0:
7,340,20512,1,10,0:1:0:0:
225,367,20863,5,2,1:2:0:0:
225,367,21039,1,0,1:2:0:0:
241,270,21214,2,0,P|249:217|255:138,1,119.999996337891,2|2,0:0|1:2,0:0:0:0:
318,78,21741,1,2,0:0:0:0:
394,135,21917,1,8,0:2:0:0:
334,209,22092,1,2,0:0:0:0:
427,231,22268,2,2,P|456:195|472:173,1,59.9999981689454,8|8,0:0|0:3,0:1:0:0:
490,85,22619,6,0,P|437:33|373:35,1,119.999996337891,4|2,1:2|0:3,0:0:0:0:
291,104,23146,1,0,1:2:0:0:
218,55,23321,2,0,P|180:70|146:78,1,59.9999981689454,8|0,0:2|0:0,0:0:0:0:
164,185,23672,2,0,P|191:173|220:165,1,59.9999981689454,0|0,1:2|1:2,0:0:0:0:
344,206,24023,6,0,P|368:248|368:323,1,119.999996337891,2|0,0:0|1:2,0:0:0:0:
286,374,24550,1,2,0:0:0:0:
218,300,24726,2,0,P|254:289|290:278,1,59.9999981689454,8|8,0:2|1:3,0:0:0:0:
164,209,25077,2,0,P|128:220|92:231,1,59.9999981689454,4|4,0:3|0:3,0:0:0:0:
244,186,25428,5,4,1:2:0:0:
244,186,25603,2,0,P|257:138|219:53,1,119.999996337891,0|0,1:2|1:2,0:0:0:0:
304,8,26130,1,8,0:2:0:0:
506,137,26481,6,0,P|472:131|436:129,1,59.9999981689454,0|0,1:2|1:2,0:0:0:0:
368,182,26832,1,2,0:0:0:0:
390,266,27008,1,2,0:3:0:0:
454,211,27184,1,0,1:2:0:0:
454,211,27359,1,8,0:3:0:0:
477,296,27535,6,0,P|469:336|465:371,1,59.9999981689454,8|0,0:2|1:2,0:0:0:0:
350,366,27886,2,0,P|296:352|286:350,1,59.9999981689454,4|4,0:3|0:3,0:0:0:0:
245,231,28237,2,0,P|271:179|339:152,1,119.999996337891,4|2,1:2|0:3,0:0:0:0:
388,80,28764,1,0,1:2:0:0:
302,60,28939,2,0,P|251:69|177:76,1,119.999996337891,8|0,0:0|1:2,0:0:0:0:
113,140,29466,1,0,1:2:0:0:
197,163,29642,6,0,P|190:213|177:303,1,119.999996337891,2|0,0:0|1:2,0:0:0:0:
262,335,30168,2,0,P|269:285|282:195,1,119.999996337891,2|0,0:0|0:0,0:0:0:0:
339,136,30695,1,2,1:2:0:0:
432,157,30871,1,0,1:0:0:0:
398,67,31046,6,0,P|359:42|277:62,1,119.999996337891,4|2,1:2|0:0,0:0:0:0:
174,26,31573,1,0,1:2:0:0:
151,144,31748,2,0,P|198:127|230:122,1,59.9999981689454,8|2,0:0|0:3,0:0:0:0:
95,67,32099,2,0,P|48:84|16:89,1,59.9999981689454,0|0,1:2|1:2,0:0:0:0:
22,189,32451,5,2,0:0:0:0:
102,266,32626,2,0,P|155:248|234:227,1,119.999996337891,8|8,0:0|0:0,0:0:0:0:
314,202,33153,1,8,0:0:0:0:
296,302,33328,1,8,0:0:0:0:
391,266,33504,1,10,0:1:0:0:
378,367,33680,1,8,0:0:0:0:
470,325,33855,6,0,P|485:286|473:216,1,100,0|2,1:2|0:0,0:0:0:0:
473,139,34382,1,0,1:2:0:0:
473,139,34557,2,0,L|411:151,1,50,8|2,0:2|0:0,0:0:0:0:
411,54,34909,1,0,1:2:0:0:
411,54,35084,2,0,L|473:42,2,50,0|0|2,1:2|0:0|0:0,0:0:0:0:
330,26,35611,2,0,P|266:26|231:60,1,100,0|8,1:2|0:2,0:0:0:0:
154,53,36138,1,8,0:3:0:0:
154,53,36313,2,0,P|142:93|142:119,1,50,4|4,0:3|0:3,0:0:0:0:
90,193,36664,6,0,P|141:188|210:181,1,100,4|2,1:2|0:0,0:0:0:0:
176,273,37191,1,0,1:2:0:0:
176,273,37366,2,0,L|245:264,1,50,8|0,0:2|0:0,0:0:0:0:
203,356,37718,1,0,1:2:0:0:
203,356,37893,2,0,L|134:365,1,50,0|0,1:2|0:0,0:0:0:0:
59,350,38244,1,0,1:2:0:0:
66,262,38420,2,0,P|68:234|77:211,1,50,0|0,1:2|0:0,0:0:0:0:
119,113,38771,2,0,P|158:112|220:163,1,100,10|2,0:2|0:1,0:0:0:0:
402,192,39473,6,0,P|364:200|344:219,1,50,4|0,1:2|0:0,0:0:0:0:
297,253,39824,2,0,P|275:264|250:267,1,50,2|0,0:0|1:2,0:0:0:0:
193,345,40176,1,8,0:2:0:0:
193,345,40263,1,2,0:0:0:0:
193,345,40351,2,0,L|259:339,1,50,2|0,0:0|1:2,0:0:0:0:
314,363,40702,2,0,L|380:357,1,50,0|0,1:2|0:0,0:0:0:0:
414,286,41053,1,0,1:2:0:0:
376,214,41229,2,0,P|345:214|316:223,1,50,0|0,1:2|0:0,0:0:0:0:
224,182,41580,1,8,0:2:0:0:
224,182,41931,5,0,1:2:0:0:
272,280,42107,1,0,1:2:0:0:
329,191,42282,2,0,P|335:143|315:83,1,100,4|2,1:2|0:3,0:0:0:0:
230,52,42809,1,0,1:2:0:0:
230,52,42985,6,0,P|191:50|159:49,2,50,8|0|0,0:2|0:0|1:2,0:0:0:0:
199,129,43511,2,0,P|193:158|187:194,1,50,0|2,1:2|0:0,0:0:0:0:
249,234,43862,1,0,1:2:0:0:
249,234,44038,2,0,P|243:263|237:299,1,50,0|0,1:2|0:0,0:0:0:0:
313,320,44389,1,2,0:0:0:0:
313,320,44565,2,0,P|307:349|301:385,2,50,0|2|2,0:0|0:1|0:0,0:0:0:0:
366,247,45091,6,0,P|410:258|487:262,1,100,4|2,1:2|0:2,0:0:0:0:
445,179,45618,1,0,1:2:0:0:
384,117,45794,2,0,P|340:139|316:202,1,100,8|0,0:2|1:2,0:0:0:0:
237,218,46320,1,0,1:2:0:0:
237,218,46496,2,0,P|228:176|208:157,1,50,2|2,0:3|0:2,0:0:0:0:
139,197,46847,2,0,P|140:221|156:245,1,50,0|2,1:2|0:0,0:0:0:0:
216,312,47198,2,0,P|172:327|104:349,1,100,8|2,0:2|0:1,0:0:0:0:
24,174,47900,5,6,1:2:0:0:
24,174,48076,1,0,1:2:0:0:
87,234,48252,2,0,P|122:223|154:208,1,50,2|0,0:0|1:2,0:0:0:0:
187,144,48603,2,0,P|212:159|242:222,1,100,8|0,0:2|1:2,0:0:0:0:
336,221,49129,1,0,1:2:0:0:
336,221,49305,6,0,P|324:254|296:280,1,50,2|2,0:3|0:0,0:0:0:0:
301,341,49656,2,0,P|344:352|360:355,1,50,0|2,1:2|0:0,0:0:0:0:
244,291,50007,1,8,0:2:0:0:
244,291,50183,2,0,P|202:295|174:352,1,100,0|8,1:2|0:3,0:0:0:0:
84,357,50710,1,4,1:2:0:0:
84,357,51061,6,0,L|79:290,1,50,2|0,0:0|1:2,0:0:0:0:
40,200,51412,2,0,P|84:172|145:165,1,100,8|0,0:2|1:2,0:0:0:0:
146,80,51939,2,0,P|202:93|213:91,1,50,0|2,1:2|0:3,0:0:0:0:
277,81,52290,1,2,0:0:0:0:
277,81,52465,2,0,P|284:119|286:140,1,50,0|2,1:2|0:3,0:0:0:0:
289,223,52816,2,0,P|357:232|406:215,1,100,10|0,0:2|1:2,0:0:0:0:
466,184,53343,1,0,1:2:0:0:
493,260,53519,1,0,1:2:0:0:
323,364,53870,6,0,P|315:327|308:299,1,50,2|2,0:0|1:3,0:0:0:0:
285,214,54221,2,0,P|234:237|197:239,1,75,2|2,0:0|0:3,0:0:0:0:
179,239,54572,1,2,1:2:0:0:
256,192,54923,12,0,56328,1:2:0:0:
67,134,56679,6,0,P|50:186|70:250,1,100,2|10,0:1|0:1,0:0:0:0:
295,283,57381,1,0,1:2:0:0:
295,283,57557,1,0,1:2:0:0:
221,334,57732,2,0,P|185:338|109:348,1,100,2|0,0:1|1:2,0:0:0:0:
38,279,58259,2,0,P|35:238|37:215,1,50,2|8,0:0|0:0,0:0:0:0:
53,137,58610,1,2,0:3:0:0:
146,177,58786,1,2,0:1:0:0:
357,27,59137,6,0,P|293:39|280:87,1,100,2|2,1:1|0:0,0:0:0:0:
332,132,59663,1,0,1:2:0:0:
252,149,59839,2,0,P|254:181|285:247,1,100,10|0,0:1|1:2,0:0:0:0:
358,270,60366,1,0,1:2:0:0:
312,334,60541,2,0,L|258:341,1,50,2|8,0:1|0:3,0:0:0:0:
183,274,60892,2,0,L|237:267,1,50,4|4,1:3|0:3,0:0:0:0:
140,206,61244,2,2,P|99:228|97:328,1,150,8|2,0:2|0:0,0:1:0:0:
158,368,61946,5,4,1:2:0:0:
256,192,63350,1,4,1:2:0:0:
368,361,64755,6,0,L|373:307,1,50,4|8,1:2|1:3,0:0:0:0:
436,255,65106,2,0,L|441:201,1,50,2|8,1:1|1:3,0:0:0:0:
377,135,65457,2,0,L|323:130,1,50,4|8,1:2|1:3,0:0:0:0:
259,189,65808,2,0,L|205:184,1,50,2|8,1:1|1:3,0:0:0:0:
132,117,66159,5,4,1:2:0:0:
132,117,66335,1,8,1:3:0:0:
43,165,66511,2,0,L|38:219,1,50,2|4,1:1|1:3,0:0:0:0:
122,292,66862,2,0,L|127:238,1,50,4|4,1:2|1:3,0:0:0:0:
206,186,67213,1,2,1:1:0:0:
206,186,67388,1,4,1:3:0:0:
276,250,67564,6,0,P|326:248|397:204,1,119.999996337891,6|2,1:1|0:0,0:0:0:0:
392,72,68091,1,0,1:2:0:0:
304,86,68266,2,0,P|250:98|231:103,1,59.9999981689454,10|2,0:2|0:3,0:0:0:0:
127,46,68617,2,0,P|181:34|200:29,1,59.9999981689454,2|0,1:2|1:2,0:0:0:0:
190,163,68969,2,2,P|134:169|79:114,1,119.999996337891,2|0,0:2|1:2,1:0:0:0:
45,32,69495,1,2,0:0:0:0:
8,116,69671,6,0,P|1:163|2:192,1,59.9999981689454,10|8,0:1|0:3,0:0:0:0:
104,256,70022,2,0,P|111:209|110:180,1,59.9999981689454,4|4,0:3|0:3,0:0:0:0:
192,125,70373,1,4,1:2:0:0:
192,125,70724,6,0,P|252:132|267:131,1,59.9999981689454,2|0,0:0|1:2,0:0:0:0:
283,222,71075,2,0,P|338:197|350:188,1,59.9999981689454,10|2,0:2|0:3,0:0:0:0:
417,250,71426,2,0,P|452:200|458:187,1,59.9999981689454,2|0,1:2|1:2,0:0:0:0:
471,86,71778,2,2,P|424:70|368:114,1,119.999996337891,2|0,0:0|1:2,0:1:0:0:
293,69,72304,1,2,0:0:0:0:
240,133,72480,2,0,P|287:158|310:171,1,59.9999981689454,10|8,0:1|0:3,0:0:0:0:
197,225,72831,2,0,P|150:250|127:263,1,59.9999981689454,4|4,0:3|0:3,0:0:0:0:
250,308,73182,6,0,B|324:295|296:329|379:312,3,119.999996337891,4|2|8|2,1:2|0:1|0:2|1:1,0:0:0:0:
428,133,74587,1,2,0:1:0:0:
237,111,74938,1,2,1:1:0:0:
214,301,75289,1,10,0:1:0:0:
404,324,75640,2,0,P|451:329|475:331,1,59.9999981689454,2|0,1:1|1:2,0:0:0:0:
420,244,75991,6,0,P|363:234|305:241,1,89.9999972534181,0|0,1:2|0:0,0:0:0:0:
295,218,76342,2,0,P|294:161|296:136,1,59.9999981689454,2|0,0:1|1:2,0:0:0:0:
353,24,76693,2,0,P|410:34|468:27,1,89.9999972534181,8|0,0:2|0:0,0:0:0:0:
478,50,77044,2,0,P|479:107|477:132,1,59.9999981689454,2|0,1:1|1:2,0:0:0:0:
415,209,77396,2,0,P|403:253|457:318,1,119.999996337891,2|2,0:0|1:1,0:0:0:0:
501,237,77922,1,2,0:1:0:0:
501,237,78098,2,0,P|500:182|501:156,1,59.9999981689454,10|2,0:1|0:3,0:0:0:0:
389,99,78449,6,2,B|316:93|351:120|271:105,1,119.999996337891,2|4,0:0|1:2,0:1:0:0:
168,45,78976,1,2,0:2:0:0:
118,108,79151,2,0,P|106:155|104:180,1,59.9999981689454,2|0,0:1|1:2,0:0:0:0:
47,259,79503,2,0,P|78:254|118:249,1,59.9999981689454,10|2,0:0|0:3,0:0:0:0:
209,313,79854,2,0,P|178:318|138:323,1,59.9999981689454,2|0,1:2|1:2,0:0:0:0:
209,233,80205,6,2,P|257:240|296:310,1,119.999996337891,2|0,0:2|1:0,0:1:0:0:
370,356,80732,1,2,0:0:0:0:
420,288,80907,2,0,P|416:240|401:208,1,59.9999981689454,10|8,0:1|0:3,0:0:0:0:
398,113,81258,2,0,P|356:128|335:134,1,59.9999981689454,4|4,0:3|0:3,0:0:0:0:
239,148,81609,5,4,1:2:0:0:
239,148,81785,1,0,1:2:0:0:
272,243,81960,2,0,P|314:228|335:222,1,59.9999981689454,2|0,0:0|1:2,0:0:0:0:
296,336,82312,2,0,P|254:351|233:357,1,59.9999981689454,10|2,0:0|0:3,0:0:0:0:
163,298,82663,2,0,P|143:333|131:364,1,59.9999981689454,2|0,1:2|1:2,0:0:0:0:
74,276,83014,6,2,P|49:233|59:145,1,119.999996337891,2|0,0:2|1:0,0:1:0:0:
50,68,83541,1,2,0:0:0:0:
135,24,83716,2,0,P|176:40|200:50,1,59.9999981689454,10|0,0:1|1:2,0:0:0:0:
183,142,84067,2,0,P|240:130|259:125,1,59.9999981689454,4|0,0:3|0:0,0:0:0:0:
359,89,84418,5,4,1:2:0:0:
359,89,84594,1,2,0:3:0:0:
386,168,84770,2,0,P|400:203|403:233,1,59.9999981689454,2|0,0:0|1:2,0:0:0:0:
406,315,85121,1,8,0:0:0:0:
406,315,85296,2,0,P|452:320|473:323,2,59.9999981689454,2|0|2,0:1|1:1|1:1,0:0:0:0:
331,253,85823,6,0,P|298:248|263:249,1,59.9999981689454,2|2,0:0|0:3,0:0:0:0:
195,307,86174,1,0,1:2:0:0:
195,307,86350,1,2,0:0:0:0:
130,236,86525,2,0,P|91:233|56:236,1,59.9999981689454,8|2,0:0|0:0,0:0:0:0:
140,150,86876,2,0,P|201:141|217:140,1,59.9999981689454,2|0,1:2|1:2,0:0:0:0:
258,65,87227,5,0,1:2:0:0:
258,65,87403,1,2,0:0:0:0:
338,117,87579,1,2,0:3:0:0:
338,117,87754,1,0,1:2:0:0:
424,75,87930,2,0,P|428:27|418:-3,1,59.9999981689454,8|2,0:0|0:3,0:0:0:0:
491,128,88281,2,0,P|487:176|497:206,1,59.9999981689454,0|0,1:2|1:2,0:0:0:0:
456,296,88632,5,2,0:0:0:0:
383,245,88808,2,0,L|324:255,1,59.9999981689454,8|2,0:0|0:3,0:0:0:0:
261,352,89159,1,8,0:0:0:0:
181,310,89334,1,8,0:0:0:0:
98,346,89510,1,8,0:0:0:0:
19,301,89685,2,0,P|11:253|17:219,1,59.9999981689454,10|8,0:1|0:0,0:0:0:0:
26,110,90037,6,0,P|77:104|130:142,1,100,0|2,1:2|0:0,0:0:0:0:
140,204,90563,2,0,P|187:193|205:179,1,50,0|10,1:2|0:1,0:0:0:0:
426,48,91090,6,0,P|420:85|422:106,1,50,0|0,1:2|1:2,0:0:0:0:
397,183,91441,2,0,P|351:162|302:169,2,100,2|0|10,0:0|1:2|0:1,0:0:0:0:
442,256,92319,1,2,0:0:0:0:
442,256,92494,2,0,P|436:292|434:313,1,50,2|2,0:2|0:3,0:0:0:0:
335,356,92846,6,0,P|347:311|351:254,1,100,0|2,1:2|0:0,0:0:0:0:
385,163,93372,1,0,1:2:0:0:
385,163,93548,2,2,P|350:130|289:131,1,100,10|0,0:1|1:2,0:1:0:0:
221,111,94075,1,0,1:2:0:0:
221,111,94250,2,0,P|205:150|198:173,1,50,2|0,0:0|1:2,0:0:0:0:
100,167,94601,2,0,P|116:128|123:105,1,50,0|2,1:2|0:0,0:0:0:0:
24,123,94952,2,2,P|10:172|35:232,1,100,10|2,0:1|0:0,0:1:0:0:
264,322,95655,6,0,P|218:325|156:333,1,100,4|2,1:2|0:0,0:0:0:0:
84,287,96181,2,0,P|75:323|75:348,1,50,0|8,1:2|0:0,0:0:0:0:
3,267,96533,1,2,0:0:0:0:
3,267,96708,2,2,P|1:225|22:160,1,100,2|2,1:1|0:0,0:1:0:0:
98,147,97235,1,0,1:2:0:0:
98,147,97410,2,0,L|162:157,1,50,0|2,1:2|0:0,0:0:0:0:
230,187,97762,2,2,P|244:139|243:89,1,100,8|0,0:0|1:0,0:1:0:0:
148,162,98288,1,0,1:2:0:0:
148,162,98464,6,2,P|133:209|134:259,1,100,0|2,1:0|0:0,0:1:0:0:
198,306,98990,1,0,1:2:0:0:
198,306,99165,2,0,L|262:316,1,50,8|2,0:0|0:0,0:0:0:0:
327,301,99517,2,2,P|341:253|340:203,1,100,0|2,1:0|0:0,0:1:0:0:
382,104,100044,1,0,1:2:0:0:
382,104,100219,2,0,P|353:82|331:75,1,50,0|2,1:2|0:3,0:0:0:0:
219,50,100571,1,2,0:1:0:0:
278,202,100922,1,2,0:1:0:0:
107,110,101273,6,0,P|155:88|209:103,1,100,0|2,1:2|0:3,0:0:0:0:
159,191,101800,1,0,1:2:0:0:
159,191,101975,2,0,P|105:207|97:210,1,50,8|2,0:0|0:3,0:0:0:0:
88,327,102326,6,0,P|131:312|191:298,1,100,0|2,1:2|0:0,0:0:0:0:
254,237,102853,1,2,0:3:0:0:
254,237,103029,1,0,1:2:0:0:
324,291,103204,1,2,0:0:0:0:
401,236,103380,2,0,P|407:188|390:117,1,100,8|4,0:0|0:3,0:0:0:0:
310,100,103906,1,4,0:3:0:0:
379,41,104082,6,0,P|421:46|449:47,1,50,4|0,1:2|1:2,0:0:0:0:
497,125,104433,2,0,P|451:130|387:138,1,100,0|8,0:0|0:0,0:0:0:0:
369,231,104960,1,2,0:3:0:0:
369,231,105135,2,0,P|376:277|379:293,1,50,2|0,1:2|1:0,0:0:0:0:
293,359,105486,2,0,P|286:313|283:297,1,50,2|2,0:0|0:3,0:0:0:0:
184,228,105838,2,0,P|191:274|194:290,1,50,2|2,1:3|0:0,0:0:0:0:
119,333,106189,5,10,0:1:0:0:
119,333,106364,2,0,P|36:317|32:293,1,100,0|4,0:0|0:3,0:0:0:0:
72,199,106891,2,0,P|111:184|136:177,1,50,4|0,1:2|0:0,0:0:0:0:
84,96,107242,2,0,P|45:81|20:74,1,50,2|0,0:3|1:2,0:0:0:0:
113,13,107593,1,8,0:0:0:0:
113,13,107769,1,2,0:0:0:0:
195,55,107944,5,0,1:2:0:0:
195,55,108120,2,0,P|212:89|207:151,1,100,0|2,1:2|0:3,0:0:0:0:
246,239,108647,2,0,P|296:228|311:226,1,50,0|2,1:2|0:3,0:0:0:0:
327,144,108998,2,0,P|372:147|405:197,1,100,10|0,0:0|1:2,0:0:0:0:
486,228,109524,1,2,1:1:0:0:
464,315,109700,6,0,P|405:299|348:299,1,100,4|2,1:2|0:3,0:0:0:0:
309,366,110227,2,0,P|250:350|193:350,1,100,0|2,1:2|0:3,0:0:0:0:
122,377,110753,1,2,1:2:0:0:
122,377,110929,2,0,L|63:367,1,50,0|2,1:2|0:0,0:0:0:0:
238,235,111456,5,2,0:0:0:0:
38,182,111807,1,2,0:0:0:0:
185,51,112158,1,2,0:1:0:0:
116,256,112509,6,0,P|129:218|136:192,1,50,0|0,1:2|0:0,0:0:0:0:
207,152,112860,1,2,0:1:0:0:
396,256,113211,6,0,P|383:218|376:192,1,50,8|2,0:0|0:3,0:0:0:0:
305,152,113562,1,2,1:1:0:0:
427,55,113914,6,0,P|380:64|358:63,1,50,2|2,0:0|0:3,0:0:0:0:
306,23,114265,1,2,0:1:0:0:
85,48,114616,6,0,P|132:57|154:56,1,50,8|2,0:0|0:3,0:0:0:0:
206,23,114967,1,2,0:1:0:0:
256,248,115318,6,0,L|256:190,1,50,0|0,1:0|1:0,0:0:0:0:
256,88,115669,1,2,0:1:0:0:
488,232,116020,6,0,P|464:264|388:268,1,100,8|0,0:0|1:2,0:0:0:0:
360,352,116547,1,0,1:2:0:0:
360,352,116723,2,0,P|408:360|424:368,1,50,2|2,0:0|0:3,0:0:0:0:
312,268,117074,2,0,P|264:260|248:252,1,50,2|2,1:3|0:0,0:0:0:0:
296,124,117425,1,8,0:0:0:0:
296,124,117601,2,0,P|356:136|380:184,1,100,0|8,0:0|0:3,0:0:0:0:
456,192,118127,5,4,1:2:0:0:
256,340,119532,1,4,1:2:0:0:
56,192,120936,6,0,L|124:180,1,50,4|8,1:2|1:3,0:0:0:0:
168,104,121287,2,0,L|236:92,1,50,8|8,1:3|1:3,0:0:0:0:
344,204,121639,2,0,L|276:192,1,50,4|8,1:2|1:3,0:0:0:0:
212,256,121990,2,0,L|200:324,1,50,8|8,1:3|1:3,0:0:0:0:
291,379,122341,5,4,1:2:0:0:
372,330,122516,1,8,1:3:0:0:
463,354,122692,1,4,1:3:0:0:
463,354,122868,1,4,1:3:0:0:
448,260,123043,2,0,P|453:208|454:187,1,50,4|4,1:2|1:3,0:0:0:0:
367,119,123394,2,0,P|337:133|311:135,1,50,2|2,1:1|1:1,0:0:0:0:
236,86,123745,5,6,1:1:0:0:
236,86,123921,1,2,0:1:0:0:
236,207,124097,2,0,P|172:199|156:196,1,59.9999981689454,2|0,0:1|1:2,0:0:0:0:
87,293,124448,2,0,P|151:285|167:282,1,59.9999981689454,10|2,0:2|0:3,0:0:0:0:
165,172,124799,2,0,P|101:164|85:161,1,59.9999981689454,2|0,1:2|1:2,0:0:0:0:
43,57,125150,6,2,P|105:27|164:52,1,119.999996337891,2|0,0:2|1:2,1:0:0:0:
244,35,125677,1,2,0:0:0:0:
245,137,125852,2,0,P|311:126|315:126,1,59.9999981689454,10|8,0:1|0:3,0:0:0:0:
166,123,126203,2,0,L|99:133,1,59.9999981689454,4|4,0:3|0:3,0:0:0:0:
18,159,126554,1,4,1:2:0:0:
18,159,126906,6,0,P|16:213|15:237,1,59.9999981689454,2|0,0:0|1:2,0:0:0:0:
101,302,127257,2,0,P|103:248|104:224,1,59.9999981689454,10|2,0:2|0:3,0:0:0:0:
189,303,127608,2,0,P|187:357|186:381,1,59.9999981689454,2|0,1:2|1:2,0:0:0:0:
277,318,127959,2,2,P|337:290|329:219,1,119.999996337891,2|0,0:0|1:2,0:1:0:0:
301,146,128486,1,2,0:0:0:0:
215,156,128661,2,0,P|179:159|156:162,1,59.9999981689454,10|8,0:1|0:3,0:0:0:0:
191,69,129012,2,0,P|248:65|271:62,1,59.9999981689454,4|4,0:3|0:3,0:0:0:0:
373,12,129364,6,0,B|372:84|401:59|400:135,2,119.999996337891,4|2|8,1:2|0:1|0:2,0:0:0:0:
495,210,130417,2,0,P|461:214|431:219,1,59.9999981689454,2|0,1:1|1:2,0:0:0:0:
337,200,130768,5,2,0:1:0:0:
318,367,131119,1,2,1:1:0:0:
146,317,131470,1,10,0:1:0:0:
165,134,131821,1,2,1:1:0:0:
165,134,131997,1,0,1:2:0:0:
215,213,132173,6,0,P|268:205|307:163,1,89.9999972534181,0|0,1:2|0:0,0:0:0:0:
310,158,132524,2,0,P|295:110|286:85,1,59.9999981689454,2|0,0:1|1:2,0:0:0:0:
163,29,132875,2,0,P|171:73|183:121,1,89.9999972534181,8|0,0:2|0:0,0:0:0:0:
192,142,133226,2,0,P|127:171|124:178,1,59.9999981689454,2|0,1:1|1:2,0:0:0:0:
11,200,133577,6,0,P|17:248|89:290,1,119.999996337891,2|2,0:0|1:1,0:0:0:0:
142,350,134104,1,2,0:1:0:0:
142,350,134279,2,0,L|216:340,1,59.9999981689454,10|2,0:1|0:3,0:0:0:0:
264,229,134631,2,2,B|186:209|227:250|141:227,1,119.999996337891,2|4,0:0|1:2,0:1:0:0:
125,88,135157,5,2,0:2:0:0:
218,98,135333,2,0,P|258:96|297:89,1,59.9999981689454,2|0,0:1|1:2,0:0:0:0:
376,174,135684,2,0,P|355:214|345:249,1,59.9999981689454,10|2,0:0|0:3,0:0:0:0:
431,306,136035,2,0,P|452:266|462:231,1,59.9999981689454,2|0,1:2|1:2,0:0:0:0:
459,144,136386,6,2,P|434:105|353:91,1,119.999996337891,2|0,0:2|1:0,0:1:0:0:
284,148,136913,1,2,0:0:0:0:
276,37,137088,2,0,L|216:44,1,59.9999981689454,10|8,0:1|0:3,0:0:0:0:
114,89,137440,2,0,L|54:96,1,59.9999981689454,4|4,0:3|0:3,0:0:0:0:
13,219,137791,5,4,1:2:0:0:
13,219,137966,1,0,1:2:0:0:
97,207,138142,2,0,P|110:236|114:272,1,59.9999981689454,2|0,0:0|1:2,0:0:0:0:
193,372,138493,2,0,P|197:342|210:315,1,59.9999981689454,10|2,0:0|0:3,0:0:0:0:
305,198,138844,2,0,P|318:227|322:263,1,59.9999981689454,2|0,1:2|1:2,0:0:0:0:
223,192,139195,6,2,P|233:150|315:116,1,119.999996337891,2|0,0:2|1:0,0:1:0:0:
451,171,139722,1,2,0:0:0:0:
451,171,139898,2,0,P|462:209|453:245,1,59.9999981689454,10|0,0:1|1:2,0:0:0:0:
443,339,140249,2,0,L|379:324,1,59.9999981689454,4|4,0:3|0:3,0:0:0:0:
262,279,140600,5,4,1:2:0:0:
262,279,140775,1,2,0:3:0:0:
321,210,140951,2,0,L|385:225,1,59.9999981689454,2|0,0:0|1:2,0:0:0:0:
377,123,141302,1,8,0:0:0:0:
377,123,141477,1,2,0:0:0:0:
436,54,141653,2,0,L|500:69,1,59.9999981689454,0|2,1:1|1:2,0:0:0:0:
370,5,142004,6,0,P|314:8|259:63,1,119.999996337891,2|0,0:0|1:2,0:0:0:0:
207,127,142531,1,2,0:0:0:0:
127,62,142707,2,0,P|110:112|106:142,1,59.9999981689454,8|2,0:0|0:0,0:0:0:0:
172,227,143058,2,0,P|189:177|193:147,1,59.9999981689454,2|0,1:2|1:2,0:0:0:0:
245,275,143409,5,0,1:2:0:0:
340,234,143584,1,2,0:0:0:0:
368,333,143760,1,2,0:3:0:0:
273,376,143936,1,0,1:2:0:0:
273,376,144111,2,0,L|204:370,1,59.9999981689454,8|2,0:0|0:3,0:0:0:0:
74,349,144462,1,0,1:2:0:0:
74,349,144638,1,0,1:2:0:0:
125,273,144813,6,0,L|121:231,1,37.5000014305115,2|2,0:0|0:3,0:0:0:0:
60,180,145165,2,0,L|56:138,1,37.5000014305115,2|2,0:0|0:3,0:0:0:0:
118,55,145516,1,2,0:0:0:0:
79,134,157454,6,0,P|127:111|178:120,1,100,4|2,1:2|0:3,0:0:0:0:
135,206,157981,1,0,1:2:0:0:
135,206,158157,2,0,P|136:247|145:274,1,50,10|2,0:1|0:3,0:0:0:0:
160,355,158508,2,0,P|207:352|245:330,1,75,0|0,1:2|0:0,0:0:0:0:
250,314,158859,2,0,L|305:325,1,50,2|2,0:1|0:3,0:0:0:0:
393,259,159210,2,0,L|338:248,1,50,0|2,1:2|0:0,0:0:0:0:
302,157,159561,2,2,P|344:127|405:138,1,100,10|2,0:1|0:3,0:1:0:0:
467,167,160088,1,2,0:0:0:0:
467,167,160263,6,0,L|480:234,1,50,2|2,1:1|1:1,0:0:0:0:
383,217,160614,2,0,L|370:273,1,50,2|0,0:3|1:2,0:0:0:0:
286,232,160966,2,0,L|261:281,1,50,10|2,0:1|0:3,0:0:0:0:
191,217,161317,2,0,L|155:253,1,50,0|0,1:2|1:2,0:0:0:0:
139,137,161668,5,2,0:1:0:0:
139,137,161843,1,2,0:1:0:0:
222,94,162019,2,0,P|254:101|285:109,1,50,0|2,1:2|0:3,0:0:0:0:
231,7,162370,6,0,P|183:2|130:39,1,100,8|2,0:2|0:3,0:0:0:0:
56,59,162897,1,2,0:0:0:0:
99,131,163072,2,0,P|104:156|115:236,1,100,2|2,1:1|0:2,0:0:0:0:
126,317,163599,1,0,1:2:0:0:
201,249,163775,2,0,P|206:274|217:354,1,100,8|0,0:2|1:2,0:0:0:0:
289,246,164301,2,0,P|282:202|279:180,1,50,0|2,1:2|0:0,0:0:0:0:
277,102,164653,5,2,3:0:0:0:
277,102,164740,1,2,3:0:0:0:
277,102,164828,1,0,1:2:0:0:
354,68,165004,2,0,P|390:65|420:73,1,50,2|10,0:3|0:1,0:0:0:0:
167,52,165530,6,0,P|157:92|155:114,1,50,2|2,0:3|0:0,0:0:0:0:
104,192,165881,2,0,P|133:218|196:215,1,100,0|2,1:2|0:0,0:0:0:0:
257,285,166408,1,0,1:2:0:0:
257,285,166496,1,2,3:0:0:0:
257,285,166584,2,0,L|310:274,1,50,2|2,0:0|0:3,0:0:0:0:
359,194,166935,2,0,L|306:183,1,50,0|0,1:2|1:2,0:0:0:0:
258,95,167286,2,2,L|371:72,1,100,2|0,0:2|0:2,0:1:0:0:
486,326,167988,5,10,0:0:0:0:
486,326,168339,2,0,L|434:341,1,50,2|0,0:0|0:0,0:0:0:0:
455,248,168691,5,4,1:2:0:0:
430,169,168866,2,0,P|393:157|368:157,1,50,0|2,0:0|0:2,0:0:0:0:
311,110,169217,1,0,1:2:0:0:
289,203,169393,2,0,L|234:214,1,50,10|2,0:0|0:3,0:0:0:0:
150,149,169744,2,0,L|205:138,1,50,0|0,1:2|1:2,0:0:0:0:
156,237,170095,2,2,P|94:227|38:219,2,100,2|0|10,0:1|1:2|0:1,0:1:0:0:
217,300,170973,1,0,0:0:0:0:
217,300,171148,2,0,L|272:289,1,50,4|4,0:3|0:3,0:0:0:0:
328,217,171500,5,4,1:2:0:0:
328,217,171675,2,0,P|367:232|391:288,1,100,0|0,1:2|1:2,0:0:0:0:
470,339,172202,2,0,L|476:283,1,50,8|2,0:2|0:3,0:0:0:0:
454,189,172553,2,0,L|460:133,1,50,0|0,1:2|1:2,0:0:0:0:
431,40,172904,1,2,0:0:0:0:
431,40,173080,1,2,0:3:0:0:
338,22,173255,6,2,P|301:32|289:98,1,100,2|8,1:2|1:2,1:1:0:0:
312,166,173782,1,0,1:2:0:0:
199,121,173958,6,2,P|177:155|204:214,1,100,0|4,0:0|1:2,0:1:0:0:
69,60,175713,1,4,1:2:0:0:
443,60,177118,6,0,L|436:127,1,50,4|8,1:2|1:3,0:0:0:0:
368,171,177469,2,0,L|361:238,1,50,2|8,1:1|1:3,0:0:0:0:
296,123,177820,2,0,L|303:56,1,50,4|8,1:2|1:3,0:0:0:0:
242,182,178171,2,0,L|235:249,1,50,2|8,1:1|1:3,0:0:0:0:
185,118,178522,5,4,1:2:0:0:
116,164,178698,1,8,1:3:0:0:
53,110,178873,1,2,1:1:0:0:
53,110,179049,1,4,1:3:0:0:
119,54,179225,2,0,P|155:39|185:28,1,50,4|4,1:2|1:3,0:0:0:0:
236,110,179576,2,0,P|272:95|302:84,1,50,4|4,0:3|0:3,0:0:0:0:
379,145,179927,5,6,1:1:0:0:
379,145,180102,1,2,0:1:0:0:
311,195,180278,2,0,P|311:238|314:278,1,59.9999981689454,2|0,0:1|1:2,0:0:0:0:
179,235,180629,2,0,P|216:213|249:190,1,59.9999981689454,10|2,0:2|0:3,0:0:0:0:
271,331,180980,2,0,P|233:309|197:292,1,59.9999981689454,2|0,1:2|1:2,0:0:0:0:
164,147,181331,6,2,P|209:117|271:126,1,119.999996337891,2|0,0:2|1:2,1:0:0:0:
321,204,181858,1,2,0:0:0:0:
337,295,182034,2,0,P|287:309|264:314,1,59.9999981689454,10|8,0:1|0:3,0:0:0:0:
195,296,182385,2,0,P|166:304|137:311,1,59.9999981689454,4|4,0:3|0:3,0:0:0:0:
39,274,182736,1,4,1:2:0:0:
39,274,183087,6,0,P|52:215|47:189,1,59.9999981689454,2|0,0:0|1:2,0:0:0:0:
18,113,183438,2,0,L|96:95,1,59.9999981689454,10|2,0:2|0:3,0:0:0:0:
195,163,183789,2,0,P|145:177|122:182,1,59.9999981689454,2|0,1:2|1:2,0:0:0:0:
186,54,184140,6,2,P|226:37|302:47,1,119.999996337891,2|0,0:0|1:2,0:1:0:0:
300,137,184667,1,2,0:0:0:0:
381,47,184843,2,0,P|417:58|452:64,1,59.9999981689454,10|8,0:1|0:3,0:0:0:0:
414,158,185194,2,0,P|406:199|400:228,1,59.9999981689454,4|4,0:3|0:3,0:0:0:0:
311,321,185545,6,0,B|241:346|270:307|188:334,2,119.999996337891,4|2|8,1:2|0:1|0:2,0:0:0:0:
198,88,186598,2,0,P|146:98|125:113,1,59.9999981689454,2|0,1:1|1:2,0:0:0:0:
44,89,186950,5,2,0:1:0:0:
23,255,187301,1,2,1:1:0:0:
189,278,187652,1,10,0:1:0:0:
211,111,188003,1,2,1:1:0:0:
211,111,188178,1,0,1:0:0:0:
148,50,188354,6,0,P|210:26|256:33,1,89.9999972534181,0|0,1:2|0:0,0:0:0:0:
255,40,188705,2,0,L|318:50,1,59.9999981689454,2|0,0:1|1:2,0:0:0:0:
277,155,189056,2,0,L|381:133,1,89.9999972534181,8|0,0:2|0:0,0:0:0:0:
387,108,189407,2,0,P|419:96|466:102,1,59.9999981689454,2|0,1:1|1:2,0:0:0:0:
426,197,189759,6,0,P|438:237|518:250,1,119.999996337891,2|2,0:0|1:1,0:0:0:0:
512,150,190285,1,2,0:1:0:0:
512,150,190461,2,0,L|502:72,1,59.9999981689454,10|2,0:1|0:3,0:0:0:0:
397,53,190812,2,2,B|327:71|356:37|278:55,1,119.999996337891,2|4,0:0|1:2,0:1:0:0:
164,31,191339,5,2,0:2:0:0:
256,68,191514,2,0,P|246:135|244:154,1,59.9999981689454,2|0,0:1|1:2,0:0:0:0:
137,203,191865,2,0,P|144:160|149:134,1,59.9999981689454,10|2,0:0|0:3,0:0:0:0:
38,177,192217,2,0,P|28:244|26:263,1,59.9999981689454,2|0,1:2|1:2,0:0:0:0:
145,322,192568,6,2,P|189:308|227:241,1,119.999996337891,2|0,0:2|1:0,0:1:0:0:
294,322,193094,1,2,0:0:0:0:
294,322,193270,2,0,P|336:284|359:278,1,59.9999981689454,10|8,0:1|0:3,0:0:0:0:
433,221,193621,2,0,P|388:200|363:198,1,59.9999981689454,4|4,0:3|0:3,0:0:0:0:
250,139,193972,5,4,1:2:0:0:
250,139,194148,1,0,1:2:0:0:
242,232,194323,2,0,P|279:226|321:220,1,59.9999981689454,2|0,0:0|1:2,0:0:0:0:
197,304,194674,2,0,P|160:310|118:316,1,59.9999981689454,10|2,0:0|0:3,0:0:0:0:
49,236,195026,2,0,P|86:230|128:224,1,59.9999981689454,2|0,1:2|1:2,0:0:0:0:
176,133,195377,6,2,P|171:101|81:73,1,119.999996337891,2|0,0:2|1:0,0:1:0:0:
26,127,195903,1,2,0:0:0:0:
25,230,196079,1,10,0:1:0:0:
125,215,196255,1,0,1:2:0:0:
112,306,196430,2,0,P|107:350|105:370,1,59.9999981689454,4|4,0:3|0:3,0:0:0:0:
210,291,196781,6,0,P|215:247|217:227,1,59.9999981689454,4|2,1:2|0:3,0:0:0:0:
231,125,197132,1,2,0:0:0:0:
231,125,197308,1,0,1:2:0:0:
310,218,197484,2,0,P|315:174|317:154,1,59.9999981689454,8|2,0:0|0:0,0:0:0:0:
331,52,197835,1,0,1:1:0:0:
331,52,198011,1,2,1:2:0:0:
422,25,198186,6,0,P|456:64|436:130,1,119.999996337891,2|0,0:0|1:2,0:0:0:0:
395,195,198712,1,2,0:0:0:0:
496,206,198888,2,0,P|490:241|485:273,1,59.9999981689454,8|2,0:0|0:0,0:0:0:0:
387,352,199239,2,0,P|393:317|398:285,1,59.9999981689454,2|0,1:2|1:2,0:0:0:0:
302,242,199590,5,0,1:2:0:0:
224,270,199766,1,2,0:0:0:0:
194,196,199941,1,2,0:3:0:0:
273,166,200117,1,0,1:2:0:0:
201,115,200293,2,0,P|152:121|119:126,1,59.9999981689454,8|2,0:0|0:3,0:0:0:0:
31,234,200644,2,0,P|80:228|113:223,1,59.9999981689454,0|0,1:2|1:2,0:0:0:0:
202,213,200995,5,2,0:0:0:0:
146,316,201170,2,0,L|230:306,1,59.9999981689454,8|2,0:0|0:3,0:0:0:0:
322,263,201522,1,8,0:0:0:0:
399,331,201697,1,8,0:0:0:0:
475,257,201873,1,8,0:0:0:0:
398,186,202048,2,0,P|349:168|335:165,1,59.9999981689454,10|8,0:1|0:0,0:0:0:0:
411,77,202399,1,4,1:2:0:0:
411,77,202751,6,0,L|352:61,1,50,2|0,0:1|1:2,0:0:0:0:
272,35,203102,1,8,0:2:0:0:
342,256,203453,2,0,L|275:235,1,50,2|0,1:1|1:1,0:0:0:0:
92,83,204155,5,2,1:1:0:0:
92,83,204506,2,0,L|69:158,2,66.6666666666667,10|2|2,0:1|0:0|0:0,0:0:0:0:
179,100,205208,6,0,P|160:154|142:216,1,100,2|2,1:2|0:3,0:0:0:0:
103,273,205735,1,0,1:2:0:0:
103,273,205911,2,0,L|23:247,1,50,8|0,0:2|0:0,0:0:0:0:
55,350,206262,1,0,1:2:0:0:
55,350,206438,2,0,P|96:367|176:327,1,100,2|0,1:2|1:2,0:0:0:0:
198,275,206964,5,0,1:2:0:0:
198,275,207140,2,0,L|185:202,1,50,8|2,3:2|3:1,0:0:0:0:
258,156,207491,1,8,0:2:0:0:
258,156,207579,1,8,0:2:0:0:
258,156,207666,2,0,L|245:83,1,50,10|10,0:1|0:0,0:0:0:0:
310,15,208018,6,0,P|346:39|356:106,1,100,2|2,1:0|0:1,0:0:0:0:
442,113,208544,1,0,1:0:0:0:
442,113,208720,2,0,L|428:172,1,50,8|0,0:0|0:0,0:0:0:0:
492,250,209071,2,0,L|506:191,1,50,0|0,1:0|1:0,0:0:0:0:
397,363,209598,5,0,1:0:0:0:
397,363,209773,2,0,L|339:341,1,50,0|0,1:0|0:0,0:0:0:0:
337,249,210124,2,0,L|401:226,2,66.6666666666667,8|2|2,0:0|0:0|0:0,0:0:0:0:
175,249,210827,2,0,L|111:226,2,66.6666666666667,2|2|2,1:2|0:2|0:2,0:0:0:0:
256,324,211529,1,8,0:2:0:0:
192,144,212231,6,0,L|176:80,2,66.6666666666667,2|2|2,0:2|0:2|0:2,0:0:0:0:
320,144,212971,2,0,L|336:80,2,66.6666666666667,2|2|2,0:2|0:2|0:2,0:0:0:0:
256,240,213628,5,4,1:2:0:0:
256,192,213715,12,0,222055,0:0:0:0:
