osu file format v14

[General]
AudioFilename: audio.mp3
AudioLeadIn: 0
PreviewTime: 37309
Countdown: 0
SampleSet: None
StackLeniency: 0.7
Mode: 3
LetterboxInBreaks: 0
SpecialStyle: 0
WidescreenStoryboard: 1

[Editor]
DistanceSpacing: 0.7
BeatDivisor: 4
GridSize: 16
TimelineZoom: 1.6

[Metadata]
Title:Bing of Bongs
TitleUnicode:Bing of Bongs
Artist:Big Ben
ArtistUnicode:Big Ben
Creator:Hlimak
Version:About time
Source:
Tags:jumpstream night of nights touhou
BeatmapID:1473683
BeatmapSetID:695551

[Difficulty]
HPDrainRate:8.5
CircleSize:4
OverallDifficulty:8.5
ApproachRate:5
SliderMultiplier:1.6
SliderTickRate:1

[Events]
//Background and Video events
0,0,"london-bigben.jpg",0,0
//Break Periods
//Storyboard Layer 0 (Background)
//Storyboard Layer 1 (Fail)
//Storyboard Layer 2 (Pass)
//Storyboard Layer 3 (Foreground)
//Storyboard Sound Samples

[TimingPoints]
16890.4424629401,319.148936170213,4,1,0,30,1,0

[HitObjects]
192,192,16890,5,0,0:0:0:20:
320,192,16890,1,0,0:0:0:0:
448,192,17050,1,0,0:0:0:0:
320,192,17129,1,0,0:0:0:0:
448,192,17209,1,0,0:0:0:0:
64,192,17289,1,0,0:0:0:0:
192,192,17369,1,0,0:0:0:40:
320,192,17448,1,0,0:0:0:0:
192,192,17608,1,0,0:0:0:0:
64,192,17688,1,0,0:0:0:40:
192,192,17768,1,0,0:0:0:0:
448,192,17847,1,0,0:0:0:0:
320,192,17927,1,0,0:0:0:0:
192,192,18007,1,0,0:0:0:40:
448,192,18007,1,0,0:0:0:0:
320,192,18087,1,0,0:0:0:0:
192,192,18246,1,0,0:0:0:0:
64,192,18326,1,0,0:0:0:40:
448,192,18326,1,0,0:0:0:0:
192,192,18486,1,0,0:0:0:0:
320,192,18565,1,0,0:0:0:0:
192,192,18645,1,0,0:0:0:40:
320,192,18725,1,0,0:0:0:0:
448,192,18885,1,0,0:0:0:0:
64,192,18964,1,0,0:0:0:40:
192,192,19044,1,0,0:0:0:0:
320,192,19124,1,0,0:0:0:40:
448,192,19124,1,0,0:0:0:0:
64,192,19284,1,0,0:0:0:20:
320,192,19284,1,0,0:0:0:20:
192,192,19284,1,0,0:0:0:0:
448,192,19443,1,0,0:0:0:40:
192,192,19443,1,0,0:0:0:0:
64,192,19603,1,0,0:0:0:40:
320,192,19603,1,0,0:0:0:0:
192,192,19762,1,0,0:0:0:0:
320,192,19842,1,0,0:0:0:0:
64,192,19922,1,0,0:0:0:40:
192,192,20002,1,0,0:0:0:0:
448,192,20161,1,0,0:0:0:0:
320,192,20241,1,0,0:0:0:40:
64,192,20321,1,0,0:0:0:0:
192,192,20401,1,0,0:0:0:0:
320,192,20480,1,0,0:0:0:0:
64,192,20560,1,0,0:0:0:40:
448,192,20560,1,0,0:0:0:0:
320,192,20640,1,0,0:0:0:0:
448,192,20800,1,0,0:0:0:0:
64,192,20879,1,0,0:0:0:40:
320,192,20879,1,0,0:0:0:0:
192,192,21039,1,0,0:0:0:0:
64,192,21119,1,0,0:0:0:0:
448,192,21198,1,0,0:0:0:40:
320,192,21278,1,0,0:0:0:0:
192,192,21438,1,0,0:0:0:0:
64,192,21518,1,0,0:0:0:40:
320,192,21597,1,0,0:0:0:0:
192,192,21677,1,0,0:0:0:40:
448,192,21677,1,0,0:0:0:0:
64,192,21837,1,0,0:0:0:20:
448,192,21837,1,0,0:0:0:0:
320,192,21837,1,0,0:0:0:0:
192,192,21996,1,0,0:0:0:0:
320,192,21996,1,0,0:0:0:0:
64,192,22156,1,0,0:0:0:40:
448,192,22156,1,0,0:0:0:0:
192,192,22315,1,0,0:0:0:0:
320,192,22395,1,0,0:0:0:0:
448,192,22475,1,0,0:0:0:40:
320,192,22555,1,0,0:0:0:0:
192,192,22714,1,0,0:0:0:0:
64,192,22794,1,0,0:0:0:40:
320,192,22874,1,0,0:0:0:0:
192,192,22954,1,0,0:0:0:40:
448,192,22954,1,0,0:0:0:0:
64,192,23034,1,0,0:0:0:0:
320,192,23113,1,0,0:0:0:20:
192,192,23113,1,0,0:0:0:0:
448,192,23113,1,0,0:0:0:0:
64,192,23193,1,0,0:0:0:0:
192,192,23273,1,0,0:0:0:0:
320,192,23353,1,0,0:0:0:0:
192,192,23432,1,0,0:0:0:40:
448,192,23432,1,0,0:0:0:0:
64,192,23592,1,0,0:0:0:0:
192,192,23672,1,0,0:0:0:0:
64,192,23752,1,0,0:0:0:40:
320,192,23831,1,0,0:0:0:0:
448,192,23991,1,0,0:0:0:0:
64,192,24071,1,0,0:0:0:40:
320,192,24151,1,0,0:0:0:0:
192,192,24230,1,0,0:0:0:40:
64,192,24230,1,0,0:0:0:0:
448,192,24390,1,0,0:0:0:20:
320,192,24390,1,0,0:0:0:20:
192,192,24390,1,0,0:0:0:0:
448,192,24550,1,0,0:0:0:0:
320,192,24550,1,0,0:0:0:0:
64,192,24709,1,0,0:0:0:0:
192,192,24709,1,0,0:0:0:0:
192,192,24869,1,0,0:0:0:0:
448,192,24948,1,0,0:0:0:0:
320,192,25028,1,0,0:0:0:0:
64,192,25108,1,0,0:0:0:0:
192,192,25188,1,0,0:0:0:0:
448,192,25268,1,0,0:0:0:0:
64,192,25347,1,0,0:0:0:0:
320,192,25427,1,0,0:0:0:0:
192,192,25507,1,0,0:0:0:0:
64,192,25587,1,0,0:0:0:0:
448,192,25667,1,0,0:0:0:0:
192,192,25667,1,0,0:0:0:0:
320,192,25746,1,0,0:0:0:0:
192,192,25826,1,0,0:0:0:0:
320,192,25906,1,0,0:0:0:0:
64,192,25986,1,0,0:0:0:0:
448,192,25986,1,0,0:0:0:0:
192,192,26145,1,0,0:0:0:0:
448,192,26145,1,0,0:0:0:0:
320,192,26225,1,0,0:0:0:0:
64,192,26305,1,0,0:0:0:0:
320,192,26385,1,0,0:0:0:0:
192,192,26464,1,0,0:0:0:0:
320,192,26544,1,0,0:0:0:0:
64,192,26624,1,0,0:0:0:0:
448,192,26704,1,0,0:0:0:0:
64,192,26784,1,0,0:0:0:40:
320,192,26784,1,0,0:0:0:0:
192,192,26943,1,0,0:0:0:0:
320,192,26943,1,0,0:0:0:0:
64,192,27103,1,0,0:0:0:20:
192,192,27103,1,0,0:0:0:0:
320,192,27103,1,0,0:0:0:0:
448,192,27262,1,0,0:0:0:0:
192,192,27422,1,0,0:0:0:40:
320,192,27422,1,0,0:0:0:0:
448,192,27502,1,0,0:0:0:0:
192,192,27661,1,0,0:0:0:0:
64,192,27741,1,0,0:0:0:40:
448,192,27821,1,0,0:0:0:0:
320,192,27980,1,0,0:0:0:0:
64,192,28060,1,0,0:0:0:40:
192,192,28060,1,0,0:0:0:0:
320,192,28140,1,0,0:0:0:0:
448,192,28220,1,0,0:0:0:0:
320,192,28300,1,0,0:0:0:0:
64,192,28379,1,0,0:0:0:40:
192,192,28459,1,0,0:0:0:0:
320,192,28539,1,0,0:0:0:0:
64,192,28698,1,0,0:0:0:40:
192,192,28698,1,0,0:0:0:0:
448,192,28778,1,0,0:0:0:0:
192,192,28938,1,0,0:0:0:0:
64,192,29018,1,0,0:0:0:40:
320,192,29097,1,0,0:0:0:0:
64,192,29257,1,0,0:0:0:0:
192,192,29337,1,0,0:0:0:20:
320,192,29337,1,0,0:0:0:20:
448,192,29337,1,0,0:0:0:0:
320,192,29496,1,0,0:0:0:0:
448,192,29496,1,0,0:0:0:0:
64,192,29656,1,0,0:0:0:20:
192,192,29656,1,0,0:0:0:0:
320,192,29656,1,0,0:0:0:0:
448,192,29815,1,0,0:0:0:0:
64,192,29975,1,0,0:0:0:40:
192,192,29975,1,0,0:0:0:0:
448,192,30055,1,0,0:0:0:0:
192,192,30214,1,0,0:0:0:0:
64,192,30294,1,0,0:0:0:40:
192,192,30374,1,0,0:0:0:0:
64,192,30534,1,0,0:0:0:0:
192,192,30613,1,0,0:0:0:40:
448,192,30613,1,0,0:0:0:0:
320,192,30693,1,0,0:0:0:0:
64,192,30773,1,0,0:0:0:0:
192,192,30853,1,0,0:0:0:0:
320,192,30932,1,0,0:0:0:40:
448,192,31012,1,0,0:0:0:0:
192,192,31092,1,0,0:0:0:0:
64,192,31252,1,0,0:0:0:40:
192,192,31252,1,0,0:0:0:0:
448,192,31331,1,0,0:0:0:0:
320,192,31491,1,0,0:0:0:0:
64,192,31571,1,0,0:0:0:40:
448,192,31651,1,0,0:0:0:0:
320,192,31810,1,0,0:0:0:0:
64,192,31890,1,0,0:0:0:20:
192,192,31890,1,0,0:0:0:20:
448,192,31890,1,0,0:0:0:0:
192,192,32050,1,0,0:0:0:0:
320,192,32050,1,0,0:0:0:0:
64,192,32209,1,0,0:0:0:20:
448,192,32209,1,0,0:0:0:0:
320,192,32209,1,0,0:0:0:0:
192,192,32369,1,0,0:0:0:0:
64,192,32528,1,0,0:0:0:40:
192,192,32528,1,0,0:0:0:0:
448,192,32608,1,0,0:0:0:0:
320,192,32768,1,0,0:0:0:0:
192,192,32847,1,0,0:0:0:40:
448,192,32927,1,0,0:0:0:0:
192,192,33087,1,0,0:0:0:0:
64,192,33167,1,0,0:0:0:20:
320,192,33167,1,0,0:0:0:20:
448,192,33167,1,0,0:0:0:0:
192,192,33246,1,0,0:0:0:0:
448,192,33326,1,0,0:0:0:0:
64,192,33326,1,0,0:0:0:0:
192,192,33406,1,0,0:0:0:0:
64,192,33486,1,0,0:0:0:20:
320,192,33486,1,0,0:0:0:0:
448,192,33565,1,0,0:0:0:0:
192,192,33645,1,0,0:0:0:0:
64,192,33805,1,0,0:0:0:40:
320,192,33805,1,0,0:0:0:0:
448,192,33885,1,0,0:0:0:0:
192,192,34044,1,0,0:0:0:0:
320,192,34124,1,0,0:0:0:40:
192,192,34204,1,0,0:0:0:0:
448,192,34363,1,0,0:0:0:0:
64,192,34443,1,0,0:0:0:20:
192,192,34443,1,0,0:0:0:20:
320,192,34443,1,0,0:0:0:0:
64,192,34603,1,0,0:0:0:0:
448,192,34603,1,0,0:0:0:0:
448,192,34762,1,0,0:0:0:20:
192,192,34762,1,0,0:0:0:0:
320,192,34762,1,0,0:0:0:0:
64,192,34922,1,0,0:0:0:0:
192,192,35081,1,0,0:0:0:0:
320,192,35161,1,0,0:0:0:0:
448,192,35321,1,0,0:0:0:0:
64,192,35401,1,0,0:0:0:0:
320,192,35480,1,0,0:0:0:0:
192,192,35640,1,0,0:0:0:0:
448,192,35720,1,0,0:0:0:0:
192,192,35800,1,0,0:0:0:0:
448,192,35879,1,0,0:0:0:0:
192,192,35959,1,0,0:0:0:0:
64,192,36039,1,0,0:0:0:0:
448,192,36119,1,0,0:0:0:0:
320,192,36198,1,0,0:0:0:0:
192,192,36358,1,0,0:0:0:0:
64,192,36358,1,0,0:0:0:0:
448,192,36438,1,0,0:0:0:0:
64,192,36597,1,0,0:0:0:0:
320,192,36677,1,0,0:0:0:0:
192,192,36757,1,0,0:0:0:0:
64,192,36917,1,0,0:0:0:0:
448,192,36996,1,0,0:0:0:40:
320,192,36996,1,0,0:0:0:0:
64,192,37076,1,0,0:0:0:0:
320,192,37156,1,0,0:0:0:40:
448,192,37156,1,0,0:0:0:0:
64,192,37236,1,0,0:0:0:40:
448,192,37315,1,0,0:0:0:40:
320,192,37315,1,0,0:0:0:0:
192,192,37475,1,0,0:0:0:0:
320,192,37635,1,0,0:0:0:0:
448,192,37714,1,0,0:0:0:0:
320,192,37794,1,0,0:0:0:0:
448,192,37954,1,0,0:0:0:0:
64,192,38113,1,0,0:0:0:0:
192,192,38273,1,0,0:0:0:0:
320,192,38353,1,0,0:0:0:0:
192,192,38432,1,0,0:0:0:0:
320,192,38512,1,0,0:0:0:0:
192,192,38592,1,0,0:0:0:0:
448,192,38752,1,0,0:0:0:0:
320,192,38911,1,0,0:0:0:0:
448,192,38991,1,0,0:0:0:0:
320,192,39071,1,0,0:0:0:0:
448,192,39151,1,0,0:0:0:0:
320,192,39230,1,0,0:0:0:0:
448,192,39390,1,0,0:0:0:0:
320,192,39550,1,0,0:0:0:0:
192,192,39709,1,0,0:0:0:0:
64,192,39869,1,0,0:0:0:0:
448,192,40028,1,0,0:0:0:0:
192,192,40188,1,0,0:0:0:0:
64,192,40268,1,0,0:0:0:0:
192,192,40347,1,0,0:0:0:0:
448,192,40507,1,0,0:0:0:0:
320,192,40667,1,0,0:0:0:0:
64,192,40826,1,0,0:0:0:0:
320,192,40906,1,0,0:0:0:0:
64,192,40986,1,0,0:0:0:0:
320,192,41065,1,0,0:0:0:0:
64,192,41145,1,0,0:0:0:40:
192,192,41305,1,0,0:0:0:0:
448,192,41464,1,0,0:0:0:0:
192,192,41544,1,0,0:0:0:0:
448,192,41624,1,0,0:0:0:0:
192,192,41704,1,0,0:0:0:0:
448,192,41784,1,0,0:0:0:0:
320,192,41943,1,0,0:0:0:0:
192,192,42103,1,0,0:0:0:0:
64,192,42262,1,0,0:0:0:0:
448,192,42422,1,0,0:0:0:0:
192,192,42581,1,0,0:0:0:0:
64,192,42741,1,0,0:0:0:0:
192,192,42821,1,0,0:0:0:0:
64,192,42901,1,0,0:0:0:0:
192,192,43060,1,0,0:0:0:0:
448,192,43220,1,0,0:0:0:0:
64,192,43379,1,0,0:0:0:0:
448,192,43459,1,0,0:0:0:0:
64,192,43539,1,0,0:0:0:0:
448,192,43619,1,0,0:0:0:0:
64,192,43698,1,0,0:0:0:0:
448,192,43858,1,0,0:0:0:0:
320,192,44018,1,0,0:0:0:0:
448,192,44097,1,0,0:0:0:0:
320,192,44177,1,0,0:0:0:0:
448,192,44257,1,0,0:0:0:0:
320,192,44337,1,0,0:0:0:0:
448,192,44496,1,0,0:0:0:0:
64,192,44550,1,0,0:0:0:0:
192,192,44603,1,0,0:0:0:0:
320,192,44656,1,0,0:0:0:0:
192,192,44815,1,0,0:0:0:0:
64,192,44975,1,0,0:0:0:0:
192,192,45135,1,0,0:0:0:0:
64,192,45214,1,0,0:0:0:0:
192,192,45294,1,0,0:0:0:0:
320,192,45454,1,0,0:0:0:0:
192,192,45613,1,0,0:0:0:0:
320,192,45773,1,0,0:0:0:0:
192,192,45853,1,0,0:0:0:0:
320,192,45932,1,0,0:0:0:0:
64,192,46092,1,0,0:0:0:0:
320,192,46252,1,0,0:0:0:0:
448,192,46411,1,0,0:0:0:0:
320,192,46491,1,0,0:0:0:0:
448,192,46571,1,0,0:0:0:0:
192,192,46730,1,0,0:0:0:0:
320,192,46890,1,0,0:0:0:0:
448,192,47050,128,0,47528:0:0:0:0:
320,192,47528,1,0,0:0:0:0:
64,192,47688,1,0,0:0:0:0:
192,192,47847,1,0,0:0:0:0:
64,192,47927,1,0,0:0:0:0:
192,192,48007,1,0,0:0:0:0:
320,192,48167,1,0,0:0:0:0:
192,192,48326,1,0,0:0:0:0:
320,192,48486,1,0,0:0:0:0:
192,192,48565,1,0,0:0:0:0:
320,192,48645,1,0,0:0:0:0:
192,192,48725,1,0,0:0:0:0:
320,192,48805,1,0,0:0:0:0:
64,192,48964,1,0,0:0:0:0:
320,192,49124,1,0,0:0:0:0:
448,192,49204,1,0,0:0:0:0:
320,192,49284,1,0,0:0:0:0:
448,192,49363,1,0,0:0:0:0:
320,192,49443,1,0,0:0:0:0:
448,192,49603,1,0,0:0:0:0:
320,192,49762,1,0,0:0:0:0:
192,192,49922,1,0,0:0:0:0:
64,192,50081,1,0,0:0:0:0:
448,192,50241,1,0,0:0:0:0:
320,192,50401,1,0,0:0:0:0:
448,192,50480,1,0,0:0:0:0:
320,192,50560,1,0,0:0:0:0:
64,192,50720,1,0,0:0:0:0:
448,192,50879,1,0,0:0:0:0:
320,192,51039,1,0,0:0:0:0:
192,192,51119,1,0,0:0:0:0:
320,192,51198,1,0,0:0:0:0:
192,192,51278,1,0,0:0:0:0:
320,192,51358,1,0,0:0:0:40:
64,192,51518,1,0,0:0:0:0:
448,192,51677,1,0,0:0:0:0:
320,192,51757,1,0,0:0:0:0:
448,192,51837,1,0,0:0:0:0:
320,192,51917,1,0,0:0:0:0:
448,192,51996,1,0,0:0:0:0:
64,192,52156,1,0,0:0:0:0:
320,192,52315,1,0,0:0:0:0:
192,192,52475,1,0,0:0:0:0:
64,192,52635,1,0,0:0:0:0:
320,192,52794,1,0,0:0:0:0:
192,192,52954,1,0,0:0:0:0:
320,192,53034,1,0,0:0:0:0:
192,192,53113,1,0,0:0:0:0:
320,192,53273,1,0,0:0:0:0:
448,192,53432,1,0,0:0:0:0:
320,192,53592,1,0,0:0:0:0:
64,192,53672,1,0,0:0:0:0:
320,192,53752,1,0,0:0:0:0:
64,192,53831,1,0,0:0:0:0:
320,192,53911,1,0,0:0:0:0:
448,192,54071,1,0,0:0:0:0:
192,192,54230,1,0,0:0:0:0:
448,192,54310,1,0,0:0:0:0:
192,192,54390,1,0,0:0:0:0:
448,192,54470,1,0,0:0:0:0:
192,192,54550,1,0,0:0:0:0:
448,192,54709,1,0,0:0:0:0:
320,192,54762,1,0,0:0:0:0:
192,192,54815,1,0,0:0:0:0:
64,192,54869,1,0,0:0:0:0:
192,192,55028,1,0,0:0:0:0:
320,192,55188,1,0,0:0:0:0:
64,192,55347,1,0,0:0:0:0:
320,192,55427,1,0,0:0:0:0:
64,192,55507,1,0,0:0:0:0:
192,192,55667,1,0,0:0:0:0:
448,192,55826,1,0,0:0:0:0:
320,192,55986,1,0,0:0:0:0:
448,192,56145,1,0,0:0:0:0:
192,192,56305,1,0,0:0:0:0:
448,192,56464,1,0,0:0:0:0:
320,192,56624,1,0,0:0:0:0:
192,192,56704,1,0,0:0:0:0:
320,192,56784,1,0,0:0:0:0:
192,192,56863,1,0,0:0:0:0:
320,192,56943,1,0,0:0:0:0:
448,192,57023,1,0,0:0:0:0:
320,192,57103,1,0,0:0:0:0:
448,192,57182,1,0,0:0:0:0:
320,192,57262,1,0,0:0:0:0:
192,192,57342,1,0,0:0:0:0:
448,192,57422,1,0,0:0:0:0:
320,192,57581,1,0,0:0:0:0:
448,192,57741,1,0,0:0:0:0:
64,192,57741,128,0,58220:0:0:0:0:
192,192,57901,1,0,0:0:0:0:
320,192,58060,1,0,0:0:0:0:
448,192,58140,1,0,0:0:0:0:
320,192,58220,1,0,0:0:0:0:
448,192,58379,1,0,0:0:0:0:
192,192,58379,128,0,58858:0:0:0:0:
64,192,58539,1,0,0:0:0:0:
448,192,58698,1,0,0:0:0:0:
320,192,58778,1,0,0:0:0:0:
448,192,58858,1,0,0:0:0:0:
320,192,58938,1,0,0:0:0:0:
448,192,59018,1,0,0:0:0:0:
64,192,59018,128,0,59496:0:0:0:0:
192,192,59177,1,0,0:0:0:0:
320,192,59337,1,0,0:0:0:0:
448,192,59417,1,0,0:0:0:0:
320,192,59496,1,0,0:0:0:0:
448,192,59576,1,0,0:0:0:0:
320,192,59656,1,0,0:0:0:0:
192,192,59656,128,0,60135:0:0:0:0:
448,192,59815,1,0,0:0:0:0:
320,192,59975,1,0,0:0:0:0:
64,192,60135,1,0,0:0:0:0:
192,192,60294,1,0,0:0:0:0:
448,192,60294,128,0,60773:0:0:0:0:
320,192,60454,1,0,0:0:0:0:
192,192,60613,1,0,0:0:0:0:
64,192,60693,1,0,0:0:0:0:
192,192,60773,1,0,0:0:0:0:
64,192,60932,1,0,0:0:0:0:
320,192,60932,128,0,61411:0:0:0:0:
448,192,61092,1,0,0:0:0:0:
64,192,61252,1,0,0:0:0:0:
192,192,61331,1,0,0:0:0:0:
64,192,61411,1,0,0:0:0:0:
192,192,61491,1,0,0:0:0:0:
64,192,61571,1,0,0:0:0:40:
448,192,61571,128,0,62050:0:0:0:0:
320,192,61730,1,0,0:0:0:0:
192,192,61890,1,0,0:0:0:0:
64,192,61970,1,0,0:0:0:0:
192,192,62050,1,0,0:0:0:0:
64,192,62129,1,0,0:0:0:0:
192,192,62209,1,0,0:0:0:0:
320,192,62209,128,0,62688:0:0:0:0:
64,192,62369,1,0,0:0:0:0:
448,192,62422,1,0,0:0:0:0:
192,192,62475,1,0,0:0:0:0:
64,192,62528,1,0,0:0:0:0:
448,192,62688,1,0,0:0:0:0:
448,192,62847,1,0,0:0:0:0:
64,192,62847,128,0,63326:0:0:0:0:
320,192,63007,1,0,0:0:0:0:
448,192,63087,1,0,0:0:0:0:
320,192,63167,1,0,0:0:0:0:
448,192,63326,1,0,0:0:0:0:
320,192,63406,1,0,0:0:0:0:
448,192,63486,1,0,0:0:0:0:
192,192,63486,128,0,63964:0:0:0:0:
320,192,63565,1,0,0:0:0:0:
448,192,63645,1,0,0:0:0:0:
320,192,63725,1,0,0:0:0:0:
448,192,63805,1,0,0:0:0:0:
320,192,63885,1,0,0:0:0:0:
448,192,63964,1,0,0:0:0:0:
320,192,64044,1,0,0:0:0:0:
448,192,64124,1,0,0:0:0:0:
64,192,64124,128,0,64603:0:0:0:0:
320,192,64204,1,0,0:0:0:0:
448,192,64284,1,0,0:0:0:0:
320,192,64363,1,0,0:0:0:0:
448,192,64443,1,0,0:0:0:0:
320,192,64523,1,0,0:0:0:0:
448,192,64603,1,0,0:0:0:0:
320,192,64682,1,0,0:0:0:0:
448,192,64762,1,0,0:0:0:0:
192,192,64762,128,0,65241:0:0:0:0:
320,192,64842,1,0,0:0:0:0:
448,192,64922,1,0,0:0:0:0:
320,192,65002,1,0,0:0:0:0:
448,192,65081,1,0,0:0:0:0:
320,192,65161,1,0,0:0:0:0:
448,192,65241,1,0,0:0:0:0:
320,192,65321,1,0,0:0:0:0:
448,192,65401,1,0,0:0:0:0:
64,192,65401,128,0,65879:0:0:0:0:
320,192,65560,1,0,0:0:0:0:
448,192,65720,1,0,0:0:0:0:
320,192,65800,1,0,0:0:0:0:
448,192,65879,1,0,0:0:0:0:
320,192,65959,1,0,0:0:0:0:
448,192,66039,1,0,0:0:0:0:
192,192,66039,128,0,66518:0:0:0:0:
64,192,66198,1,0,0:0:0:0:
320,192,66358,1,0,0:0:0:0:
448,192,66438,1,0,0:0:0:0:
320,192,66518,1,0,0:0:0:0:
448,192,66597,1,0,0:0:0:0:
320,192,66677,1,0,0:0:0:0:
64,192,66677,128,0,67156:0:0:0:0:
192,192,66837,1,0,0:0:0:0:
320,192,66996,1,0,0:0:0:0:
448,192,67076,1,0,0:0:0:0:
320,192,67156,1,0,0:0:0:0:
448,192,67236,1,0,0:0:0:0:
64,192,67315,1,0,0:0:0:0:
192,192,67315,128,0,67794:0:0:0:0:
448,192,67475,1,0,0:0:0:0:
320,192,67555,1,0,0:0:0:0:
448,192,67635,1,0,0:0:0:0:
320,192,67794,1,0,0:0:0:0:
448,192,67954,128,0,68432:0:0:0:0:
192,192,67954,1,0,0:0:0:0:
64,192,68113,1,0,0:0:0:0:
192,192,68273,1,0,0:0:0:0:
64,192,68353,1,0,0:0:0:0:
192,192,68432,1,0,0:0:0:0:
320,192,68592,128,0,69071:0:0:0:0:
448,192,68592,1,0,0:0:0:0:
192,192,68752,1,0,0:0:0:0:
64,192,68911,1,0,0:0:0:0:
192,192,68991,1,0,0:0:0:0:
64,192,69071,1,0,0:0:0:0:
192,192,69151,1,0,0:0:0:0:
448,192,69230,128,0,69709:0:0:0:0:
64,192,69230,1,0,0:0:0:0:
320,192,69390,1,0,0:0:0:0:
192,192,69550,1,0,0:0:0:0:
64,192,69629,1,0,0:0:0:0:
192,192,69709,1,0,0:0:0:0:
320,192,69869,128,0,70347:0:0:0:0:
64,192,69869,1,0,0:0:0:0:
448,192,70028,1,0,0:0:0:0:
192,192,70188,1,0,0:0:0:0:
64,192,70347,1,0,0:0:0:0:
64,192,70507,128,0,70986:0:0:0:0:
448,192,70507,1,0,0:0:0:0:
192,192,70667,1,0,0:0:0:0:
320,192,70826,1,0,0:0:0:0:
448,192,70906,1,0,0:0:0:0:
320,192,70986,1,0,0:0:0:0:
448,192,71065,1,0,0:0:0:0:
192,192,71145,128,0,71624:0:0:0:0:
320,192,71145,1,0,0:0:0:0:
448,192,71305,1,0,0:0:0:0:
448,192,71464,1,0,0:0:0:0:
320,192,71544,1,0,0:0:0:0:
448,192,71624,1,0,0:0:0:40:
320,192,71704,1,0,0:0:0:0:
64,192,71784,128,0,72262:0:0:0:0:
448,192,71784,1,0,0:0:0:0:
192,192,71943,1,0,0:0:0:0:
448,192,72103,1,0,0:0:0:0:
320,192,72182,1,0,0:0:0:0:
448,192,72262,1,0,0:0:0:0:
320,192,72342,1,0,0:0:0:0:
192,192,72422,128,0,72901:0:0:0:0:
448,192,72422,1,0,0:0:0:0:
448,192,72581,1,0,0:0:0:0:
320,192,72635,1,0,0:0:0:0:
64,192,72688,1,0,0:0:0:0:
448,192,72741,1,0,0:0:0:0:
64,192,72901,1,0,0:0:0:0:
448,192,73060,128,0,73539:0:0:0:0:
192,192,73060,1,0,0:0:0:0:
64,192,73220,1,0,0:0:0:0:
192,192,73300,1,0,0:0:0:0:
64,192,73379,1,0,0:0:0:0:
192,192,73459,1,0,0:0:0:0:
64,192,73539,1,0,0:0:0:0:
192,192,73619,1,0,0:0:0:0:
320,192,73698,128,0,74177:0:0:0:0:
64,192,73698,1,0,0:0:0:0:
192,192,73778,1,0,0:0:0:0:
64,192,73858,1,0,0:0:0:0:
192,192,73938,1,0,0:0:0:0:
64,192,74018,1,0,0:0:0:0:
192,192,74097,1,0,0:0:0:0:
64,192,74177,1,0,0:0:0:0:
192,192,74257,1,0,0:0:0:0:
448,192,74337,128,0,74815:0:0:0:0:
64,192,74337,1,0,0:0:0:0:
192,192,74417,1,0,0:0:0:0:
64,192,74496,1,0,0:0:0:0:
192,192,74576,1,0,0:0:0:0:
64,192,74656,1,0,0:0:0:0:
192,192,74736,1,0,0:0:0:0:
64,192,74815,1,0,0:0:0:0:
192,192,74895,1,0,0:0:0:0:
320,192,74975,128,0,75454:0:0:0:0:
64,192,74975,1,0,0:0:0:0:
192,192,75055,1,0,0:0:0:0:
64,192,75135,1,0,0:0:0:0:
192,192,75214,1,0,0:0:0:0:
64,192,75294,1,0,0:0:0:0:
192,192,75374,1,0,0:0:0:0:
64,192,75454,1,0,0:0:0:0:
192,192,75534,1,0,0:0:0:0:
448,192,75613,128,0,76092:0:0:0:0:
64,192,75613,1,0,0:0:0:0:
320,192,75773,1,0,0:0:0:0:
192,192,75932,1,0,0:0:0:0:
64,192,76012,1,0,0:0:0:0:
192,192,76092,1,0,0:0:0:0:
64,192,76172,1,0,0:0:0:0:
192,192,76252,128,0,76730:0:0:0:0:
320,192,76252,1,0,0:0:0:0:
448,192,76411,1,0,0:0:0:0:
320,192,76571,1,0,0:0:0:0:
448,192,76651,1,0,0:0:0:0:
320,192,76730,1,0,0:0:0:0:
448,192,76810,1,0,0:0:0:0:
64,192,76890,128,0,77369:0:0:0:0:
320,192,76890,1,0,0:0:0:0:
448,192,77050,1,0,0:0:0:0:
320,192,77209,1,0,0:0:0:0:
448,192,77289,1,0,0:0:0:0:
320,192,77369,1,0,0:0:0:0:
448,192,77448,1,0,0:0:0:0:
192,192,77528,128,0,78007:0:0:0:0:
320,192,77528,1,0,0:0:0:0:
64,192,77688,1,0,0:0:0:0:
320,192,77847,1,0,0:0:0:0:
448,192,77927,1,0,0:0:0:0:
320,192,78007,1,0,0:0:0:0:
448,192,78087,1,0,0:0:0:0:
320,192,78167,128,0,78645:0:0:0:0:
192,192,78167,1,0,0:0:0:0:
448,192,78486,1,0,0:0:0:0:
64,192,78805,128,0,79284:0:0:0:0:
192,192,78805,1,0,0:0:0:0:
320,192,78964,1,0,0:0:0:0:
448,192,79284,1,0,0:0:0:0:
192,192,79443,128,0,79922:0:0:0:0:
64,192,79603,1,0,0:0:0:0:
320,192,79762,1,0,0:0:0:0:
448,192,80081,128,0,80560:0:0:0:0:
320,192,80081,1,0,0:0:0:0:
320,192,80401,1,0,0:0:0:0:
320,192,80720,128,0,81198:0:0:0:0:
64,192,80720,1,0,0:0:0:0:
448,192,81039,1,0,0:0:0:0:
64,192,81358,128,0,81837:0:0:0:0:
192,192,81358,1,0,0:0:0:0:
448,192,81518,1,0,0:0:0:0:
320,192,81837,1,0,0:0:0:0:
192,192,81996,128,0,82475:0:0:0:0:
448,192,82156,1,0,0:0:0:0:
64,192,82315,1,0,0:0:0:0:
448,192,82635,128,0,82794:0:0:0:0:
320,192,82635,1,0,0:0:0:0:
192,192,82954,128,0,83113:0:0:0:0:
320,192,82954,1,0,0:0:0:0:
320,192,83273,128,0,83752:0:0:0:0:
192,192,83273,1,0,0:0:0:0:
448,192,83592,1,0,0:0:0:0:
64,192,83911,128,0,84390:0:0:0:0:
320,192,83911,1,0,0:0:0:0:
192,192,84071,1,0,0:0:0:0:
320,192,84390,1,0,0:0:0:0:
192,192,84550,128,0,85028:0:0:0:0:
448,192,84709,1,0,0:0:0:0:
320,192,84869,1,0,0:0:0:0:
448,192,85188,128,0,85667:0:0:0:0:
64,192,85188,1,0,0:0:0:0:
64,192,85507,1,0,0:0:0:0:
320,192,85667,1,0,0:0:0:0:
320,192,85826,128,0,86305:0:0:0:0:
448,192,85826,1,0,0:0:0:0:
64,192,86145,1,0,0:0:0:0:
64,192,86464,128,0,86624:0:0:0:0:
448,192,86464,1,0,0:0:0:0:
192,192,86784,128,0,86943:0:0:0:0:
320,192,86784,1,0,0:0:0:0:
448,192,86943,1,0,0:0:0:0:
320,192,87103,128,0,87581:0:0:0:0:
64,192,87262,1,0,0:0:0:0:
448,192,87422,1,0,0:0:0:0:
448,192,87741,128,0,87901:0:0:0:0:
320,192,87741,1,0,0:0:0:0:
320,192,88060,1,0,0:0:0:0:
192,192,88060,128,0,88220:0:0:0:0:
64,192,88379,128,0,88858:0:0:0:0:
320,192,88379,1,0,0:0:0:0:
448,192,88698,1,0,0:0:0:0:
192,192,89018,1,0,0:0:0:0:
320,192,89018,128,0,89496:0:0:0:0:
448,192,89337,1,0,0:0:0:0:
192,192,89496,1,0,0:0:0:0:
64,192,89656,128,0,90135:0:0:0:0:
448,192,89815,1,0,0:0:0:0:
320,192,89975,1,0,0:0:0:0:
192,192,90294,128,0,90773:0:0:0:0:
448,192,90294,1,0,0:0:0:0:
320,192,90613,1,0,0:0:0:0:
448,192,90932,128,0,91411:0:0:0:0:
64,192,90932,1,0,0:0:0:0:
320,192,91252,1,0,0:0:0:0:
64,192,91571,128,0,92050:0:0:0:0:
448,192,91571,1,0,0:0:0:0:
192,192,91730,1,0,0:0:0:0:
448,192,92050,1,0,0:0:0:0:
192,192,92209,128,0,92688:0:0:0:0:
320,192,92528,1,0,0:0:0:0:
320,192,92847,128,0,93007:0:0:0:0:
448,192,92847,1,0,0:0:0:0:
192,192,93167,128,0,93326:0:0:0:0:
320,192,93167,1,0,0:0:0:0:
448,192,93486,1,0,0:0:0:0:
320,192,93486,128,0,93964:0:0:0:0:
192,192,93805,1,0,0:0:0:0:
64,192,94124,128,0,94603:0:0:0:0:
448,192,94124,1,0,0:0:0:0:
192,192,94443,1,0,0:0:0:0:
320,192,94603,1,0,0:0:0:0:
192,192,94762,128,0,95241:0:0:0:0:
64,192,94922,1,0,0:0:0:0:
448,192,95081,1,0,0:0:0:0:
448,192,95401,128,0,95879:0:0:0:0:
64,192,95401,1,0,0:0:0:0:
64,192,95720,1,0,0:0:0:0:
192,192,95879,1,0,0:0:0:0:
448,192,96039,128,0,96198:0:0:0:0:
320,192,96039,1,0,0:0:0:0:
192,192,96198,1,0,0:0:0:0:
320,192,96358,128,0,96518:0:0:0:0:
448,192,96358,1,0,0:0:0:0:
192,192,96518,1,0,0:0:0:0:
192,192,96677,128,0,96837:0:0:0:0:
448,192,96677,1,0,0:0:0:0:
320,192,96837,1,0,0:0:0:0:
320,192,96996,128,0,97156:0:0:0:0:
64,192,96996,1,0,0:0:0:0:
448,192,97156,1,0,0:0:0:0:
64,192,97315,128,0,97794:0:0:0:0:
192,192,97475,1,0,0:0:0:0:
320,192,97635,1,0,0:0:0:0:
448,192,97794,1,0,0:0:0:0:
192,192,97954,128,0,98432:0:0:0:0:
320,192,97954,1,0,0:0:0:0:
320,192,98273,1,0,0:0:0:0:
448,192,98353,1,0,0:0:0:0:
320,192,98432,1,0,0:0:0:0:
448,192,98512,1,0,0:0:0:0:
64,192,98592,128,0,99071:0:0:0:0:
320,192,98592,1,0,0:0:0:0:
192,192,98752,1,0,0:0:0:0:
320,192,98911,1,0,0:0:0:0:
448,192,98991,1,0,0:0:0:0:
320,192,99071,1,0,0:0:0:0:
192,192,99230,128,0,99390:0:0:0:0:
320,192,99230,1,0,0:0:0:0:
64,192,99390,1,0,0:0:0:0:
192,192,99550,128,0,99709:0:0:0:0:
448,192,99550,1,0,0:0:0:0:
320,192,99629,1,0,0:0:0:0:
448,192,99709,1,0,0:0:0:0:
320,192,99789,1,0,0:0:0:0:
64,192,99869,128,0,100347:0:0:0:0:
448,192,99869,1,0,0:0:0:0:
192,192,100028,1,0,0:0:0:0:
320,192,100188,1,0,0:0:0:0:
448,192,100268,1,0,0:0:0:0:
320,192,100347,1,0,0:0:0:0:
448,192,100427,1,0,0:0:0:0:
192,192,100507,128,0,100667:0:0:0:0:
320,192,100507,1,0,0:0:0:0:
448,192,100667,1,0,0:0:0:0:
192,192,100826,128,0,100986:0:0:0:0:
64,192,100826,1,0,0:0:0:0:
320,192,100986,1,0,0:0:0:0:
448,192,101145,128,0,101624:0:0:0:0:
64,192,101145,1,0,0:0:0:0:
320,192,101305,1,0,0:0:0:0:
192,192,101464,1,0,0:0:0:0:
64,192,101544,1,0,0:0:0:0:
192,192,101624,1,0,0:0:0:0:
448,192,101784,128,0,102262:0:0:0:0:
320,192,101784,1,0,0:0:0:0:
192,192,101943,1,0,0:0:0:0:
64,192,102103,1,0,0:0:0:0:
192,192,102182,1,0,0:0:0:0:
64,192,102262,1,0,0:0:0:0:
192,192,102342,1,0,0:0:0:0:
320,192,102422,128,0,102581:0:0:0:0:
64,192,102422,1,0,0:0:0:40:
192,192,102581,1,0,0:0:0:0:
448,192,102741,128,0,102901:0:0:0:0:
192,192,102741,1,0,0:0:0:0:
64,192,102821,1,0,0:0:0:0:
192,192,102901,1,0,0:0:0:0:
64,192,102980,1,0,0:0:0:0:
192,192,103060,128,0,103220:0:0:0:0:
320,192,103060,1,0,0:0:0:0:
448,192,103220,1,0,0:0:0:0:
448,192,103379,128,0,103539:0:0:0:0:
64,192,103379,1,0,0:0:0:0:
192,192,103539,1,0,0:0:0:0:
64,192,103698,128,0,104177:0:0:0:0:
448,192,103698,1,0,0:0:0:0:
192,192,103858,1,0,0:0:0:0:
448,192,104018,1,0,0:0:0:0:
320,192,104097,1,0,0:0:0:0:
448,192,104177,1,0,0:0:0:0:
192,192,104337,128,0,104815:0:0:0:0:
320,192,104337,1,0,0:0:0:0:
64,192,104496,1,0,0:0:0:0:
320,192,104656,1,0,0:0:0:0:
448,192,104736,1,0,0:0:0:0:
320,192,104815,1,0,0:0:0:0:
448,192,104895,1,0,0:0:0:0:
64,192,104975,128,0,105454:0:0:0:0:
320,192,104975,1,0,0:0:0:0:
448,192,105135,1,0,0:0:0:0:
320,192,105294,1,0,0:0:0:0:
448,192,105374,1,0,0:0:0:0:
320,192,105454,1,0,0:0:0:0:
448,192,105534,1,0,0:0:0:0:
192,192,105613,128,0,105773:0:0:0:0:
320,192,105613,1,0,0:0:0:0:
448,192,105773,1,0,0:0:0:0:
320,192,105826,1,0,0:0:0:0:
192,192,105879,1,0,0:0:0:0:
64,192,105932,1,0,0:0:0:0:
320,192,105932,128,0,106092:0:0:0:0:
448,192,106092,1,0,0:0:0:0:
64,192,106252,128,0,106730:0:0:0:0:
192,192,106252,1,0,0:0:0:0:
448,192,106411,1,0,0:0:0:0:
320,192,106491,1,0,0:0:0:0:
448,192,106571,1,0,0:0:0:0:
320,192,106730,1,0,0:0:0:0:
320,192,106890,128,0,107369:0:0:0:0:
448,192,106890,1,0,0:0:0:0:
192,192,107050,1,0,0:0:0:0:
64,192,107129,1,0,0:0:0:0:
192,192,107209,1,0,0:0:0:0:
448,192,107369,1,0,0:0:0:0:
192,192,107528,128,0,108007:0:0:0:0:
320,192,107528,1,0,0:0:0:0:
448,192,107688,1,0,0:0:0:0:
320,192,107768,1,0,0:0:0:0:
448,192,107847,1,0,0:0:0:0:
320,192,108007,1,0,0:0:0:0:
64,192,108167,128,0,108645:0:0:0:0:
448,192,108167,1,0,0:0:0:0:
320,192,108167,128,0,108805:0:0:0:0:
64,192,108805,128,0,109284:0:0:0:0:
448,192,108805,1,0,0:0:0:40:
448,192,108964,1,0,0:0:0:0:
192,192,108964,1,0,0:0:0:0:
320,192,109124,1,0,0:0:0:0:
448,192,109204,1,0,0:0:0:0:
320,192,109284,1,0,0:0:0:0:
192,192,109284,1,0,0:0:0:0:
192,192,109443,128,0,109922:0:0:0:0:
448,192,109443,1,0,0:0:0:0:
320,192,109603,1,0,0:0:0:0:
64,192,109603,1,0,0:0:0:0:
448,192,109762,1,0,0:0:0:0:
320,192,109842,1,0,0:0:0:0:
448,192,109922,1,0,0:0:0:0:
64,192,109922,1,0,0:0:0:0:
320,192,110002,1,0,0:0:0:0:
448,192,110081,128,0,110560:0:0:0:0:
192,192,110081,1,0,0:0:0:0:
64,192,110241,1,0,0:0:0:0:
320,192,110241,1,0,0:0:0:0:
192,192,110401,1,0,0:0:0:0:
64,192,110480,1,0,0:0:0:0:
320,192,110560,1,0,0:0:0:0:
192,192,110560,1,0,0:0:0:0:
64,192,110640,1,0,0:0:0:0:
320,192,110720,128,0,110879:0:0:0:0:
192,192,110720,1,0,0:0:0:0:
64,192,110879,1,0,0:0:0:0:
448,192,110879,1,0,0:0:0:0:
192,192,111039,128,0,111198:0:0:0:0:
448,192,111039,1,0,0:0:0:0:
64,192,111198,1,0,0:0:0:0:
320,192,111198,1,0,0:0:0:0:
448,192,111358,128,0,111837:0:0:0:0:
192,192,111358,1,0,0:0:0:0:
64,192,111518,1,0,0:0:0:0:
320,192,111518,1,0,0:0:0:0:
192,192,111677,1,0,0:0:0:0:
64,192,111757,1,0,0:0:0:0:
192,192,111837,1,0,0:0:0:0:
320,192,111837,1,0,0:0:0:0:
320,192,111996,128,0,112156:0:0:0:0:
64,192,111996,1,0,0:0:0:0:
192,192,112156,1,0,0:0:0:0:
448,192,112156,1,0,0:0:0:0:
64,192,112315,128,0,112475:0:0:0:0:
320,192,112315,1,0,0:0:0:0:
192,192,112395,1,0,0:0:0:0:
448,192,112475,1,0,0:0:0:0:
320,192,112475,1,0,0:0:0:0:
192,192,112555,1,0,0:0:0:0:
64,192,112635,128,0,113113:0:0:0:0:
320,192,112635,1,0,0:0:0:40:
320,192,112794,1,0,0:0:0:0:
192,192,112794,1,0,0:0:0:0:
192,192,112954,1,0,0:0:0:0:
320,192,113034,1,0,0:0:0:0:
448,192,113113,1,0,0:0:0:0:
192,192,113113,1,0,0:0:0:0:
320,192,113193,1,0,0:0:0:0:
192,192,113273,128,0,113752:0:0:0:0:
448,192,113273,1,0,0:0:0:0:
320,192,113432,1,0,0:0:0:0:
64,192,113432,1,0,0:0:0:0:
448,192,113592,1,0,0:0:0:0:
320,192,113752,1,0,0:0:0:0:
64,192,113752,1,0,0:0:0:0:
64,192,113911,128,0,114390:0:0:0:0:
448,192,113911,1,0,0:0:0:0:
320,192,114071,1,0,0:0:0:0:
192,192,114071,1,0,0:0:0:0:
448,192,114230,1,0,0:0:0:0:
320,192,114310,1,0,0:0:0:0:
448,192,114390,1,0,0:0:0:0:
192,192,114390,1,0,0:0:0:0:
192,192,114550,128,0,115028:0:0:0:0:
320,192,114550,1,0,0:0:0:0:
64,192,114709,1,0,0:0:0:0:
448,192,114709,1,0,0:0:0:0:
320,192,114869,1,0,0:0:0:0:
448,192,114948,1,0,0:0:0:0:
320,192,115028,1,0,0:0:0:0:
64,192,115028,1,0,0:0:0:0:
448,192,115108,1,0,0:0:0:0:
64,192,115188,128,0,115667:0:0:0:0:
320,192,115188,1,0,0:0:0:0:
448,192,115347,1,0,0:0:0:0:
192,192,115347,1,0,0:0:0:0:
320,192,115507,1,0,0:0:0:0:
192,192,115587,1,0,0:0:0:0:
448,192,115667,1,0,0:0:0:0:
320,192,115667,1,0,0:0:0:0:
192,192,115746,1,0,0:0:0:0:
448,192,115826,128,0,116305:0:0:0:0:
64,192,115826,1,0,0:0:0:0:
320,192,115986,1,0,0:0:0:0:
192,192,116039,1,0,0:0:0:0:
64,192,116092,1,0,0:0:0:0:
192,192,116145,1,0,0:0:0:0:
64,192,116305,1,0,0:0:0:0:
320,192,116305,1,0,0:0:0:0:
64,192,116464,128,0,116943:0:0:0:0:
320,192,116464,1,0,0:0:0:0:
448,192,116624,1,0,0:0:0:0:
192,192,116624,1,0,0:0:0:0:
320,192,116704,1,0,0:0:0:0:
448,192,116784,1,0,0:0:0:0:
320,192,116943,1,0,0:0:0:0:
192,192,116943,1,0,0:0:0:0:
64,192,117103,128,0,117581:0:0:0:0:
448,192,117103,1,0,0:0:0:0:
320,192,117262,1,0,0:0:0:0:
192,192,117262,1,0,0:0:0:0:
320,192,117422,1,0,0:0:0:0:
448,192,117581,1,0,0:0:0:0:
192,192,117581,1,0,0:0:0:0:
64,192,117741,128,0,118858:0:0:0:0:
320,192,117741,1,0,0:0:0:0:
192,192,117901,1,0,0:0:0:0:
320,192,117901,1,0,0:0:0:0:
192,192,118060,1,0,0:0:0:0:
320,192,118060,1,0,0:0:0:0:
448,192,118220,1,0,0:0:0:0:
320,192,118220,1,0,0:0:0:0:
448,192,118379,1,0,0:0:0:0:
320,192,118379,1,0,0:0:0:0:
448,192,118539,1,0,0:0:0:0:
192,192,118539,1,0,0:0:0:0:
320,192,118539,1,0,0:0:0:0:
448,192,118698,1,0,0:0:0:0:
320,192,118698,1,0,0:0:0:0:
192,192,118698,1,0,0:0:0:0:
192,192,118858,1,0,0:0:0:0:
320,192,118858,1,0,0:0:0:0:
448,192,118858,1,0,0:0:0:0:
320,192,119018,1,0,0:0:0:0:
192,192,119018,1,0,0:0:0:0:
448,192,119177,1,0,0:0:0:0:
64,192,119177,1,0,0:0:0:0:
192,192,119337,1,0,0:0:0:0:
64,192,119417,1,0,0:0:0:0:
192,192,119496,1,0,0:0:0:40:
320,192,119576,1,0,0:0:0:0:
192,192,119736,1,0,0:0:0:0:
64,192,119815,1,0,0:0:0:40:
320,192,119895,1,0,0:0:0:0:
448,192,119975,1,0,0:0:0:0:
320,192,120055,1,0,0:0:0:0:
64,192,120135,1,0,0:0:0:40:
448,192,120135,1,0,0:0:0:0:
320,192,120214,1,0,0:0:0:0:
448,192,120374,1,0,0:0:0:0:
64,192,120454,1,0,0:0:0:40:
320,192,120454,1,0,0:0:0:0:
320,192,120613,1,0,0:0:0:0:
448,192,120693,1,0,0:0:0:0:
192,192,120773,1,0,0:0:0:40:
320,192,120853,1,0,0:0:0:0:
64,192,121012,1,0,0:0:0:0:
192,192,121092,1,0,0:0:0:40:
320,192,121172,1,0,0:0:0:0:
192,192,121252,1,0,0:0:0:40:
448,192,121252,1,0,0:0:0:0:
64,192,121411,1,0,0:0:0:20:
320,192,121411,1,0,0:0:0:20:
448,192,121411,1,0,0:0:0:0:
448,192,121571,1,0,0:0:0:40:
192,192,121571,1,0,0:0:0:0:
64,192,121730,1,0,0:0:0:40:
192,192,121730,1,0,0:0:0:0:
320,192,121890,1,0,0:0:0:0:
448,192,121970,1,0,0:0:0:0:
320,192,122050,1,0,0:0:0:40:
192,192,122129,1,0,0:0:0:0:
64,192,122289,1,0,0:0:0:0:
192,192,122369,1,0,0:0:0:40:
448,192,122448,1,0,0:0:0:0:
320,192,122528,1,0,0:0:0:0:
448,192,122608,1,0,0:0:0:0:
64,192,122688,1,0,0:0:0:40:
320,192,122688,1,0,0:0:0:0:
192,192,122768,1,0,0:0:0:0:
448,192,122927,1,0,0:0:0:0:
64,192,123007,1,0,0:0:0:40:
320,192,123007,1,0,0:0:0:0:
320,192,123167,1,0,0:0:0:0:
448,192,123246,1,0,0:0:0:0:
192,192,123326,1,0,0:0:0:40:
64,192,123406,1,0,0:0:0:0:
448,192,123565,1,0,0:0:0:0:
64,192,123645,1,0,0:0:0:40:
192,192,123725,1,0,0:0:0:0:
320,192,123805,1,0,0:0:0:40:
448,192,123805,1,0,0:0:0:0:
64,192,123964,1,0,0:0:0:20:
192,192,123964,1,0,0:0:0:0:
448,192,123964,1,0,0:0:0:0:
192,192,124124,1,0,0:0:0:0:
320,192,124124,1,0,0:0:0:0:
448,192,124284,1,0,0:0:0:40:
320,192,124284,1,0,0:0:0:0:
192,192,124443,1,0,0:0:0:0:
64,192,124523,1,0,0:0:0:0:
448,192,124603,1,0,0:0:0:40:
320,192,124682,1,0,0:0:0:0:
448,192,124842,1,0,0:0:0:0:
64,192,124922,1,0,0:0:0:40:
192,192,125002,1,0,0:0:0:0:
320,192,125081,1,0,0:0:0:40:
448,192,125081,1,0,0:0:0:0:
64,192,125161,1,0,0:0:0:0:
192,192,125241,1,0,0:0:0:20:
320,192,125241,1,0,0:0:0:0:
448,192,125241,1,0,0:0:0:0:
64,192,125321,1,0,0:0:0:0:
320,192,125401,1,0,0:0:0:0:
448,192,125401,1,0,0:0:0:0:
192,192,125480,1,0,0:0:0:0:
64,192,125560,1,0,0:0:0:40:
448,192,125560,1,0,0:0:0:0:
320,192,125720,1,0,0:0:0:0:
448,192,125800,1,0,0:0:0:0:
64,192,125879,1,0,0:0:0:40:
192,192,125959,1,0,0:0:0:0:
448,192,126119,1,0,0:0:0:0:
64,192,126198,1,0,0:0:0:40:
320,192,126278,1,0,0:0:0:0:
192,192,126358,1,0,0:0:0:40:
448,192,126358,1,0,0:0:0:0:
64,192,126518,1,0,0:0:0:20:
320,192,126518,1,0,0:0:0:20:
448,192,126518,1,0,0:0:0:0:
192,192,126677,1,0,0:0:0:0:
64,192,126677,1,0,0:0:0:0:
64,192,126837,1,0,0:0:0:0:
448,192,126837,1,0,0:0:0:0:
448,192,126996,1,0,0:0:0:0:
320,192,127076,1,0,0:0:0:0:
448,192,127156,1,0,0:0:0:0:
192,192,127236,1,0,0:0:0:0:
64,192,127315,1,0,0:0:0:0:
320,192,127395,1,0,0:0:0:0:
64,192,127475,1,0,0:0:0:0:
320,192,127555,1,0,0:0:0:0:
448,192,127635,1,0,0:0:0:0:
320,192,127714,1,0,0:0:0:0:
64,192,127794,1,0,0:0:0:0:
192,192,127794,1,0,0:0:0:0:
320,192,127874,1,0,0:0:0:0:
192,192,127954,1,0,0:0:0:0:
448,192,128034,1,0,0:0:0:0:
64,192,128113,1,0,0:0:0:0:
192,192,128113,1,0,0:0:0:0:
192,192,128273,1,0,0:0:0:0:
320,192,128273,1,0,0:0:0:0:
448,192,128353,1,0,0:0:0:0:
64,192,128432,1,0,0:0:0:0:
320,192,128512,1,0,0:0:0:0:
192,192,128592,1,0,0:0:0:0:
448,192,128672,1,0,0:0:0:0:
64,192,128752,1,0,0:0:0:0:
192,192,128752,1,0,0:0:0:0:
320,192,128911,1,0,0:0:0:40:
448,192,128911,1,0,0:0:0:0:
192,192,129071,1,0,0:0:0:0:
320,192,129071,1,0,0:0:0:0:
64,192,129230,1,0,0:0:0:20:
192,192,129230,1,0,0:0:0:0:
320,192,129230,1,0,0:0:0:0:
448,192,129390,1,0,0:0:0:0:
64,192,129550,1,0,0:0:0:40:
320,192,129550,1,0,0:0:0:0:
448,192,129629,1,0,0:0:0:0:
192,192,129789,1,0,0:0:0:0:
64,192,129869,1,0,0:0:0:40:
192,192,129948,1,0,0:0:0:0:
320,192,130108,1,0,0:0:0:0:
64,192,130188,1,0,0:0:0:40:
448,192,130188,1,0,0:0:0:0:
320,192,130268,1,0,0:0:0:0:
448,192,130347,1,0,0:0:0:0:
320,192,130427,1,0,0:0:0:0:
192,192,130507,1,0,0:0:0:40:
64,192,130587,1,0,0:0:0:0:
192,192,130667,1,0,0:0:0:0:
448,192,130826,1,0,0:0:0:40:
320,192,130826,1,0,0:0:0:0:
192,192,130906,1,0,0:0:0:0:
64,192,131065,1,0,0:0:0:0:
192,192,131145,1,0,0:0:0:40:
448,192,131225,1,0,0:0:0:0:
320,192,131385,1,0,0:0:0:0:
64,192,131464,1,0,0:0:0:20:
192,192,131464,1,0,0:0:0:20:
448,192,131464,1,0,0:0:0:0:
448,192,131624,1,0,0:0:0:0:
320,192,131624,1,0,0:0:0:0:
64,192,131784,1,0,0:0:0:20:
192,192,131784,1,0,0:0:0:0:
320,192,131784,1,0,0:0:0:0:
448,192,131943,1,0,0:0:0:0:
64,192,132103,1,0,0:0:0:40:
192,192,132103,1,0,0:0:0:0:
448,192,132182,1,0,0:0:0:0:
192,192,132342,1,0,0:0:0:0:
64,192,132422,1,0,0:0:0:40:
448,192,132502,1,0,0:0:0:0:
192,192,132661,1,0,0:0:0:0:
448,192,132741,1,0,0:0:0:40:
64,192,132741,1,0,0:0:0:0:
192,192,132821,1,0,0:0:0:0:
64,192,132901,1,0,0:0:0:0:
192,192,132980,1,0,0:0:0:0:
64,192,133060,1,0,0:0:0:40:
448,192,133140,1,0,0:0:0:0:
320,192,133220,1,0,0:0:0:0:
64,192,133379,1,0,0:0:0:40:
192,192,133379,1,0,0:0:0:0:
320,192,133459,1,0,0:0:0:0:
448,192,133619,1,0,0:0:0:0:
320,192,133698,1,0,0:0:0:40:
448,192,133778,1,0,0:0:0:0:
320,192,133938,1,0,0:0:0:0:
64,192,134018,1,0,0:0:0:20:
192,192,134018,1,0,0:0:0:20:
448,192,134018,1,0,0:0:0:0:
64,192,134177,1,0,0:0:0:0:
192,192,134177,1,0,0:0:0:0:
448,192,134337,1,0,0:0:0:20:
192,192,134337,1,0,0:0:0:0:
320,192,134337,1,0,0:0:0:0:
448,192,134496,1,0,0:0:0:0:
448,192,134656,1,0,0:0:0:40:
320,192,134656,1,0,0:0:0:0:
64,192,134736,1,0,0:0:0:0:
320,192,134895,1,0,0:0:0:0:
448,192,134975,1,0,0:0:0:40:
192,192,135055,1,0,0:0:0:0:
448,192,135214,1,0,0:0:0:0:
64,192,135294,1,0,0:0:0:20:
192,192,135294,1,0,0:0:0:20:
320,192,135294,1,0,0:0:0:0:
448,192,135374,1,0,0:0:0:0:
320,192,135454,1,0,0:0:0:0:
192,192,135454,1,0,0:0:0:0:
448,192,135534,1,0,0:0:0:0:
64,192,135613,1,0,0:0:0:20:
192,192,135613,1,0,0:0:0:0:
320,192,135693,1,0,0:0:0:0:
448,192,135773,1,0,0:0:0:0:
64,192,135932,1,0,0:0:0:40:
192,192,135932,1,0,0:0:0:0:
320,192,136012,1,0,0:0:0:0:
192,192,136172,1,0,0:0:0:0:
320,192,136252,1,0,0:0:0:40:
448,192,136331,1,0,0:0:0:0:
320,192,136491,1,0,0:0:0:0:
64,192,136571,1,0,0:0:0:20:
192,192,136571,1,0,0:0:0:20:
448,192,136571,1,0,0:0:0:0:
192,192,136730,1,0,0:0:0:0:
320,192,136730,1,0,0:0:0:0:
448,192,136890,1,0,0:0:0:20:
192,192,136890,1,0,0:0:0:0:
320,192,136890,1,0,0:0:0:0:
64,192,136890,128,0,139443:0:0:0:0:
320,192,137050,1,0,0:0:0:0:
448,192,137209,1,0,0:0:0:0:
320,192,137289,1,0,0:0:0:0:
320,192,137448,1,0,0:0:0:0:
192,192,137528,128,0,139284:0:0:0:0:
448,192,137528,1,0,0:0:0:0:
448,192,137847,1,0,0:0:0:0:
320,192,138167,128,0,139284:0:0:0:0:
448,192,138167,1,0,0:0:0:0:
448,192,138486,1,0,0:0:0:0:
448,192,138805,128,0,139443:0:0:0:0:
320,192,139443,128,0,141996:0:0:0:0:
192,192,139443,128,0,141996:0:0:0:0:
