osu file format v14

[General]
AudioFilename: audio.mp3
AudioLeadIn: 0
PreviewTime: -1
Countdown: 1
SampleSet: Soft
StackLeniency: 0.7
Mode: 0
LetterboxInBreaks: 0
WidescreenStoryboard: 0

[Editor]
DistanceSpacing: 0.8
BeatDivisor: 8
GridSize: 32
TimelineZoom: 0.1

[Metadata]
Title:Sober
TitleUnicode:Sober
Artist:Big Bang
ArtistUnicode:Big Bang
Creator:Barodock13
Version:Easy
Source:
Tags:
BeatmapID:1241877
BeatmapSetID:586402

[Difficulty]
HPDrainRate:5
CircleSize:5
OverallDifficulty:5
ApproachRate:5
SliderMultiplier:0.700000005960464
SliderTickRate:3

[Events]
//Background and Video events
0,0,"images.jpeg",0,0
//Break Periods
2,24950,26051
2,172104,174581
2,181232,182582
//Storyboard Layer 0 (Background)
//Storyboard Layer 1 (Fail)
//Storyboard Layer 2 (Pass)
//Storyboard Layer 3 (Foreground)
//Storyboard Sound Samples

[TimingPoints]
30252,500.1,4,2,0,100,1,0

[HitObjects]
128,160,246,5,0,0:0:0:0:
352,128,2246,1,0,0:0:0:0:
160,288,4246,1,0,0:0:0:0:
128,32,6247,1,0,0:0:0:0:
352,64,8247,1,0,0:0:0:0:
224,320,10748,1,0,0:0:0:0:
256,192,13748,12,0,24750,0:0:0:0:
160,128,27251,6,0,P|224:128|352:128,9,140.000001192093
128,256,40254,2,0,L|320:288,3,192.500001639128
128,128,47255,1,0,0:0:0:0:
288,128,48755,1,0,0:0:0:0:
128,288,50756,1,0,0:0:0:0:
352,128,53256,1,0,0:0:0:0:
256,192,57257,12,0,62758,0:0:0:0:
128,96,65259,5,0,0:0:0:0:
96,128,68759,5,0,0:0:0:0:
288,128,70260,1,0,0:0:0:0:
224,256,71760,1,0,0:0:0:0:
192,96,73260,1,0,0:0:0:0:
352,96,74760,1,0,0:0:0:0:
192,288,76761,1,0,0:0:0:0:
256,192,78761,12,0,81762,0:0:0:0:
128,192,83262,6,0,L|288:224,3,157.500001341104
384,160,87763,2,0,L|288:128,3,96.2500008195638
224,160,90264,2,0,L|128:256,2,131.250001117587
256,192,95265,2,0,L|288:288,16,96.2500008195638
32,96,105767,1,0,0:0:0:0:
224,192,107767,1,0,0:0:0:0:
288,64,109267,1,0,0:0:0:0:
160,128,110768,1,0,0:0:0:0:
192,288,112268,1,0,0:0:0:0:
352,224,113768,1,0,0:0:0:0:
256,96,115269,5,0,0:0:0:0:
160,192,116269,1,0,0:0:0:0:
288,320,118269,1,0,0:0:0:0:
192,128,122270,1,0,0:0:0:0:
256,128,125771,1,0,0:0:0:0:
288,128,128771,1,0,0:0:0:0:
288,192,132272,1,0,0:0:0:0:
256,192,135273,1,0,0:0:0:0:
160,192,136273,1,0,0:0:0:0:
256,192,137273,1,0,0:0:0:0:
160,192,138273,1,0,0:0:0:0:
224,96,139273,1,0,0:0:0:0:
352,192,140774,1,0,0:0:0:0:
128,288,142774,1,0,0:0:0:0:
224,32,145275,1,0,0:0:0:0:
256,192,147275,12,0,151776,0:0:0:0:
128,160,153776,6,0,L|256:160,5,122.500001043081
352,160,157777,2,0,L|160:160,3,192.500001639128
128,320,162278,2,0,L|416:96,2,358.750003054738
160,288,167779,2,0,L|384:96,2,288.750002458691
352,96,175781,6,0,L|224:96,6,122.500001043081
256,192,183782,12,0,187783,0:0:0:0:
96,128,190284,5,0,0:0:0:0:
320,160,192284,1,0,0:0:0:0:
128,224,194284,1,0,0:0:0:0:
256,160,195785,5,0,0:0:0:0:
352,96,196785,1,0,0:0:0:0:
160,128,198785,1,0,0:0:0:0:
256,192,199785,1,0,0:0:0:0:
320,96,200786,1,0,0:0:0:0:
192,128,201786,1,0,0:0:0:0:
160,256,202786,1,0,0:0:0:0:
256,192,206287,12,0,215789,0:0:0:0:
64,192,217789,6,0,L|256:256,2,201.250001713633
128,192,220290,2,0,L|288:128,2,166.25000141561
160,192,222790,2,0,L|352:128,3,201.250001713633
416,96,226791,2,0,L|224:96,2,192.500001639128
256,192,231292,12,0,236293,0:0:0:0:
