osu file format v14

[General]
AudioFilename: audio.mp3
AudioLeadIn: 0
PreviewTime: -1
Countdown: 0
SampleSet: Normal
StackLeniency: 1
Mode: 0
LetterboxInBreaks: 0
WidescreenStoryboard: 1

[Editor]
DistanceSpacing: 0.8
BeatDivisor: 8
GridSize: 4
TimelineZoom: 1

[Metadata]
Title:Loser
TitleUnicode:Loser
Artist:Big Bang
ArtistUnicode:Big Bang
Creator:TLWHYT
Version:Loner
Source:
Tags:
BeatmapID:1441528
BeatmapSetID:681753

[Difficulty]
HPDrainRate:6
CircleSize:4
OverallDifficulty:6
ApproachRate:9
SliderMultiplier:0.500000005960464
SliderTickRate:1

[Events]
//Background and Video events
0,0,"ajajaja.jpg",0,0
//Break Periods
2,87202,97430
2,151233,165512
//Storyboard Layer 0 (Background)
//Storyboard Layer 1 (Fail)
//Storyboard Layer 2 (Pass)
//Storyboard Layer 3 (Foreground)
//Storyboard Sound Samples

[TimingPoints]
1997,665.838068181818,4,1,0,100,1,0
1997,-66.6666666666667,4,1,0,100,0,0
2097,-66.6666666666667,4,1,0,5,0,0
2912,-66.6666666666667,4,1,0,100,0,0
3411,-66.6666666666667,4,1,0,5,0,0
3744,-66.6666666666667,4,1,0,100,0,0
4077,-66.6666666666667,4,1,0,5,0,0
4410,-66.6666666666667,4,1,0,100,0,0
12691,-100,4,2,0,100,0,0
12733,333.277787035494,4,1,0,100,1,0
13066,-100,4,2,0,5,0,0
13982,-100,4,2,0,100,0,0
14316,-100,4,2,0,5,0,0
16687,-133.333333333333,4,1,0,100,0,0
18018,-133.333333333333,4,1,0,100,0,0
23553,-66.6666666666667,4,1,0,100,0,0
25717,-50,4,1,0,100,0,0
33374,-100,4,1,0,100,0,0
34206,-50,4,1,0,100,0,0
66000,-100,4,2,0,100,0,1
98044,-100,4,2,0,100,0,0
108780,-50,4,2,0,100,0,0
130087,-100,4,2,0,100,0,1
194049,665.838068181818,4,2,0,71,1,1
199375,333.092766335424,4,2,0,100,1,0
199375,-100,4,2,0,100,0,0

[HitObjects]
132,120,2052,6,0,P|144:136|200:136,1,81.2500030994416,0|0,2:2|2:2,2:2:0:0:
260,124,3106,1,0,2:0:0:0:
344,80,3397,2,0,P|356:84|356:108,1,37.5000014305115,0|0,2:2|2:2,2:2:0:0:
360,192,4063,2,0,P|352:200|324:200,1,37.5000014305115,0|0,2:2|2:2,2:2:0:0:
113,106,4687,2,0,P|124:92|144:104,1,37.5000014305115,0|0,2:2|2:2,2:2:0:0:
154,219,5353,2,0,P|136:228|116:224,1,37.5000014305115,0|0,2:2|2:2,2:2:0:0:
224,188,6019,2,0,P|236:184|264:184,2,37.5000014305115,0|0|0,2:2|2:2|2:2,2:2:0:0:
184,224,7046,1,0,0:0:0:0:
300,188,7351,6,0,P|276:176|228:160,1,75.0000028610231,0|0,2:2|2:2,2:2:0:0:
188,132,8377,1,0,2:0:0:0:
140,80,8682,2,0,P|124:76|104:88,1,37.5000014305115,0|0,2:2|2:2,2:2:0:0:
108,216,9348,2,0,P|120:224|144:216,1,37.5000014305115,0|0,2:2|2:2,2:2:0:0:
256,192,10056,12,0,11970,2:2:0:0:
256,192,12345,5,0,2:2:0:0:
200,96,12733,2,0,P|184:84|152:76,1,50.0000005960464,0|0,2:2|2:2,2:2:0:0:
132,84,13357,1,0,2:2:0:0:
112,112,13676,1,0,2:2:0:0:
364,128,14009,2,0,P|376:108|400:88,1,50.0000005960464,0|0,2:2|2:2,2:2:0:0:
420,96,14675,1,0,2:2:0:0:
448,120,15008,1,0,2:2:0:0:
400,140,15341,6,0,L|344:164,1,56.2500006705523,0|0,2:2|2:2,2:2:0:0:
132,144,16007,2,0,L|188:172,1,62.5000007450581,0|0,2:2|2:2,2:2:0:0:
224,184,16673,2,0,P|248:176|276:176,2,50.0000005960464,0|0|0,2:2|2:2|2:2,2:2:0:0:
224,184,17671,1,0,2:2:0:0:
184,72,18032,2,0,P|164:72|152:88,1,37.5000014305115,0|0,2:2|2:2,2:2:0:0:
168,244,18670,2,0,P|180:252|204:240,1,37.5000014305115,0|0,2:2|2:2,2:2:0:0:
212,240,19336,1,0,2:2:0:0:
256,132,19669,1,0,2:2:0:0:
304,260,20002,5,0,2:2:0:0:
176,192,20335,1,0,2:2:0:0:
308,192,20668,1,0,2:2:0:0:
312,276,21001,1,0,2:2:0:0:
256,120,21333,1,0,2:2:0:0:
192,272,21666,5,0,2:2:0:0:
344,192,21999,1,0,2:2:0:0:
176,192,22332,1,0,2:2:0:0:
232,192,22665,2,0,L|276:192,1,37.5000014305115,0|0,2:2|2:2,2:2:0:0:
312,104,23539,2,0,P|328:92|344:96,1,37.5000014305115,0|0,2:2|2:2,2:2:0:0:
376,240,24038,1,0,2:2:0:0:
376,172,24205,1,0,2:2:0:0:
348,176,24371,6,0,L|304:176,1,37.5000014305115,0|0,2:2|2:2,2:2:0:0:
396,176,24704,2,0,L|444:176,4,37.5000014305115,0|0|0|0|0,2:2|2:2|2:2|2:2|2:2,2:2:0:0:
368,176,25703,2,0,L|312:176,1,50,0|0,2:2|2:2,2:2:0:0:
304,180,26369,2,0,P|260:160|212:176,1,100,0|0,2:2|2:2,2:2:0:0:
220,184,27035,1,0,2:2:0:0:
220,184,27201,1,0,2:2:0:0:
220,184,27368,1,0,2:2:0:0:
164,88,27700,6,0,P|148:84|112:96,1,50,0|0,2:2|2:2,2:2:0:0:
120,132,28033,2,0,P|152:140|176:132,3,50,0|0|0|0,2:2|2:2|2:2|2:2,2:2:0:0:
288,224,29032,1,0,2:2:0:0:
212,120,29199,1,0,2:2:0:0:
272,224,29365,1,0,2:2:0:0:
244,120,29532,1,0,2:2:0:0:
260,224,29698,1,0,2:2:0:0:
252,120,29864,1,0,2:2:0:0:
284,192,30239,5,0,2:2:0:0:
284,192,30405,2,0,L|232:192,2,50,0|0|0,2:2|2:2|2:2,2:2:0:0:
234,192,31071,5,0,2:2:0:0:
240,196,31321,2,0,L|264:192,1,25,0|0,2:2|2:2,2:2:0:0:
304,184,31612,2,0,P|316:156|308:132,1,50,0|0,2:2|2:2,2:2:0:0:
276,68,31945,2,0,P|248:60|224:72,1,50,0|0,2:2|2:2,2:2:0:0:
200,136,32278,2,0,P|180:164|188:180,1,50,0|0,2:2|2:2,2:2:0:0:
240,256,32611,2,0,P|268:268|292:260,1,50,0|0,2:2|2:2,2:2:0:0:
320,224,33027,6,0,P|336:252|324:264,1,50,0|0,2:2|2:2,2:2:0:0:
180,224,33402,2,0,P|160:248|172:260,1,50,0|0,2:2|2:2,2:2:0:0:
344,48,34234,2,0,P|372:72|352:84,3,50,0|0|0|0,2:2|2:2|2:2|2:2,2:2:0:0:
296,100,35025,2,0,P|312:128|336:128,2,50,0|0|0,2:2|2:2|2:2,2:2:0:0:
296,96,35691,5,4,2:2:0:0:
296,96,35857,1,4,2:2:0:0:
260,136,36107,2,4,L|208:216,1,83.3333333333333,4|4,2:2|2:2,2:2:0:0:
200,224,36606,1,4,2:2:0:0:
116,224,37022,6,0,L|120:168,1,50,0|0,2:2|2:2,2:2:0:0:
188,176,37355,2,0,L|184:232,1,50,0|0,2:2|2:2,2:2:0:0:
244,232,37688,2,0,L|244:176,1,50,0|0,2:2|2:2,2:2:0:0:
244,182,38021,5,0,2:2:0:0:
216,96,38188,1,0,2:2:0:0:
280,284,38354,1,0,2:2:0:0:
152,288,38520,1,0,2:2:0:0:
152,288,38687,2,4,L|228:208,1,100,4|4,1:2|1:2,1:2:0:0:
256,192,39269,1,0,2:2:0:0:
256,192,39561,1,0,2:2:0:0:
192,144,39728,5,0,2:2:0:0:
256,192,39894,1,0,2:2:0:0:
340,244,40061,1,0,2:2:0:0:
294,161,40227,6,0,L|260:120,1,50,0|0,2:2|2:2,2:2:0:0:
256,120,40560,2,0,L|208:152,1,50,0|0,2:2|2:2,2:2:0:0:
208,144,40893,2,0,L|252:188,1,56.2500021457673,0|0,2:2|2:2,2:2:0:0:
256,188,41226,1,0,2:2:0:0:
256,188,41392,6,0,P|272:208|240:192,1,100,0|0,2:2|2:2,2:2:0:0:
256,188,42058,1,0,2:2:0:0:
192,264,42224,1,0,2:2:0:0:
320,264,42391,1,0,2:2:0:0:
256,156,42557,1,0,2:2:0:0:
176,276,42723,1,0,2:2:0:0:
336,280,42890,1,0,2:2:0:0:
256,128,43056,5,0,2:2:0:0:
160,288,43223,1,0,2:2:0:0:
344,288,43389,1,0,2:2:0:0:
344,288,43597,2,0,L|296:232,1,50,0|0,2:2|2:2,2:2:0:0:
300,236,43930,2,0,L|224:284,1,87.5,0|0,2:2|2:2,2:2:0:0:
168,176,44721,6,0,P|204:140|340:188,1,200,0|0,2:2|2:2,2:2:0:0:
340,196,45720,2,0,P|308:222|156:194,1,200,0|0,2:2|2:2,2:2:0:0:
164,196,46718,2,0,L|264:196,1,100,0|0,2:2|2:2,2:2:0:0:
256,192,47384,1,0,2:2:0:0:
324,132,47717,1,0,2:2:0:0:
376,224,48050,5,0,2:2:0:0:
428,132,48383,1,0,2:2:0:0:
424,216,48674,1,0,2:2:0:0:
424,216,48758,1,0,2:2:0:0:
424,216,48841,1,0,2:2:0:0:
368,144,49007,1,0,2:2:0:0:
336,228,49174,1,0,2:2:0:0:
296,160,49340,6,0,L|268:148,4,25,0|0|0|0|0,2:2|2:2|2:2|2:2|2:2,2:2:0:0:
296,160,49840,1,0,2:2:0:0:
276,148,50048,2,0,L|224:172,1,50,0|0,2:2|2:2,2:2:0:0:
230,168,50381,2,0,L|232:224,1,50,0|0,2:2|2:2,2:2:0:0:
231,218,50880,1,0,2:2:0:0:
256,188,51213,1,0,2:2:0:0:
324,128,51546,1,0,2:2:0:0:
192,240,51879,1,0,2:2:0:0:
192,240,52253,6,0,P|172:232|128:176,1,87.5,0|0,2:2|2:2,2:2:0:0:
256,192,52753,12,0,54917,2:2:0:0:
168,176,55333,6,0,P|204:140|340:188,1,200,0|0,2:2|2:2,2:2:0:0:
340,196,56332,2,0,P|308:222|156:194,1,200,0|0,2:2|2:2,2:2:0:0:
164,196,57330,2,0,L|276:196,1,112.5,0|0,2:2|2:2,2:2:0:0:
256,192,57996,1,0,2:2:0:0:
324,132,58329,1,0,2:2:0:0:
376,224,58662,5,0,2:2:0:0:
428,132,58995,1,0,2:2:0:0:
424,216,59314,1,0,2:2:0:0:
424,216,59370,1,0,2:2:0:0:
424,216,59453,1,0,2:2:0:0:
368,144,59619,1,0,2:2:0:0:
336,228,59786,1,0,2:2:0:0:
296,160,59952,6,0,L|268:148,4,25,0|0|0|0|0,2:2|2:2|2:2|2:2|2:2,2:2:0:0:
296,160,60452,1,0,2:2:0:0:
276,148,60701,2,0,L|224:172,1,50,0|0,2:2|2:2,2:2:0:0:
230,168,61034,2,0,L|232:224,1,50,0|0,2:2|2:2,2:2:0:0:
231,218,61533,1,0,2:2:0:0:
256,188,61866,1,0,2:2:0:0:
324,128,62199,1,0,2:2:0:0:
192,240,62532,1,0,2:2:0:0:
205,257,62865,6,0,P|185:249|141:193,1,87.5,0|0,2:2|2:2,2:2:0:0:
144,200,63573,1,0,2:2:0:0:
288,168,63947,2,0,P|320:176|348:208,1,75,0|0,2:2|2:2,2:2:0:0:
256,260,64613,1,0,2:2:0:0:
256,188,65404,1,0,2:2:0:0:
256,192,65695,1,0,2:2:0:0:
136,120,66028,6,0,P|148:136|216:120,1,100,0|0,2:2|2:2,2:2:0:0:
344,80,67359,2,0,P|356:84|352:116,1,50,0|0,2:2|2:2,2:2:0:0:
360,192,68025,2,0,P|352:200|316:200,1,50,0|0,2:2|2:2,2:2:0:0:
113,106,68691,2,0,P|124:92|152:112,1,50,0|0,2:2|2:2,2:2:0:0:
160,212,69357,2,0,P|136:228|116:224,1,50,0|0,2:2|2:2,2:2:0:0:
224,188,70023,2,0,P|236:184|272:192,2,50,0|0|0,2:2|2:2|2:2,2:2:0:0:
300,188,71396,6,0,P|276:176|216:208,1,100,0|0,2:2|2:2,2:2:0:0:
140,80,72686,2,0,P|124:76|100:96,1,50,0|0,2:2|2:2,2:2:0:0:
108,216,73352,2,0,P|120:224|152:208,1,50,0|0,2:2|2:2,2:2:0:0:
168,196,74018,1,0,2:2:0:0:
256,120,74351,1,0,2:2:0:0:
344,192,74684,1,0,2:2:0:0:
256,244,75017,5,0,2:2:0:0:
172,192,75350,1,0,2:2:0:0:
256,112,75683,1,0,2:2:0:0:
336,192,76016,1,0,2:2:0:0:
256,248,76349,1,0,2:2:0:0:
192,92,76681,2,0,P|184:84|148:76,1,50,0|0,2:2|2:2,2:2:0:0:
132,84,77347,1,0,2:2:0:0:
112,112,77680,1,0,2:2:0:0:
368,120,78013,2,0,P|376:108|412:92,1,50,0|0,2:2|2:2,2:2:0:0:
420,96,78679,1,0,2:2:0:0:
448,120,79012,1,0,2:2:0:0:
400,140,79345,6,0,L|352:160,1,50,0|0,2:2|2:2,2:2:0:0:
132,144,80010,2,0,L|180:164,1,50,0|0,2:2|2:2,2:2:0:0:
224,184,80676,2,0,P|248:176|280:188,2,50,0|0|0,2:2|2:2|2:2,2:2:0:0:
224,184,81675,1,0,2:2:0:0:
184,72,82049,2,0,P|164:72|148:88,1,43.75,0|0,2:2|2:2,2:2:0:0:
168,244,82715,2,0,P|180:252|208:240,1,43.75,0|0,2:2|2:2,2:2:0:0:
212,240,83340,1,0,2:2:0:0:
256,132,83673,1,0,2:2:0:0:
304,260,84005,5,0,2:2:0:0:
176,192,84338,1,0,2:2:0:0:
308,192,84671,1,0,2:2:0:0:
312,276,85004,1,0,2:2:0:0:
256,120,85336,1,0,2:2:0:0:
192,272,85669,5,0,2:2:0:0:
344,192,86003,1,0,2:2:0:0:
176,192,86336,1,0,2:2:0:0:
204,188,86669,2,0,L|256:188,1,50,0|0,2:2|2:2,2:2:0:0:
152,116,98030,5,0,2:2:0:0:
348,112,98363,1,0,2:2:0:0:
352,284,98695,1,0,2:2:0:0:
176,284,99028,1,0,2:2:0:0:
176,284,99361,1,0,2:2:0:0:
352,284,99694,1,0,2:2:0:0:
348,112,100027,5,0,2:2:0:0:
152,116,100360,1,0,2:2:0:0:
176,120,100693,2,0,B|192:124|192:124|192:168,1,50,0|0,2:2|2:2,2:2:0:0:
336,128,101359,2,0,B|316:128|316:128|316:164,1,50,0|0,2:2|2:2,2:2:0:0:
332,280,102025,2,0,B|320:280|320:280|320:232,1,50,0|0,2:2|2:2,2:2:0:0:
180,276,102691,2,0,B|196:276|196:276|196:240,1,50,0|0,2:2|2:2,2:2:0:0:
108,128,103356,6,0,B|140:132|140:132|140:164|140:164|180:164,1,100,0|0,2:2|2:2,2:2:0:0:
260,172,104355,1,0,2:2:0:0:
416,140,104688,2,0,B|384:140|384:140|384:168|384:168|344:168,1,100,0|0,2:2|2:2,2:2:0:0:
260,172,105687,1,0,2:2:0:0:
208,280,106020,1,0,2:2:0:0:
312,136,106353,1,0,2:2:0:0:
208,280,106686,1,0,2:2:0:0:
256,192,107018,5,0,2:2:0:0:
304,128,107351,1,0,2:2:0:0:
320,252,107684,1,0,2:2:0:0:
208,136,108017,1,0,2:2:0:0:
204,256,108350,1,0,2:2:0:0:
164,176,108808,6,0,P|204:140|328:176,1,187.5,0|0,2:2|2:2,2:2:0:0:
340,196,109723,2,0,P|308:222|168:200,1,187.5,0|0,2:2|2:2,2:2:0:0:
164,196,110722,2,0,L|264:196,1,100,0|0,2:2|2:2,2:2:0:0:
256,192,111387,1,0,2:2:0:0:
324,132,111720,1,0,2:2:0:0:
376,224,112053,5,0,2:2:0:0:
428,132,112386,1,0,2:2:0:0:
424,216,112677,1,0,2:2:0:0:
424,216,112761,1,0,2:2:0:0:
424,216,112844,1,0,2:2:0:0:
368,144,113010,1,0,2:2:0:0:
336,228,113177,1,0,2:2:0:0:
296,160,113343,6,0,L|268:148,4,25,0|0|0|0|0,2:2|2:2|2:2|2:2|2:2,2:2:0:0:
296,160,113843,1,0,2:2:0:0:
276,148,114092,2,0,L|224:172,1,50,0|0,2:2|2:2,2:2:0:0:
230,168,114425,2,0,L|232:224,1,50,0|0,2:2|2:2,2:2:0:0:
231,218,114912,1,0,2:2:0:0:
256,188,115216,1,0,2:2:0:0:
324,128,115549,1,0,2:2:0:0:
192,240,115882,1,0,2:2:0:0:
192,240,116256,6,0,P|172:232|128:176,1,87.5,0|0,2:2|2:2,2:2:0:0:
256,192,116756,12,0,118920,2:2:0:0:
168,176,119336,6,0,P|204:140|340:188,1,200,0|0,2:2|2:2,2:2:0:0:
340,196,120335,2,0,P|308:222|156:194,1,200,0|0,2:2|2:2,2:2:0:0:
164,196,121333,2,0,L|264:196,1,100,0|0,2:2|2:2,2:2:0:0:
256,192,121999,1,0,2:2:0:0:
324,132,122332,1,0,2:2:0:0:
376,224,122665,5,0,2:2:0:0:
428,132,122998,1,0,2:2:0:0:
424,240,123291,1,0,0:0:0:0:
424,240,123401,1,0,0:0:0:0:
424,240,123485,1,0,0:0:0:0:
368,144,123622,1,0,2:2:0:0:
336,228,123789,1,0,2:2:0:0:
296,160,123955,6,0,L|268:148,4,25,0|0|0|0|0,2:2|2:2|2:2|2:2|2:2,2:2:0:0:
296,160,124455,1,0,2:2:0:0:
276,148,124704,2,0,L|224:172,1,50,0|0,2:2|2:2,2:2:0:0:
230,168,125037,2,0,L|232:224,1,50,0|0,2:2|2:2,2:2:0:0:
231,218,125565,1,0,2:2:0:0:
256,188,125828,1,0,2:2:0:0:
324,128,126161,1,0,2:2:0:0:
192,240,126494,1,0,2:2:0:0:
192,240,126868,6,0,P|172:232|128:176,1,87.5,0|0,2:2|2:2,2:2:0:0:
144,200,127493,1,0,2:2:0:0:
244,120,127867,1,0,2:2:0:0:
336,192,128159,1,0,2:2:0:0:
256,260,128533,1,0,2:2:0:0:
256,188,129394,1,0,2:2:0:0:
256,192,129726,1,0,2:2:0:0:
136,120,130073,6,0,P|148:136|216:120,1,100,0|0,2:2|2:2,2:2:0:0:
228,104,130725,1,0,0:0:0:0:
268,92,131058,5,0,0:0:0:0:
344,80,131363,2,0,P|356:84|352:116,1,50,0|0,2:2|2:2,2:2:0:0:
360,192,132029,2,0,P|352:200|316:200,1,50,0|0,2:2|2:2,2:2:0:0:
113,106,132695,2,0,P|124:92|152:112,1,50,0|0,2:2|2:2,2:2:0:0:
160,212,133361,2,0,P|136:228|116:224,1,50,0|0,2:2|2:2,2:2:0:0:
224,188,134026,2,0,P|236:184|272:192,2,50,0|0|0,2:2|2:2|2:2,2:2:0:0:
224,192,134998,1,0,0:0:0:0:
300,188,135358,6,0,P|276:176|212:204,1,100,0|0,2:2|2:2,2:2:0:0:
140,80,136690,2,0,P|124:76|100:96,1,50,0|0,2:2|2:2,2:2:0:0:
108,216,137356,2,0,P|120:224|152:208,1,50,0|0,2:2|2:2,2:2:0:0:
168,196,138021,1,0,2:2:0:0:
256,120,138354,1,0,2:2:0:0:
344,192,138687,1,0,2:2:0:0:
256,244,139020,5,0,2:2:0:0:
172,192,139353,1,0,2:2:0:0:
256,112,139686,1,0,2:2:0:0:
336,192,140019,1,0,2:2:0:0:
256,248,140352,1,0,2:2:0:0:
196,96,140685,2,0,P|184:84|148:76,1,50,0|0,2:2|2:2,2:2:0:0:
132,84,141350,1,0,2:2:0:0:
112,112,141683,1,0,2:2:0:0:
368,120,142017,2,0,P|376:108|404:88,1,50,0|0,2:2|2:2,2:2:0:0:
420,96,142682,1,0,2:2:0:0:
448,120,143015,1,0,2:2:0:0:
400,140,143348,6,0,L|352:164,1,50,0|0,2:2|2:2,2:2:0:0:
132,144,144014,2,0,L|180:164,1,50,0|0,2:2|2:2,2:2:0:0:
224,184,144680,2,0,P|248:176|280:188,2,50,0|0|0,2:2|2:2|2:2,2:2:0:0:
224,184,145678,1,0,2:2:0:0:
184,72,146011,2,0,P|164:72|144:92,1,50,0|0,2:2|2:2,2:2:0:0:
168,244,146677,2,0,P|180:252|208:236,1,50,0|0,2:2|2:2,2:2:0:0:
212,240,147371,1,0,2:2:0:0:
256,132,147704,1,0,2:2:0:0:
304,260,148037,5,0,2:2:0:0:
176,192,148370,1,0,2:2:0:0:
308,192,148703,1,0,2:2:0:0:
312,276,149036,1,0,2:2:0:0:
256,120,149368,1,0,2:2:0:0:
192,272,149701,5,0,2:2:0:0:
344,192,150035,1,0,2:2:0:0:
176,192,150368,1,0,2:2:0:0:
204,188,150700,2,0,L|256:188,1,50,0|0,2:2|2:2,2:2:0:0:
256,192,166112,12,0,171813,2:2:0:0:
136,120,172687,6,0,P|148:136|216:120,1,100,0|0,2:2|2:2,2:2:0:0:
344,80,174018,2,0,P|356:84|352:116,1,50,0|0,2:2|2:2,2:2:0:0:
360,192,174684,2,0,P|352:200|316:200,1,50,0|0,2:2|2:2,2:2:0:0:
113,106,175350,2,0,P|124:92|152:112,1,50,0|0,2:2|2:2,2:2:0:0:
160,212,176016,2,0,P|136:228|116:224,1,50,0|0,2:2|2:2,2:2:0:0:
224,188,176681,2,0,P|236:184|272:192,2,50,0|0|0,2:2|2:2|2:2,2:2:0:0:
300,188,178054,6,0,P|276:176|224:204,1,87.5,0|0,2:2|2:2,2:2:0:0:
140,80,179345,2,0,P|124:76|100:96,1,50,0|0,2:2|2:2,2:2:0:0:
108,216,180011,2,0,P|120:224|152:208,1,50,0|0,2:2|2:2,2:2:0:0:
168,196,180676,1,0,2:2:0:0:
256,120,181009,1,0,2:2:0:0:
344,192,181342,1,0,2:2:0:0:
256,244,181675,5,0,2:2:0:0:
172,192,182008,1,0,2:2:0:0:
256,112,182341,1,0,2:2:0:0:
336,192,182674,1,0,2:2:0:0:
256,248,183007,1,0,2:2:0:0:
192,92,183340,2,0,P|184:84|148:76,1,50,0|0,2:2|2:2,2:2:0:0:
132,84,184005,1,0,2:2:0:0:
112,112,184338,1,0,2:2:0:0:
368,120,184671,2,0,P|376:108|404:88,1,50,0|0,2:2|2:2,2:2:0:0:
420,96,185337,1,0,2:2:0:0:
448,120,185670,1,0,2:2:0:0:
400,140,186003,6,0,L|348:160,1,56.25,0|0,2:2|2:2,2:2:0:0:
132,144,186669,2,0,L|184:168,1,56.25,0|0,2:2|2:2,2:2:0:0:
224,184,187335,2,0,P|248:176|280:188,2,50,0|0|0,2:2|2:2|2:2,2:2:0:0:
224,184,188333,1,0,2:2:0:0:
184,72,188666,2,0,P|164:72|144:96,1,50,0|0,2:2|2:2,2:2:0:0:
164,232,189332,2,0,P|180:252|208:240,1,56.25,0|0,2:2|2:2,2:2:0:0:
212,240,190054,1,0,2:2:0:0:
256,132,190373,1,0,2:2:0:0:
304,260,190720,5,0,2:2:0:0:
176,192,191039,1,0,2:2:0:0:
308,192,191386,1,0,2:2:0:0:
312,276,191719,1,0,2:2:0:0:
256,120,192052,1,0,2:2:0:0:
192,272,192385,5,0,2:2:0:0:
344,192,192717,1,0,2:2:0:0:
176,192,193050,1,0,2:2:0:0:
204,188,193383,2,0,L|256:188,1,50,0|0,2:2|2:2,2:2:0:0:
248,196,194035,6,0,B|248:128|248:128|304:240|304:240|328:196|328:196|496:196,1,406.25,0|0,2:2|2:2,2:2:0:0:
148,144,199375,2,0,B|192:240|192:240|236:176|236:176|288:248|288:248|356:128,1,406.25,0|0,2:2|2:2,2:2:0:0:
256,192,204480,12,0,215716,2:2:0:0:
