osu file format v14

[General]
AudioFilename: audio.mp3
AudioLeadIn: 0
PreviewTime: 6724
Countdown: 1
SampleSet: Normal
StackLeniency: 0.2
Mode: 0
LetterboxInBreaks: 0
WidescreenStoryboard: 0

[Editor]
DistanceSpacing: 2
BeatDivisor: 6
GridSize: 4
TimelineZoom: 1.5

[Metadata]
Title:Hymn Swiezakow
TitleUnicode:Hymn Świeżaków
Artist:Biedronka
ArtistUnicode:Biedronka
Creator:Jontor
Version:Kalafior Krzys
Source:
Tags:poland polish biedronka swiezaki hymn świeżaki
BeatmapID:1475527
BeatmapSetID:696615

[Difficulty]
HPDrainRate:5
CircleSize:3
OverallDifficulty:9
ApproachRate:9.6
SliderMultiplier:1.6
SliderTickRate:1

[Events]
//Background and Video events
0,0,"maxresdefault.jpg",0,0
//Break Periods
2,19049,24340
2,61049,66215
2,103049,108215
2,145048,150215
2,187049,192215
//Storyboard Layer 0 (Background)
//Storyboard Layer 1 (Fail)
//Storyboard Layer 2 (Pass)
//Storyboard Layer 3 (Foreground)
//Storyboard Sound Samples

[TimingPoints]
99,375,4,1,0,50,1,0
849,-100,4,1,0,20,0,0
3849,-100,4,1,0,50,0,0
4224,-100,4,1,0,35,0,0
4474,-100,4,1,0,50,0,0
4599,-100,4,1,0,35,0,0
4974,-100,4,1,0,50,0,0
5349,-100,4,1,0,35,0,0
5599,-100,4,1,0,50,0,0
5724,-100,4,1,0,35,0,0
5974,-100,4,1,0,50,0,0
6849,375,3,1,0,50,1,0
26224,-66.6666666666667,4,1,0,50,0,0
26286,-100,4,1,0,50,0,0
48849,-66.6666666666667,4,1,0,50,0,1
51099,-100,4,1,0,50,0,1
51599,-66.6666666666667,4,1,0,50,0,1
58224,-66.6666666666667,4,1,0,40,0,1
58974,-66.6666666666667,4,1,0,45,0,1
59724,-66.6666666666667,4,1,0,50,0,1
60849,-100,4,1,0,50,0,0
90849,-66.6666666666667,4,1,0,50,0,1
100224,-66.6666666666667,4,1,0,40,0,1
100974,-66.6666666666667,4,1,0,45,0,1
101724,-66.6666666666667,4,1,0,50,0,1
102849,-100,4,1,0,50,0,0
132849,-66.6666666666667,4,1,0,50,0,1
142224,-66.6666666666667,4,1,0,40,0,1
142474,-57.1428571428571,4,1,0,40,0,1
142724,-50,4,1,0,40,0,1
142974,-66.6666666666667,4,1,0,45,0,1
143724,-66.6666666666667,4,1,0,50,0,1
144849,-100,4,1,0,50,0,0
151599,-33.3333333333333,4,1,0,50,0,0
151849,-100,4,1,0,50,0,0
174849,-66.6666666666667,4,1,0,50,0,1
184224,-66.6666666666667,4,1,0,40,0,1
184974,-66.6666666666667,4,1,0,45,0,1
185724,-66.6666666666667,4,1,0,50,0,1
186849,-100,4,1,0,50,0,0
206349,-66.6666666666667,4,1,0,50,0,0
207099,-50,4,1,0,50,0,0
207349,-100,4,1,0,50,0,0
208599,-66.6666666666667,4,1,0,50,0,0
208849,-100,4,1,0,50,0,0
213849,-50,4,1,0,50,0,0
214849,-100,4,1,0,50,0,0
216849,-66.6666666666667,4,1,0,50,0,1
226224,-66.6666666666667,4,1,0,40,0,1
226974,-66.6666666666667,4,1,0,45,0,1
227724,-66.6666666666667,4,1,0,50,0,1
228849,-100,4,1,0,50,0,0
231849,-100,4,1,0,5,0,0

[HitObjects]
356,72,849,6,0,L|380:136,1,53.3333333333333
408,280,1099,1,0,0:0:0:0:
332,232,1224,2,0,P|277:201|216:200,1,106.666666666667
64,152,1599,6,0,L|184:116,1,106.666666666667
204,40,1974,2,0,L|324:4,1,106.666666666667
364,128,2349,6,0,L|400:248,1,106.666666666667
320,280,2724,2,0,L|356:400,1,106.666666666667
234,142,3099,6,0,L|198:22,1,106.666666666667
320,280,3474,2,0,L|440:244,1,106.666666666667
422,249,3849,1,0,0:0:0:0:
392,56,4224,6,0,L|372:128,1,53.3333333333333
292,168,4474,1,0,0:0:0:0:
80,136,4599,2,0,L|112:248,1,106.666666666667
228,336,4974,2,0,L|196:224,1,106.666666666667
112,52,5349,6,0,L|184:60,1,53.3333333333333
284,124,5599,1,0,0:0:0:0:
328,204,5724,2,0,P|364:216|392:208,1,53.3333333333333
176,144,5974,5,0,0:0:0:0:
288,306,6099,1,0,0:0:0:0:
372,128,6224,1,0,0:0:0:0:
164,164,6349,5,0,0:0:0:0:
314,291,6474,1,0,0:0:0:0:
349,97,6599,1,0,0:0:0:0:
252,40,6724,1,0,0:0:0:0:
148,76,6849,6,0,P|112:128|108:180,1,106.666666666667
136,316,7224,2,0,P|73:304|34:270,1,106.666666666667
220,160,7599,2,0,P|256:208|264:264,1,106.666666666667
256,356,7974,1,0,0:0:0:0:
349,311,8224,5,0,0:0:0:0:
349,311,8349,2,0,L|388:208,1,106.666666666667
324,72,8724,2,0,L|297:143,1,53.3333333333333
216,180,8974,1,0,0:0:0:0:
157,90,9099,2,0,P|124:60|68:36,1,106.666666666667
64,152,9474,2,0,P|66:197|88:254,1,106.666666666667
60,376,9849,6,0,P|120:348|172:356,1,106.666666666667
376,244,10224,2,0,P|316:272|264:264,1,106.666666666667
280,72,10599,2,0,P|308:132|300:183,1,106.666666666667
376,244,10974,2,0,P|401:197|448:172,1,106.666666666667
472,272,11349,5,0,0:0:0:0:
304,170,11474,1,0,0:0:0:0:
472,272,11599,1,0,0:0:0:0:
280,72,11724,1,0,0:0:0:0:
376,244,11849,5,0,0:0:0:0:
179,241,11974,1,0,0:0:0:0:
304,170,12099,1,0,0:0:0:0:
116,360,12224,1,0,0:0:0:0:
404,340,12349,1,0,0:0:0:0:
272,360,12474,2,0,P|220:340|192:292,1,106.666666666667
108,48,12849,6,0,L|80:156,1,106.666666666667
184,160,13224,2,0,L|212:268,1,106.666666666667
8,268,13599,2,0,L|116:240,1,106.666666666667
210,263,13974,2,0,L|274:247,1,53.3333333333333
356,300,14224,1,0,0:0:0:0:
300,52,14349,5,0,0:0:0:0:
210,263,14474,1,0,0:0:0:0:
81,151,14599,1,0,0:0:0:0:
144,332,14724,1,0,0:0:0:0:
184,160,14849,1,0,0:0:0:0:
8,268,14974,1,0,0:0:0:0:
261,250,15099,6,0,L|332:244,1,53.3333333333333
404,304,15349,1,0,0:0:0:0:
408,196,15474,2,0,P|420:140|460:96,1,106.666666666667
296,96,15849,6,0,P|240:128|180:120,1,106.666666666667
57,132,16224,2,0,P|59:79|88:36,1,106.666666666667
133,252,16599,2,0,P|131:304|102:348,1,106.666666666667
57,132,16974,2,0,P|95:96|147:85,1,106.666666666667
144,184,17349,6,0,L|156:256,1,53.3333333333333
312,332,17599,1,0,0:0:0:0:
376,244,17724,2,0,L|364:172,1,53.3333333333333
196,92,17974,1,0,0:0:0:0:
144,184,18099,2,0,L|72:196,1,53.3333333333333
418,12,18349,5,0,0:0:0:0:
472,104,18474,2,0,L|492:232,1,106.666666666667
488,209,18849,1,0,0:0:0:0:
396,332,24849,6,0,P|347:297|280:304,1,106.666666666667
212,216,25224,2,0,P|177:264|184:332,1,106.666666666667
301,296,25599,2,0,P|354:271|383:209,1,106.666666666667
392,84,25974,1,0,0:0:0:0:
276,184,26099,1,0,0:0:0:0:
472,140,26224,6,0,L|516:120,1,40.000001525879
436,236,26349,2,0,P|408:292|416:344,1,106.666666666667
276,184,26724,2,0,P|244:140|176:116,1,106.666666666667
164,240,27099,2,0,P|196:284|264:308,1,106.666666666667
84,336,27474,6,0,L|24:360,1,53.3333333333333
80,156,27724,1,0,0:0:0:0:
156,80,27849,2,0,L|260:40,1,106.666666666667
263,201,28224,2,0,L|159:241,1,106.666666666667
84,336,28599,2,0,L|44:232,1,106.666666666667
80,72,28974,5,0,0:0:0:0:
45,236,29099,1,0,0:0:0:0:
209,271,29224,2,0,L|248:280,1,26.6666666666667
248,368,29349,2,0,P|302:355|352:320,1,106.666666666667
320,68,29724,6,0,P|285:117|281:173,1,106.666666666667
384,152,30099,2,0,P|433:119|480:88,1,106.666666666667
279,161,30474,1,0,0:0:0:0:
188,236,30599,1,0,0:0:0:0:
236,343,30724,1,0,0:0:0:0:
351,324,30849,1,0,0:0:0:0:
168,119,30974,5,0,0:0:0:0:
236,343,31099,1,0,0:0:0:0:
96,44,31224,1,0,0:0:0:0:
44,252,31349,1,0,0:0:0:0:
196,19,31474,1,0,0:0:0:0:
254,292,31599,6,0,P|292:352|328:372,1,106.666666666667
356,276,31974,2,0,P|390:272|423:285,1,53.3333333333333
224,144,32224,1,0,0:0:0:0:
128,96,32349,2,0,P|80:64|60:20,1,106.666666666667
100,248,32724,5,0,0:0:0:0:
224,144,32849,1,0,0:0:0:0:
88,284,32974,1,0,0:0:0:0:
184,60,33099,2,0,P|248:52|296:84,1,106.666666666667
187,294,33474,2,0,P|123:302|75:270,1,106.666666666667
144,200,33849,5,0,0:0:0:0:
224,100,33974,1,0,0:0:0:0:
351,85,34099,1,0,0:0:0:0:
424,336,34224,5,0,0:0:0:0:
336,224,34349,1,0,0:0:0:0:
351,85,34474,1,0,0:0:0:0:
224,142,34599,2,0,P|176:180|144:216,1,106.666666666667
336,224,34974,2,0,L|379:179,1,53.3333333333333
360,44,35224,1,0,0:0:0:0:
440,112,35349,2,0,P|461:168|464:224,1,106.666666666667
424,336,35724,5,0,0:0:0:0:
336,224,35849,1,0,0:0:0:0:
488,256,35974,1,0,0:0:0:0:
252,308,36099,1,0,0:0:0:0:
440,112,36224,1,0,0:0:0:0:
332,364,36349,1,0,0:0:0:0:
340,36,36474,1,0,0:0:0:0:
340,36,36849,6,0,P|360:104|344:152,1,106.666666666667
256,100,37224,2,0,P|236:168|252:216,1,106.666666666667
324,320,37599,2,0,P|256:340|208:324,1,106.666666666667
351,137,37974,2,0,P|376:120|416:112,1,53.3333333333333
424,360,38224,1,0,0:0:0:0:
324,320,38349,6,0,P|276:280|260:216,1,106.666666666667
192,60,38724,2,0,P|168:92|136:104,1,53.3333333333333
48,184,38974,1,0,0:0:0:0:
304,116,39099,1,0,0:0:0:0:
164,320,39224,1,0,0:0:0:0:
27,46,39349,1,0,0:0:0:0:
237,182,39474,2,0,L|281:218,1,53.3333333333333
391,53,39724,1,0,0:0:0:0:
304,116,39849,6,0,P|277:173|284:233,1,106.666666666667
126,71,40224,2,0,P|69:44|9:51,1,106.666666666667
56,144,40599,2,0,P|77:203|124:240,1,106.666666666667
254,60,40974,2,0,L|209:104,1,53.3333333333333
108,232,41224,5,0,0:0:0:0:
316,221,41349,1,0,0:0:0:0:
126,71,41474,1,0,0:0:0:0:
316,221,41599,1,0,0:0:0:0:
56,144,41724,5,0,0:0:0:0:
400,120,41849,1,0,0:0:0:0:
254,60,41974,1,0,0:0:0:0:
445,289,42099,2,0,L|500:388,1,106.666666666667
367,314,42474,2,0,L|312:215,1,106.666666666667
256,72,42849,6,0,P|208:104|184:164,1,106.666666666667
315,220,43224,2,0,P|363:188|387:128,1,106.666666666667
367,314,43599,1,0,0:0:0:0:
284,124,43724,1,0,0:0:0:0:
480,296,43849,1,0,0:0:0:0:
204,184,43974,2,0,L|144:156,1,53.3333333333333
84,56,44224,1,0,0:0:0:0:
29,171,44349,6,0,P|12:228|24:284,1,106.666666666667
128,232,44724,1,0,0:0:0:0:
284,124,44849,1,0,0:0:0:0:
470,157,44974,2,0,L|508:172,1,26.6666666666667
464,248,45099,2,0,L|424:352,1,106.666666666667
425,347,45474,1,0,0:0:0:0:
384,88,45724,5,0,0:0:0:0:
384,88,45849,2,0,P|400:60|436:40,1,53.3333333333333
268,204,46099,1,0,0:0:0:0:
204,288,46224,2,0,P|156:328|96:352,1,106.666666666667
95,176,46599,2,0,P|108:116|152:72,1,106.666666666667
196,164,46974,2,0,P|192:204|176:232,1,53.3333333333333
106,274,47224,5,0,0:0:0:0:
368,184,47349,1,0,0:0:0:0:
196,164,47474,1,0,0:0:0:0:
265,323,47599,1,0,0:0:0:0:
299,25,47724,5,0,0:0:0:0:
106,274,47849,1,0,0:0:0:0:
368,184,47974,1,0,0:0:0:0:
107,54,48099,1,0,0:0:0:0:
265,323,48224,5,0,0:0:0:0:
100,172,48349,1,0,0:0:0:0:
400,276,48474,2,0,L|518:314,1,106.666666666667
265,323,48849,6,0,P|180:304|104:340,1,160.000006103516
315,226,49224,2,0,P|400:207|476:243,1,160.000006103516
216,214,49599,2,0,P|243:140|224:64,1,160.000006103516
224,64,49974,1,0,0:0:0:0:
140,136,50224,5,0,0:0:0:0:
216,214,50349,2,0,L|384:236,1,160.000006103516
450,312,50724,1,0,0:0:0:0:
292,136,50849,5,0,0:0:0:0:
292,304,50974,1,0,0:0:0:0:
372,68,51099,2,0,P|324:28|276:28,1,106.666666666667
144,48,51474,2,0,P|144:84|128:104,1,53.3333333333333
64,284,51724,5,0,0:0:0:0:
144,220,51849,2,0,P|208:176|296:152,1,160.000006103516
372,68,52224,2,0,P|416:132|440:220,1,160.000006103516
286,153,52599,2,0,P|242:89|218:1,1,160.000006103516
144,220,52974,5,0,0:0:0:0:
372,68,53099,1,0,0:0:0:0:
219,10,53224,1,0,0:0:0:0:
438,210,53349,1,0,0:0:0:0:
228,136,53474,5,0,0:0:0:0:
269,355,53599,1,0,0:0:0:0:
372,68,53724,1,0,0:0:0:0:
144,220,53849,1,0,0:0:0:0:
390,342,53974,5,0,0:0:0:0:
228,136,54099,1,0,0:0:0:0:
319,244,54224,1,0,0:0:0:0:
219,10,54349,1,0,0:0:0:0:
179,268,54474,2,0,L|164:348,1,80.0000030517579
368,112,54724,5,0,0:0:0:0:
400,12,54849,2,0,P|464:76|467:147,1,160.000006103516
436,241,55224,2,0,P|372:177|369:106,1,160.000006103516
207,206,55599,2,0,P|159:267|163:346,1,160.000006103516
72,224,55974,2,0,L|48:128,1,80.0000030517579
184,64,56224,5,0,0:0:0:0:
207,206,56349,1,0,0:0:0:0:
288,40,56474,1,0,0:0:0:0:
116,144,56599,1,0,0:0:0:0:
293,241,56724,5,0,0:0:0:0:
80,45,56849,1,0,0:0:0:0:
108,254,56974,1,0,0:0:0:0:
288,40,57099,1,0,0:0:0:0:
28,192,57224,5,0,0:0:0:0:
293,241,57349,1,0,0:0:0:0:
132,352,57474,1,0,0:0:0:0:
220,120,57599,1,0,0:0:0:0:
368,356,57724,1,0,0:0:0:0:
196,264,57849,6,0,P|112:236|40:240,1,160.000006103516
220,120,58224,2,0,L|260:96,1,40.000001525879
196,264,58349,2,0,L|184:309,1,40.000001525879
68,76,58474,2,0,L|43:36,1,40.000001525879
308,216,58599,6,0,L|353:227,1,40.000001525879
41,239,58724,2,0,L|0:263,1,40.000001525879
254,99,58849,2,0,L|294:75,1,40.000001525879
186,302,58974,6,0,L|210:342,1,40.000001525879
160,52,59099,2,0,L|171:6,1,40.000001525879
84,340,59224,2,0,L|44:364,1,40.000001525879
360,128,59349,6,0,L|399:103,1,40.000001525879
68,64,59474,2,0,L|22:52,1,40.000001525879
288,304,59599,2,0,L|312:343,1,40.000001525879
160,52,59724,6,0,L|171:6,1,40.000001525879
84,340,59849,2,0,L|44:364,1,40.000001525879
428,248,59974,2,0,L|473:259,1,40.000001525879
360,128,60099,6,0,P|304:64|288:-16,1,160.000006103516
224,120,60474,2,0,L|176:280,1,160.000006103516
178,273,60849,1,0,0:0:0:0:
360,128,66724,5,0,0:0:0:0:
416,220,66849,2,0,P|464:272|508:288,1,106.666666666667
348,316,67224,2,0,P|277:313|234:332,1,106.666666666667
278,190,67599,2,0,P|261:140|268:88,1,106.666666666667
456,76,67974,6,0,L|392:112,1,53.3333333333333
278,190,68224,1,0,0:0:0:0:
204,268,68349,2,0,P|168:312|148:360,1,106.666666666667
80,176,68724,6,0,L|64:112,1,53.3333333333333
204,268,68974,1,0,0:0:0:0:
300,224,69099,2,0,P|344:192|376:136,1,106.666666666667
232,32,69474,6,0,L|256:88,1,53.3333333333333
300,224,69724,1,0,0:0:0:0:
376,300,69849,2,0,P|432:336|492:336,1,106.666666666667
452,248,70224,2,0,P|437:182|395:140,1,106.666666666667
232,32,70599,2,0,P|246:97|288:139,1,106.666666666667
452,248,70974,6,0,L|384:272,1,53.3333333333333
208,348,71224,1,0,0:0:0:0:
140,264,71349,2,0,P|92:228|48:212,1,106.666666666667
120,36,71724,6,0,L|144:100,1,53.3333333333333
140,264,71974,1,0,0:0:0:0:
56,328,72099,2,0,P|108:364|164:368,1,106.666666666667
356,328,72474,6,0,L|300:304,1,53.3333333333333
192,160,72724,1,0,0:0:0:0:
224,352,72849,1,0,0:0:0:0:
288,96,72974,1,0,0:0:0:0:
140,264,73099,1,0,0:0:0:0:
360,184,73224,5,0,0:0:0:0:
124,360,73349,1,0,0:0:0:0:
356,328,73474,1,0,0:0:0:0:
54,162,73599,2,0,L|-16:68,1,106.666666666667
32,268,73974,2,0,P|48:304|68:324,1,53.3333333333333
185,138,74224,5,0,0:0:0:0:
140,264,74349,1,0,0:0:0:0:
268,104,74474,1,0,0:0:0:0:
296,288,74599,1,0,0:0:0:0:
312,32,74724,1,0,0:0:0:0:
456,232,74849,1,0,0:0:0:0:
292,196,74974,5,0,0:0:0:0:
405,71,75099,1,0,0:0:0:0:
296,288,75224,1,0,0:0:0:0:
187,71,75349,1,0,0:0:0:0:
368,216,75474,2,0,P|400:272|388:332,1,106.666666666667
100,328,75849,6,0,L|200:292,1,106.666666666667
368,216,76224,2,0,L|268:180,1,106.666666666667
56,36,76599,2,0,L|101:132,1,106.666666666667
313,276,76974,2,0,L|267:179,1,106.666666666667
208,48,77349,5,0,0:0:0:0:
176,196,77474,1,0,0:0:0:0:
364,132,77599,1,0,0:0:0:0:
96,52,77724,1,0,0:0:0:0:
296,244,77849,5,0,0:0:0:0:
316,36,77974,1,0,0:0:0:0:
200,308,78099,1,0,0:0:0:0:
408,236,78224,1,0,0:0:0:0:
176,196,78349,5,0,0:0:0:0:
456,336,78474,1,0,0:0:0:0:
316,36,78599,1,0,0:0:0:0:
200,308,78724,1,0,0:0:0:0:
336,172,78849,6,0,P|376:144|448:144,1,106.666666666667
408,236,79224,2,0,P|368:264|296:264,1,106.666666666667
130,104,79599,2,0,P|140:155|175:195,1,106.666666666667
336,172,79974,1,0,0:0:0:0:
220,116,80099,1,0,0:0:0:0:
236,308,80224,5,0,0:0:0:0:
328,364,80349,2,0,P|384:380|440:368,1,106.666666666667
336,172,80724,2,0,P|320:121|328:69,1,106.666666666667
420,232,81099,2,0,P|375:260|322:266,1,106.666666666667
130,104,81474,1,0,0:0:0:0:
336,172,81599,1,0,0:0:0:0:
244,36,81724,5,0,0:0:0:0:
224,140,81849,2,0,P|224:200|256:256,1,106.666666666667
160,336,82224,2,0,P|117:293|55:276,1,106.666666666667
130,104,82599,2,0,P|149:54|187:18,1,106.666666666667
392,80,82974,6,0,L|328:108,1,53.3333333333333
236,232,83224,1,0,0:0:0:0:
168,316,83349,2,0,P|124:352|64:356,1,106.666666666667
84,244,83724,6,0,L|112:176,1,53.3333333333333
228,108,83974,1,0,0:0:0:0:
316,48,84099,2,0,P|368:24|424:36,1,106.666666666667
380,128,84474,5,0,0:0:0:0:
236,232,84599,1,0,0:0:0:0:
476,112,84724,1,0,0:0:0:0:
444,228,84849,6,0,P|427:284|381:318,1,106.666666666667
236,232,85224,2,0,P|208:180|216:124,1,106.666666666667
415,31,85599,2,0,P|363:59|307:51,1,106.666666666667
104,48,85974,6,0,L|124:112,1,53.3333333333333
176,284,86224,1,0,0:0:0:0:
208,148,86349,1,0,0:0:0:0:
75,189,86474,1,0,0:0:0:0:
308,328,86599,5,0,0:0:0:0:
312,57,86724,1,0,0:0:0:0:
208,148,86849,1,0,0:0:0:0:
416,148,86974,1,0,0:0:0:0:
181,12,87099,6,0,P|124:16|76:48,1,106.666666666667
156,104,87474,2,0,P|166:160|148:214,1,106.666666666667
280,136,87849,6,0,L|328:92,1,53.3333333333333
440,176,88099,1,0,0:0:0:0:
364,248,88224,2,0,P|328:304|332:360,1,106.666666666667
280,136,88599,5,0,0:0:0:0:
216,292,88724,1,0,0:0:0:0:
184,80,88849,1,0,0:0:0:0:
112,308,88974,1,0,0:0:0:0:
346,257,89099,5,0,0:0:0:0:
280,136,89224,1,0,0:0:0:0:
112,308,89349,1,0,0:0:0:0:
308,356,89474,1,0,0:0:0:0:
184,80,89599,5,0,0:0:0:0:
176,200,89724,1,0,0:0:0:0:
280,28,89849,1,0,0:0:0:0:
48,136,89974,1,0,0:0:0:0:
258,283,90099,5,0,0:0:0:0:
184,80,90224,1,0,0:0:0:0:
64,256,90349,1,0,0:0:0:0:
272,152,90474,2,0,L|384:92,1,106.666666666667
436,36,90849,6,0,P|472:116|440:184,1,160.000006103516
272,152,91224,2,0,P|236:232|268:300,1,160.000006103516
432,360,91599,2,0,L|332:224,1,160.000006103516
56,116,91974,2,0,L|156:252,1,160.000006103516
432,360,92349,5,0,0:0:0:0:
272,152,92474,1,0,0:0:0:0:
262,294,92599,1,0,0:0:0:0:
390,232,92724,2,0,P|448:184|480:104,1,160.000006103516
336,60,93099,2,0,P|261:52|181:86,1,160.000006103516,0|0,0:0|0:0,0:0:0:0:
272,152,93474,6,0,L|328:224,1,80.0000030517579
420,340,93724,1,0,0:0:0:0:
321,215,93849,2,0,P|264:184|180:216,1,160.000006103516
104,332,94224,2,0,L|48:180,1,160.000006103516
124,65,94599,2,0,L|180:217,1,160.000006103516
104,332,94974,5,0,0:0:0:0:
272,152,95099,1,0,0:0:0:0:
48,181,95224,1,0,0:0:0:0:
124,65,95349,1,0,0:0:0:0:
104,332,95474,5,0,0:0:0:0:
186,188,95599,1,0,0:0:0:0:
269,331,95724,2,0,P|328:376|428:360,1,160.000006103516
436,136,96099,2,0,P|376:186|364:263,1,160.000006103516
268,176,96474,6,0,L|232:88,1,80.0000030517579
128,60,96724,1,0,0:0:0:0:
98,240,96849,1,0,0:0:0:0:
268,176,96974,1,0,0:0:0:0:
52,140,97099,5,0,0:0:0:0:
204,264,97224,1,0,0:0:0:0:
232,80,97349,1,0,0:0:0:0:
130,343,97474,5,0,0:0:0:0:
313,276,97599,1,0,0:0:0:0:
159,164,97724,1,0,0:0:0:0:
244,360,97849,1,0,0:0:0:0:
268,176,97974,6,0,L|280:72,1,80.0000030517579
468,92,98224,2,0,L|424:100,1,40.000001525879
424,144,98349,2,0,L|244:180,1,160.000006103516
84,160,98724,2,0,P|104:236|164:286,1,160.000006103516
267,175,99099,2,0,P|246:98|186:48,1,160.000006103516
344,68,99474,6,0,L|416:120,1,80.0000030517579
328,320,99724,1,0,0:0:0:0:
248,243,99849,2,0,P|176:215|96:243,1,160.000006103516
197,135,100224,5,0,0:0:0:0:
164,328,100349,1,0,0:0:0:0:
77,151,100474,1,0,0:0:0:0:
248,243,100599,1,0,0:0:0:0:
56,270,100724,1,0,0:0:0:0:
317,145,100849,1,0,0:0:0:0:
123,39,100974,5,0,2:0:0:0:
279,358,101099,1,0,0:0:0:0:
266,37,101224,1,0,0:0:0:0:
128,233,101349,1,0,0:0:0:0:
385,46,101474,1,0,0:0:0:0:
36,140,101599,1,0,0:0:0:0:
367,253,101724,5,0,0:0:0:0:
202,156,101849,1,0,0:0:0:0:
160,352,101974,1,0,0:0:0:0:
296,164,102099,6,0,P|288:116|268:84,1,80.0000030517579
96,56,102349,1,0,0:0:0:0:
36,140,102474,2,0,P|28:188|52:248,1,80.0000030517579
124,184,102724,1,0,0:0:0:0:
96,56,102849,1,0,0:0:0:0:
240,260,108724,5,0,0:0:0:0:
320,336,108849,2,0,P|372:360|432:340,1,106.666666666667
300,192,109224,2,0,P|248:168|185:187,1,106.666666666667
128,328,109599,2,0,L|88:220,1,106.666666666667
90,227,109974,1,0,0:0:0:0:
24,56,110224,5,0,0:0:0:0:
24,56,110349,2,0,P|56:112|104:132,1,106.666666666667
172,68,110724,2,0,P|200:60|224:72,1,53.3333333333333
336,216,110974,1,0,0:0:0:0:
336,216,111099,6,0,P|356:160|400:136,1,106.666666666667
432,228,111474,2,0,P|424:268|408:284,1,53.3333333333333
221,69,111724,1,0,0:0:0:0:
336,216,111849,1,0,0:0:0:0:
184,188,111974,1,0,0:0:0:0:
340,52,112099,1,0,0:0:0:0:
248,268,112224,6,0,P|200:292|136:280,1,106.666666666667
100,104,112599,2,0,L|60:220,1,106.666666666667
65,204,112974,1,0,0:0:0:0:
56,344,113224,6,0,L|100:332,1,26.6666666666667
120,348,113349,2,0,L|228:320,1,106.666666666667
326,294,113724,1,0,0:0:0:0:
164,240,113849,1,0,0:0:0:0:
87,87,113974,1,0,0:0:0:0:
65,204,114099,2,0,P|45:264|5:308,1,106.666666666667
164,240,114474,2,0,P|192:224|232:224,1,53.3333333333333
424,288,114724,5,0,0:0:0:0:
327,90,114849,1,0,0:0:0:0:
256,299,114974,1,0,0:0:0:0:
454,202,115099,1,0,0:0:0:0:
246,131,115224,5,0,0:0:0:0:
344,360,115349,1,0,0:0:0:0:
415,121,115474,1,0,0:0:0:0:
256,299,115599,2,0,L|176:388,1,106.666666666667
60,336,115974,2,0,L|103:285,1,53.3333333333333
212,160,116224,5,0,0:0:0:0:
320,164,116349,1,0,0:0:0:0:
370,259,116474,1,0,0:0:0:0:
312,349,116599,1,0,0:0:0:0:
320,164,116724,6,0,L|324:104,1,53.3333333333333
452,28,116974,1,0,0:0:0:0:
415,116,117099,2,0,L|303:172,1,106.666666666667
319,163,117474,1,0,0:0:0:0:
88,80,117849,6,0,P|104:129|91:180,1,106.666666666667
140,276,118224,2,0,P|90:292|39:279,1,106.666666666667
204,192,118599,2,0,P|253:175|304:188,1,106.666666666667
304,188,118974,1,0,0:0:0:0:
304,188,119224,5,0,0:0:0:0:
192,96,119349,1,0,0:0:0:0:
236,288,119474,1,0,0:0:0:0:
308,80,119599,1,0,0:0:0:0:
140,276,119724,5,0,0:0:0:0:
394,324,119849,1,0,0:0:0:0:
192,96,119974,1,0,0:0:0:0:
236,288,120099,1,0,0:0:0:0:
381,154,120224,5,0,0:0:0:0:
140,276,120349,1,0,0:0:0:0:
308,80,120474,1,0,0:0:0:0:
372,272,120724,5,0,0:0:0:0:
372,272,120849,2,0,P|424:332|464:344,1,106.666666666667
416,184,121224,2,0,P|336:178|300:198,1,106.666666666667
272,276,121599,2,0,P|212:224|200:184,1,106.666666666667
160,52,121974,2,0,L|140:108,1,53.3333333333333
88,252,122224,5,0,0:0:0:0:
304,192,122349,1,0,0:0:0:0:
142,102,122474,1,0,0:0:0:0:
272,276,122599,1,0,0:0:0:0:
240,108,122724,6,0,P|220:48|180:12,1,106.666666666667
142,102,123099,2,0,P|162:162|202:198,1,106.666666666667
412,132,123474,2,0,L|352:160,1,53.3333333333333
309,320,123724,5,0,0:0:0:0:
236,232,123849,2,0,P|192:192|128:184,1,106.666666666667
152,276,124224,2,0,P|112:320|104:384,1,106.666666666667
56,224,124599,2,0,P|53:164|13:113,1,106.666666666667
152,56,124974,2,0,L|208:84,1,53.3333333333333
320,228,125224,5,0,0:0:0:0:
264,320,125349,1,0,0:0:0:0:
159,345,125474,1,0,0:0:0:0:
67,288,125599,1,0,0:0:0:0:
42,182,125724,5,0,0:0:0:0:
372,323,125849,1,0,0:0:0:0:
162,236,125974,1,0,0:0:0:0:
132,112,126099,5,0,0:0:0:0:
244,50,126224,1,0,0:0:0:0:
332,142,126349,1,0,0:0:0:0:
265,250,126474,2,0,L|232:300,1,53.3333333333333
393,255,126724,5,0,0:0:0:0:
464,172,126849,2,0,P|492:120|496:60,1,106.666666666667
244,50,127224,2,0,P|216:102|212:162,1,106.666666666667
328,348,127599,5,0,0:0:0:0:
144,312,127724,1,0,0:0:0:0:
304,228,127849,1,0,0:0:0:0:
210,148,127974,2,0,P|194:114|193:85,1,53.3333333333333
72,48,128224,5,0,0:0:0:0:
52,152,128349,2,0,P|44:212|48:272,1,106.666666666667
92,348,128724,2,0,P|124:328|140:296,1,53.3333333333333
148,116,128974,5,0,0:0:0:0:
52,152,129099,2,0,P|100:208|132:220,1,106.666666666667
244,76,129474,2,0,P|196:20|164:8,1,106.666666666667
129,219,129849,2,0,L|145:291,1,53.3333333333333
272,344,130099,5,0,0:0:0:0:
344,268,130224,2,0,L|328:196,1,53.3333333333333
296,48,130474,1,0,0:0:0:0:
248,256,130599,1,0,0:0:0:0:
416,132,130724,1,0,0:0:0:0:
200,84,130849,1,0,0:0:0:0:
344,268,130974,6,0,L|380:316,1,53.3333333333333
176,180,131224,1,0,0:0:0:0:
72,164,131349,2,0,L|36:116,1,53.3333333333333
200,84,131599,1,0,0:0:0:0:
276,156,131724,2,0,L|312:204,1,53.3333333333333
400,320,131974,5,0,0:0:0:0:
176,180,132099,1,0,0:0:0:0:
432,200,132224,1,0,0:0:0:0:
112,264,132349,1,0,0:0:0:0:
380,56,132474,2,0,P|440:24|488:28,1,106.666666666667
456,124,132849,6,0,P|412:196|424:284,1,160.000006103516
380,56,133224,2,0,P|308:12|220:24,1,160.000006103516
116,0,133599,2,0,P|135:82|206:135,1,160.000006103516
372,168,133974,2,0,L|292:200,1,80.0000030517579
172,336,134224,5,0,0:0:0:0:
296,88,134349,1,0,0:0:0:0:
191,129,134474,1,0,0:0:0:0:
372,168,134599,1,0,0:0:0:0:
216,40,134724,6,0,P|148:4|52:28,1,160.000006103516
43,106,135099,2,0,P|111:142|207:118,1,160.000006103516
359,96,135474,2,0,P|355:148|391:176,1,80.0000030517579
456,276,135724,6,0,L|404:288,1,40.000001525879
396,320,135849,2,0,L|228:352,1,160.000006103516
100,272,136224,2,0,L|268:240,1,160.000006103516
426,118,136599,2,0,L|458:286,1,160.000006103516
257,242,136974,2,0,L|225:74,1,160.000006103516
320,28,137349,5,0,0:0:0:0:
160,172,137474,1,0,0:0:0:0:
321,136,137599,1,0,0:0:0:0:
148,292,137724,1,0,0:0:0:0:
227,84,137849,5,0,0:0:0:0:
246,362,137974,1,0,0:0:0:0:
118,70,138099,1,0,0:0:0:0:
356,312,138224,1,0,0:0:0:0:
56,156,138349,5,0,0:0:0:0:
227,84,138474,2,0,L|300:48,1,80.0000030517579
428,120,138724,1,0,0:0:0:0:
472,212,138849,6,0,P|488:304|444:376,1,160.000006103516
313,216,139224,2,0,P|366:139|448:119,1,160.000006103516
384,288,139599,2,0,P|292:304|219:261,1,160.000006103516
235,276,139974,1,0,0:0:0:0:
96,72,140224,5,0,0:0:0:0:
96,72,140349,2,0,L|64:232,1,160.000006103516
32,344,140724,2,0,L|124:304,1,80.0000030517579
264,192,140974,5,0,0:0:0:0:
96,72,141099,1,0,0:0:0:0:
235,276,141224,1,0,0:0:0:0:
188,36,141349,1,0,0:0:0:0:
105,312,141474,1,0,0:0:0:0:
105,312,141724,5,0,0:0:0:0:
105,312,141849,2,0,P|112:224|172:152,1,160.000006103516
248,44,142224,6,0,L|140:64,1,80.0000030517579
73,181,142474,2,0,L|184:160,1,93.3333342234294
420,208,142724,2,0,L|308:232,1,106.666666666667
32,344,142974,5,0,0:0:0:0:
164,163,143099,1,0,0:0:0:0:
245,358,143224,1,0,0:0:0:0:
73,181,143349,5,0,0:0:0:0:
376,96,143474,1,0,0:0:0:0:
132,244,143599,1,0,0:0:0:0:
100,16,143724,5,0,0:0:0:0:
351,247,143849,1,0,0:0:0:0:
73,181,143974,1,0,0:0:0:0:
340,24,144099,6,0,P|421:27|459:91,1,160.000006103516
476,328,144474,2,0,L|428:232,1,80.0000030517579
314,177,144724,2,0,L|358:261,1,80.0000030517579
384,336,150724,5,0,0:0:0:0:
352,240,150849,2,0,P|308:192|252:192,1,106.666666666667
184,228,151224,2,0,P|228:276|284:276,1,106.666666666667
321,89,151599,2,0,P|178:84|183:227,1,320.000012207032
183,227,151974,1,0,0:0:0:0:
460,212,152224,6,0,L|416:220,1,26.6666666666667
408,248,152349,2,0,L|300:272,1,106.666666666667
92,340,152724,2,0,L|116:276,1,53.3333333333333
160,68,152974,1,0,0:0:0:0:
224,152,153099,2,0,P|276:188|332:188,1,106.666666666667
317,190,153474,1,0,0:0:0:0:
404,336,153724,5,0,0:0:0:0:
404,336,153849,2,0,P|352:304|304:296,1,106.666666666667
140,328,154224,2,0,P|172:276|180:228,1,106.666666666667
120,140,154599,2,0,P|88:192|80:240,1,106.666666666667
48,84,154974,2,0,L|32:16,1,53.3333333333333
179,231,155224,5,0,0:0:0:0:
36,176,155349,1,0,0:0:0:0:
224,143,155474,1,0,0:0:0:0:
84,264,155599,1,0,0:0:0:0:
148,80,155724,2,0,P|172:56|204:48,1,53.3333333333333
392,48,155974,5,0,0:0:0:0:
444,140,156099,2,0,P|468:204|456:256,1,106.666666666667
412,320,156474,2,0,P|384:292|376:264,1,53.3333333333333
444,140,156724,5,0,0:0:0:0:
378,279,156849,2,0,P|332:316|270:319,1,106.666666666667
296,224,157224,1,0,0:0:0:0:
444,140,157349,1,0,0:0:0:0:
224,143,157474,1,0,0:0:0:0:
188,244,157599,2,0,P|220:304|264:332,1,106.666666666667
250,326,157974,1,0,0:0:0:0:
428,280,158224,6,0,L|396:240,1,26.6666666666667
420,232,158349,2,0,L|344:132,1,106.666666666667
172,60,158724,2,0,L|240:84,1,53.3333333333333
355,147,158974,5,0,0:0:0:0:
172,200,159099,1,0,0:0:0:0:
336,36,159224,1,0,0:0:0:0:
250,326,159349,1,0,0:0:0:0:
172,60,159474,2,0,P|136:24|72:16,1,106.666666666667
88,116,159849,6,0,L|180:184,1,106.666666666667
204,336,160224,2,0,L|112:268,1,106.666666666667
336,164,160599,2,0,L|428:232,1,106.666666666667
421,227,160974,1,0,0:0:0:0:
421,227,161224,5,0,0:0:0:0:
328,40,161349,1,0,0:0:0:0:
320,272,161474,1,0,0:0:0:0:
352,132,161599,1,0,0:0:0:0:
180,280,161724,5,0,0:0:0:0:
460,132,161849,1,0,0:0:0:0:
260,108,161974,1,0,0:0:0:0:
436,40,162099,1,0,0:0:0:0:
284,196,162224,5,0,0:0:0:0:
460,132,162349,1,0,0:0:0:0:
240,20,162474,1,0,0:0:0:0:
412,328,162599,1,0,0:0:0:0:
412,328,162849,6,0,P|372:288|304:288,1,106.666666666667
324,376,163224,2,0,P|269:361|235:302,1,106.666666666667
456,256,163599,2,0,P|496:296|496:364,1,106.666666666667
496,152,163974,2,0,L|512:92,1,53.3333333333333
400,176,164224,5,0,0:0:0:0:
304,152,164349,2,0,P|252:128|220:92,1,106.666666666667
104,64,164724,2,0,P|108:116|80:160,1,106.666666666667
124,272,165099,2,0,P|157:232|208:221,1,106.666666666667
209,221,165474,1,0,0:0:0:0:
316,336,165724,5,0,0:0:0:0:
364,240,165849,2,0,P|404:196|456:188,1,106.666666666667
372,112,166224,2,0,L|248:84,1,106.666666666667
132,40,166599,2,0,L|168:144,1,106.666666666667
166,140,166974,1,0,0:0:0:0:
166,140,167224,5,0,0:0:0:0:
236,60,167349,1,0,0:0:0:0:
61,119,167474,1,0,0:0:0:0:
271,160,167599,1,0,0:0:0:0:
132,40,167724,1,0,0:0:0:0:
202,240,167849,1,0,0:0:0:0:
271,320,167974,6,0,P|292:324|312:340,1,26.6666666666667
308,352,168099,2,0,P|372:368|416:360,1,106.666666666667
368,272,168474,2,0,P|340:216|348:160,1,106.666666666667
441,148,168849,2,0,P|385:176|329:168,1,106.666666666667
184,112,169224,5,0,0:0:0:0:
368,272,169349,1,0,0:0:0:0:
368,84,169474,1,0,0:0:0:0:
228,240,169599,2,0,L|152:320,1,106.666666666667
154,317,169974,1,0,0:0:0:0:
154,317,170224,5,0,0:0:0:0:
184,112,170349,1,0,0:0:0:0:
64,216,170474,1,0,0:0:0:0:
292,132,170599,1,0,0:0:0:0:
92,36,170724,5,0,0:0:0:0:
180,216,170849,1,0,0:0:0:0:
256,29,170974,1,0,0:0:0:0:
64,216,171099,2,0,P|20:268|8:312,1,106.666666666667
8,304,171474,1,0,0:0:0:0:
124,304,171724,5,0,0:0:0:0:
124,304,171849,2,0,P|168:252|180:208,1,106.666666666667
248,48,172224,2,0,P|292:100|304:144,1,106.666666666667
352,352,172599,2,0,P|396:300|408:256,1,106.666666666667
400,68,172974,5,0,0:0:0:0:
300,256,173099,1,0,0:0:0:0:
248,48,173224,1,0,0:0:0:0:
200,296,173349,5,0,0:0:0:0:
104,40,173474,1,0,0:0:0:0:
300,256,173599,1,0,0:0:0:0:
108,168,173724,5,0,0:0:0:0:
400,68,173849,1,0,0:0:0:0:
220,200,173974,1,0,0:0:0:0:
248,48,174099,5,0,0:0:0:0:
376,312,174224,1,0,0:0:0:0:
300,136,174349,1,0,0:0:0:0:
420,196,174474,5,0,0:0:0:0:
300,256,174599,1,0,0:0:0:0:
400,68,174724,1,0,0:0:0:0:
400,68,174849,6,0,P|400:160|448:224,1,160.000006103516
488,328,175224,2,0,P|396:328|332:280,1,160.000006103516
304,168,175599,2,0,P|238:233|227:312,1,160.000006103516
226,297,175974,1,0,0:0:0:0:
112,120,176224,6,0,L|88:80,1,40.000001525879
132,60,176349,2,0,L|212:204,1,160.000006103516
226,297,176724,1,0,0:0:0:0:
149,358,176849,1,0,0:0:0:0:
57,321,176974,1,0,0:0:0:0:
43,222,177099,2,0,P|120:160|180:168,1,160.000006103516
175,166,177474,1,0,0:0:0:0:
226,297,177724,5,0,0:0:0:0:
226,297,177849,2,0,P|292:352|380:336,1,160.000006103516
310,215,178224,2,0,P|244:160|156:176,1,160.000006103516
124,260,178599,2,0,P|69:194|85:106,1,160.000006103516
124,29,178974,2,0,P|179:95|163:183,1,160.000006103516
57,321,179349,5,0,0:0:0:0:
220,248,179474,1,0,0:0:0:0:
124,260,179599,1,0,0:0:0:0:
361,346,179724,1,0,0:0:0:0:
280,168,179849,5,0,0:0:0:0:
264,336,179974,1,0,0:0:0:0:
364,116,180099,1,0,0:0:0:0:
220,248,180224,2,0,P|176:312|188:392,1,160.000006103516
264,336,180724,5,0,0:0:0:0:
188,160,180849,1,0,0:0:0:0:
364,204,180974,1,0,0:0:0:0:
124,260,181099,1,0,0:0:0:0:
364,116,181224,5,0,0:0:0:0:
264,336,181349,1,0,0:0:0:0:
188,160,181474,1,0,0:0:0:0:
360,308,181599,1,0,0:0:0:0:
124,260,181724,5,0,0:0:0:0:
260,84,181849,1,0,0:0:0:0:
264,256,181974,2,0,L|264:336,1,80.0000030517579
159,60,182224,5,0,0:0:0:0:
437,160,182349,1,0,0:0:0:0:
124,260,182474,1,0,0:0:0:0:
336,20,182599,1,0,0:0:0:0:
264,256,182724,6,0,P|224:344|160:388,1,160.000006103516
124,260,183099,2,0,P|164:172|228:128,1,160.000006103516
376,80,183474,2,0,L|288:56,1,80.0000030517579
64,48,183724,5,0,0:0:0:0:
108,136,183849,2,0,L|192:280,1,160.000006103516
340,332,184224,5,0,0:0:0:0:
84,280,184349,1,0,0:0:0:0:
304,200,184474,1,0,0:0:0:0:
188,274,184599,1,0,0:0:0:0:
188,96,184724,5,0,0:0:0:0:
340,332,184849,1,0,0:0:0:0:
128,192,184974,1,0,0:0:0:0:
336,47,185099,1,0,0:0:0:0:
188,274,185224,5,0,0:0:0:0:
188,96,185349,1,0,0:0:0:0:
340,332,185474,1,0,0:0:0:0:
75,93,185599,1,0,0:0:0:0:
305,200,185724,5,0,0:0:0:0:
86,284,185849,1,0,0:0:0:0:
336,47,185974,1,0,0:0:0:0:
204,364,186099,1,0,0:0:0:0:
204,364,186474,5,0,0:0:0:0:
204,364,186724,1,0,0:0:0:0:
204,364,186849,1,0,0:0:0:0:
104,88,192724,5,0,0:0:0:0:
104,88,192849,2,0,P|72:136|92:188,1,106.666666666667
164,248,193224,2,0,P|196:200|176:148,1,106.666666666667
104,88,193599,5,0,0:0:0:0:
292,260,193724,1,0,0:0:0:0:
68,276,193849,1,0,0:0:0:0:
336,172,193974,1,0,0:0:0:0:
208,112,194224,6,0,L|168:92,1,26.6666666666667
152,112,194349,2,0,L|48:64,1,106.666666666667
55,67,194724,1,0,0:0:0:0:
68,276,194974,6,0,L|108:296,1,26.6666666666667
124,276,195099,2,0,L|228:324,1,106.666666666667
220,320,195474,1,0,0:0:0:0:
316,368,195724,5,0,0:0:0:0:
316,368,195849,2,0,P|356:324|408:320,1,106.666666666667
308,240,196224,2,0,P|264:200|260:148,1,106.666666666667
342,105,196599,2,0,P|302:149|250:152,1,106.666666666667
257,154,196974,1,0,0:0:0:0:
64,80,197224,6,0,L|92:112,1,26.6666666666667
56,136,197349,2,0,L|132:220,1,106.666666666667
328,256,197724,1,0,0:0:0:0:
84,332,197849,1,0,0:0:0:0:
204,160,197974,2,0,L|224:136,1,26.6666666666667
257,154,198099,2,0,L|327:69,1,106.666666666667
452,40,198474,5,0,0:0:0:0:
388,124,198599,1,0,0:0:0:0:
374,228,198724,1,0,0:0:0:0:
413,325,198849,2,0,L|308:302,1,106.666666666667
48,112,199224,6,0,L|105:201,1,106.666666666667
188,344,199599,2,0,L|210:239,1,106.666666666667
288,84,199974,2,0,L|216:104,1,53.3333333333333
236,98,200224,1,0,0:0:0:0:
92,84,200349,6,0,P|88:140|128:192,1,106.666666666667
248,224,200724,2,0,L|200:264,1,53.3333333333333
115,333,200974,1,0,0:0:0:0:
236,98,201099,1,0,0:0:0:0:
207,258,201224,1,0,0:0:0:0:
172,32,201349,1,0,0:0:0:0:
276,324,201474,1,0,0:0:0:0:
276,324,201724,5,0,0:0:0:0:
97,216,201849,1,0,0:0:0:0:
299,232,201974,1,0,0:0:0:0:
5,291,202099,1,0,0:0:0:0:
231,166,202224,5,0,0:0:0:0:
115,333,202349,1,0,0:0:0:0:
172,32,202474,1,0,0:0:0:0:
299,232,202599,2,0,P|320:288|316:336,1,106.666666666667
224,296,202974,6,0,P|208:264|204:228,1,53.3333333333333
172,32,203224,1,0,0:0:0:0:
172,32,203349,2,0,P|152:96|108:124,1,106.666666666667
296,88,203724,1,0,0:0:0:0:
97,216,203849,5,0,0:0:0:0:
329,267,203974,1,0,0:0:0:0:
172,32,204099,1,0,0:0:0:0:
224,296,204224,5,0,0:0:0:0:
384,36,204349,1,0,0:0:0:0:
91,365,204474,1,0,0:0:0:0:
91,365,204849,6,0,P|144:352|176:304,1,106.666666666667
80,256,205224,2,0,P|111:214|162:202,1,106.666666666667
260,236,205599,2,0,P|266:184|238:139,1,106.666666666667
152,96,205974,2,0,P|183:54|234:42,1,106.666666666667
440,92,206349,6,0,P|396:168|304:200,1,160.000006103516
152,96,206724,2,0,P|236:73|324:115,1,160.000006103516
344,280,207099,2,0,P|420:348|512:284,1,213.333333333333
505,300,207474,1,0,0:0:0:0:
428,264,207724,5,0,0:0:0:0:
428,264,207849,2,0,P|404:216|345:194,1,106.666666666667
256,144,208224,2,0,P|239:194|265:252,1,106.666666666667
428,264,208599,2,0,P|456:192|424:104,1,160.000006103516
433,115,208974,1,0,0:0:0:0:
428,264,209224,5,0,0:0:0:0:
428,264,209349,2,0,P|392:312|328:320,1,106.666666666667
224,176,209724,2,0,P|254:194|272:216,1,53.3333333333333
228,316,209974,1,0,0:0:0:0:
104,249,210099,2,0,P|64:208|56:152,1,106.666666666667
54,160,210474,1,0,0:0:0:0:
104,248,210724,5,0,0:0:0:0:
104,248,210849,2,0,P|148:284|208:272,1,106.666666666667
304,168,211224,2,0,P|260:132|200:144,1,106.666666666667
352,312,211599,2,0,P|396:348|456:336,1,106.666666666667
444,192,211974,6,0,L|424:260,1,53.3333333333333
256,352,212224,1,0,0:0:0:0:
104,249,212349,2,0,P|72:204|76:148,1,106.666666666667
73,154,212724,1,0,0:0:0:0:
256,84,212974,5,0,0:0:0:0:
256,84,213099,2,0,P|296:132|280:188,1,106.666666666667
184,180,213474,2,0,P|189:242|240:270,1,106.666666666667
460,280,213849,6,0,P|344:300|252:364,1,213.333333333333
68,120,214224,2,0,P|174:169|247:254,1,213.333333333333
464,24,214599,2,0,P|373:99|325:200,1,213.333333333333
264,351,214974,5,0,0:0:0:0:
256,116,215099,1,0,0:0:0:0:
460,280,215224,1,0,0:0:0:0:
238,239,215349,1,0,0:0:0:0:
452,160,215474,5,0,0:0:0:0:
264,351,215599,1,0,0:0:0:0:
192,92,215724,1,0,0:0:0:0:
340,192,215849,1,0,0:0:0:0:
72,288,215974,5,0,0:0:0:0:
92,56,216099,1,0,0:0:0:0:
238,239,216224,1,0,0:0:0:0:
40,164,216349,1,0,0:0:0:0:
336,52,216474,5,0,0:0:0:0:
188,352,216599,1,0,0:0:0:0:
92,56,216724,1,0,0:0:0:0:
92,56,216849,6,0,P|111:127|191:187,1,160.000006103516
256,100,217224,2,0,P|287:166|264:264,1,160.000006103516
52,328,217599,2,0,P|111:276|190:268,1,160.000006103516
190,268,217974,1,0,0:0:0:0:
408,320,218224,5,0,0:0:0:0:
408,320,218349,2,0,L|340:168,1,160.000006103516
284,60,218724,2,0,L|216:212,1,160.000006103516
88,256,219099,2,0,L|156:104,1,160.000006103516
153,109,219474,1,0,0:0:0:0:
400,64,219724,5,0,0:0:0:0:
400,64,219849,2,0,P|352:144|272:160,1,160.000006103516
194,53,220224,2,0,P|274:101|290:181,1,160.000006103516
308,300,220599,2,0,P|389:345|466:319,1,160.000006103516
450,330,220974,1,0,0:0:0:0:
308,300,221224,5,0,0:0:0:0:
308,300,221349,2,0,P|264:234|277:157,1,160.000006103516
340,68,221724,2,0,P|383:133|370:210,1,160.000006103516
36,320,222099,2,0,L|200:244,1,160.000006103516
308,300,222474,2,0,L|230:335,1,80.0000030517579
181,252,222724,5,0,0:0:0:0:
208,152,222849,2,0,P|264:100|356:96,1,160.000006103516
308,188,223224,1,0,0:0:0:0:
120,52,223349,5,0,0:0:0:0:
344,92,223474,1,0,0:0:0:0:
181,252,223599,1,0,0:0:0:0:
264,28,223724,5,0,0:0:0:0:
264,324,223849,1,0,0:0:0:0:
92,184,223974,1,0,0:0:0:0:
92,184,224224,5,0,0:0:0:0:
181,252,224349,1,0,0:0:0:0:
196,141,224474,1,0,0:0:0:0:
112,340,224599,1,0,0:0:0:0:
107,73,224724,5,0,0:0:0:0:
284,300,224849,1,0,0:0:0:0:
24,276,224974,1,0,0:0:0:0:
196,141,225099,2,0,L|332:28,1,160.000006103516
319,38,225474,1,0,0:0:0:0:
424,208,225724,6,0,L|376:168,1,40.000001525879
368,216,225849,2,0,L|240:108,1,160.000006103516
136,104,226224,5,0,0:0:0:0:
212,16,226349,1,0,0:0:0:0:
224,168,226474,1,0,0:0:0:0:
116,8,226599,1,0,0:0:0:0:
300,88,226724,5,0,0:0:0:0:
128,204,226849,1,0,0:0:0:0:
212,16,226974,1,0,0:0:0:0:
356,220,227099,1,0,0:0:0:0:
156,92,227224,5,0,0:0:0:0:
420,120,227349,1,0,0:0:0:0:
196,296,227474,1,0,0:0:0:0:
300,88,227599,1,0,0:0:0:0:
392,352,227724,5,0,0:0:0:0:
156,92,227849,1,0,0:0:0:0:
464,244,227974,1,0,0:0:0:0:
196,296,228099,2,0,L|40:340,1,160.000006103516
80,240,228474,2,0,L|197:208,1,120.000004577637
195,209,228786,1,0,0:0:0:0:
256,192,228849,12,0,231849,0:0:0:0:
