osu file format v14

[General]
AudioFilename: audio.mp3
AudioLeadIn: 0
PreviewTime: 55823
Countdown: 0
SampleSet: Soft
StackLeniency: 0.7
Mode: 0
LetterboxInBreaks: 0
WidescreenStoryboard: 1

[Editor]
DistanceSpacing: 1.2
BeatDivisor: 4
GridSize: 4
TimelineZoom: 1.464401

[Metadata]
Title:Talam
TitleUnicode:Talam
Artist:Bie The Star
ArtistUnicode:Bie The Star
Creator:fluck1285
Version:Normal
Source:
Tags:Bie fluck1285
BeatmapID:1319552
BeatmapSetID:616164

[Difficulty]
HPDrainRate:5
CircleSize:4
OverallDifficulty:5
ApproachRate:5
SliderMultiplier:0.7
SliderTickRate:1

[Events]
//Background and Video events
0,0,"A cheated man.jpg",0,0
//Break Periods
2,85933,92344
2,149331,166778
//Storyboard Layer 0 (Background)
//Storyboard Layer 1 (Fail)
//Storyboard Layer 2 (Pass)
//Storyboard Layer 3 (Foreground)
//Storyboard Sound Samples

[TimingPoints]
898,441.171428571431,4,2,1,20,1,8
898,-100,4,2,1,20,0,0
15015,-100,4,2,1,40,0,0
53838,-100,4,2,1,85,0,0
57368,-100,4,1,2,85,0,1
57423,-100,4,1,2,40,0,0
59133,-100,4,2,1,40,0,1
60841,-100,4,2,1,85,0,0
60897,-100,4,1,3,85,0,1
60952,-100,4,1,2,40,0,0
62661,-100,4,2,1,80,0,1
64372,-100,4,2,1,85,0,0
64427,-100,4,2,1,85,0,1
71430,-100,4,2,1,85,0,0
71484,-100,4,1,4,85,0,1
71541,-100,4,1,2,40,0,0
73248,-100,4,1,2,40,0,1
73250,-100,4,2,1,85,0,1
74957,-100,4,2,1,85,0,0
75012,-100,4,1,3,85,0,1
75067,-100,4,1,2,40,0,0
76780,-100,4,2,1,85,0,1
78489,-100,4,2,1,85,0,0
78544,-100,4,2,1,85,0,1
85603,-100,4,2,1,85,0,0
89132,-100,4,2,1,20,0,0
92662,-100,4,2,1,60,0,0
106779,-100,4,2,1,75,0,1
106834,-100,4,2,1,75,0,0
120897,-100,4,1,2,85,0,1
120952,-100,4,1,2,40,0,0
122661,-100,4,2,1,85,0,1
124370,-100,4,2,1,85,0,0
124426,-100,4,1,3,85,0,1
124480,-100,4,1,2,40,0,0
126190,-100,4,2,1,85,0,1
127900,-100,4,2,1,85,0,0
127955,-100,4,2,1,85,0,1
134959,-100,4,2,1,85,0,0
135014,-100,4,1,4,85,0,1
135069,-100,4,1,2,40,0,0
136778,-100,4,2,1,85,0,1
138487,-100,4,2,1,85,0,0
138544,-100,4,1,3,85,0,1
138597,-100,4,1,2,40,0,0
140307,-100,4,2,1,85,0,1
142018,-100,4,2,1,85,0,0
142073,-100,4,2,1,85,0,1
149076,-100,4,2,1,85,0,0
149132,-100,4,2,1,70,0,1
149187,-100,4,2,1,70,0,0
156190,-100,4,2,1,70,0,1
156246,-100,4,2,1,70,0,0
166777,-100,4,2,1,70,0,0
166997,-100,4,2,1,20,0,0
170308,-100,4,2,1,40,0,8
180013,-100,4,2,1,70,0,0
180895,-100,4,2,1,85,0,1
184369,-100,4,2,1,85,0,0
184424,-100,4,2,1,85,0,1
184481,-100,4,2,1,85,0,0
186190,-100,4,2,1,85,0,1
187897,-100,4,2,1,85,0,0
187955,-100,4,2,1,85,0,1
188008,-100,4,2,1,85,0,0
189720,-100,4,2,1,85,0,1
191429,-100,4,2,1,85,0,0
191484,-100,4,2,1,85,0,1
198486,-100,4,2,1,85,0,0
198541,-100,4,2,1,85,0,1
212605,-100,4,2,1,85,0,0
212660,-100,4,2,1,85,0,1
212716,-100,4,2,1,20,0,0
223415,-100,4,2,1,10,0,8

[Colours]
Combo1 : 198,82,79
Combo2 : 115,69,53
Combo3 : 222,148,92
Combo4 : 149,149,130

[HitObjects]
120,92,898,6,0,B|88:192|88:192|120:292,1,210
392,292,4427,6,0,B|424:192|424:192|392:92,1,210
208,236,7956,6,0,P|272:308|304:236,1,210
304,148,10162,6,0,P|240:76|208:148,1,210
88,60,15897,6,0,L|140:132,1,70
56,160,16780,2,0,L|108:232,1,70
24,260,17662,2,0,B|68:320|68:320|100:352|148:328,1,140
280,264,19427,6,0,P|312:236|348:228,1,70
348,312,20309,2,0,P|380:340|416:348,1,70
416,264,21191,2,0,B|444:228|476:228|476:228|456:156,1,140
352,32,22956,6,0,L|292:96,1,70
220,96,23838,2,0,P|164:132|108:120,2,105
28,264,26485,6,0,L|60:325,1,70
140,296,27368,2,0,P|196:336|252:336,2,105
388,336,30015,6,0,B|356:260,1,70
416,208,30897,2,0,B|388:143,1,70
444,80,31780,2,0,P|376:60|320:96,1,140
191,94,33544,6,0,P|132:59|104:64,2,70
68,80,35088,2,0,B|40:144,1,70
28,272,36191,6,0,P|86:307|151:286,1,140
228,256,37515,2,0,L|200:191,2,70
304,288,38838,2,0,L|276:352,2,70
320,204,40162,6,0,P|368:228|384:248,1,70
448,196,41044,2,0,P|344:128|320:124,2,140
378,239,43250,6,0,P|344:212|268:204,2,105
304,284,45015,2,0,P|346:314|397:322,2,105
224,260,46779,6,0,P|172:267|130:298,2,105
284,201,48544,2,0,L|344:104,2,105
216,152,50309,6,0,P|144:168|104:144,2,105
164,84,52073,2,0,P|114:69|66:88,2,105
216,152,53838,6,0,P|248:184|296:188,4,70
288,104,56044,2,0,L|336:36,2,70
348,164,57367,1,0,0:0:0:0:
184,316,58470,6,0,L|72:344,1,105
20,284,59573,2,0,P|20:228|44:192,2,70
100,256,60897,1,0,0:0:0:0:
256,116,62000,6,0,L|368:72,1,105
384,156,63103,1,0,0:0:0:0:
384,156,63544,2,0,L|456:128,1,70
479,208,64426,6,0,P|452:248|452:328,1,105
376,348,65529,2,0,L|256:336,2,105
368,264,67294,6,0,L|263:253,3,105
256,176,69720,2,0,P|192:224|192:280,1,140
72,192,71485,1,0,0:0:0:0:
256,96,72588,6,0,P|320:76|360:76,1,105
440,88,73691,1,0,0:0:0:0:
388,152,74132,2,0,B|420:240|420:240|416:296,1,140
212,336,76117,6,0,P|128:332|108:328,1,105
52,264,77220,2,0,L|36:192,2,70
136,248,78544,6,0,P|168:192|232:176,1,105
220,260,79647,2,0,L|332:280,2,105
204,176,81411,6,0,L|316:196,3,105
388,164,83838,2,0,L|359:325,2,140
376,88,93544,6,0,L|456:120,1,70
408,192,94426,2,0,L|476:243,1,70
432,312,95308,2,0,P|352:312|296:344,1,140
136,296,97073,6,0,L|56:264,1,70
104,192,97955,2,0,L|35:140,1,70
80,72,98837,2,0,P|160:72|216:40,1,140
376,88,100602,6,0,L|300:48,1,70
308,140,101485,2,0,L|400:188,2,105
112,216,103911,6,0,B|112:176|100:147,3,70
84,108,105455,2,0,B|144:104|144:104|188:80,1,105
220,64,106337,2,0,P|232:100|268:120,1,70
432,192,108102,6,0,L|460:96,2,70
420,232,109205,2,0,P|360:216|312:240,1,105
372,300,110308,6,0,P|324:340|276:344,2,105
420,232,112073,2,0,L|476:164,1,70
448,140,112734,1,0,0:0:0:0:
384,88,113176,2,0,P|324:76|292:32,3,105
212,44,115602,6,0,L|180:136,1,70
148,120,116264,2,0,P|112:108|72:116,1,70
64,236,117367,6,0,L|88:328,4,70
148,248,119573,2,0,L|130:180,2,70
232,260,120896,1,0,0:0:0:0:
328,300,121999,6,0,L|440:272,1,105
452,192,123102,1,0,0:0:0:0:
429,109,123543,2,0,L|294:75,1,140
184,84,125528,6,0,L|72:112,1,105
60,192,126631,1,0,0:0:0:0:
82,274,127072,2,0,L|217:308,1,140
256,224,128617,5,0,0:0:0:0:
256,224,129058,2,0,P|324:220|360:240,2,105
176,196,130822,2,0,L|144:88,2,105
168,320,132808,1,0,0:0:0:0:
168,320,133249,6,0,L|104:264,1,70
52,220,134131,2,0,P|88:160|88:76,1,140
248,64,136117,6,0,L|262:167,1,105
348,180,137219,1,0,0:0:0:0:
432,192,137661,2,0,P|424:260|460:336,1,140
300,284,139646,6,0,L|213:343,1,105
132,316,140749,1,0,0:0:0:0:
52,288,141190,2,0,P|36:248|36:204,2,70
160,224,142734,5,0,0:0:0:0:
160,224,143175,2,0,L|272:196,2,105
144,140,144940,2,0,P|96:112|72:68,2,105
160,224,146705,5,0,0:0:0:0:
224,168,147146,2,0,B|268:180|292:216|292:216|296:192|300:176,1,105
312,160,148028,2,0,P|344:136|452:140,1,140
476,156,149131,1,0,0:0:0:0:
256,192,170307,5,0,0:0:0:0:
164,124,172072,2,0,P|147:191|163:260,2,140
348,260,175601,6,0,P|364:192|348:123,2,140
256,192,178249,1,0,0:0:0:0:
192,300,179131,5,0,0:0:0:0:
320,300,180013,1,0,0:0:0:0:
384,192,180895,6,0,L|424:96,2,105
319,140,182660,2,0,P|256:164|192:140,2,140
256,340,185528,6,0,L|170:317,1,70
148,312,186190,2,0,B|132:332|132:332|96:296|112:248,1,105
120,220,187072,2,0,P|128:180|124:136,1,70
88,76,187954,1,0,0:0:0:0:
296,52,189057,6,0,B|356:44|356:44|352:56,1,70
344,92,189719,2,0,P|348:128|364:160,1,70
448,152,190601,2,0,L|428:228,1,70
396,296,191484,6,0,L|300:336,1,105
212,336,192586,2,0,L|116:296,1,105
72,224,193689,1,0,0:0:0:0:
72,224,193910,2,0,P|72:152|60:72,1,140
48,44,195013,6,0,B|120:56|120:56|172:52,1,105
236,48,196116,1,0,0:0:0:0:
320,40,196557,2,0,P|376:120|440:136,1,140
456,140,197660,2,0,L|448:192,3,46.6666666666667
300,316,199590,6,0,L|228:336,1,70
200,344,200197,2,0,L|140:330,1,61.25
80,316,200914,6,0,B|100:264|100:264|28:232|36:164,1,183.75
204,292,203175,2,0,L|272:304,1,70
316,312,203836,6,0,P|332:352|348:372,2,52.5
316,268,204719,2,0,P|332:232|360:208,1,70
360,128,205601,6,0,B|400:80|352:40|308:36|280:80|296:116|296:116|280:128|256:108|256:192|256:108|232:128|216:116|216:116|232:80|204:36|160:40|112:80|152:128,1,455
256,192,209130,12,0,212660,0:0:0:0:
