osu file format v14

[General]
AudioFilename: The Transient Apple Salesgirl.mp3
AudioLeadIn: 0
PreviewTime: 110544
Countdown: 0
SampleSet: None
StackLeniency: 0.4
Mode: 0
LetterboxInBreaks: 0
WidescreenStoryboard: 1

[Editor]
DistanceSpacing: 0.8
BeatDivisor: 4
GridSize: 4
TimelineZoom: 1.4

[Metadata]
Title:Ringo Uri no Utakata Shoujo
TitleUnicode:林檎売りの泡沫少女
Artist:Bibian
ArtistUnicode:びびあん
Creator:Reol
Version:Fairytale
Source:
Tags:Megpoid Gumi Utakata
BeatmapID:1640301
BeatmapSetID:780939

[Difficulty]
HPDrainRate:7
CircleSize:4
OverallDifficulty:8.5
ApproachRate:9.5
SliderMultiplier:2
SliderTickRate:1

[Events]
//Background and Video events
//Break Periods
//Storyboard Layer 0 (Background)
//Storyboard Layer 1 (Fail)
//Storyboard Layer 2 (Pass)
//Storyboard Layer 3 (Foreground)
//Storyboard Sound Samples

[TimingPoints]
6376,266.429840142096,3,2,1,20,1,0
19164,-200,3,2,1,20,0,0
31953,-200,3,2,1,20,0,0
45542,266.429840142096,4,2,1,70,1,0
45542,-83.3333333333333,4,2,1,70,0,1
45675,-100,4,2,1,70,0,0
54067,-125,4,2,1,45,0,0
62327,-76.9230769230769,4,2,1,45,0,0
62593,-125,4,2,1,45,0,0
63592,-125,4,2,1,5,0,0
63659,-125,4,2,1,45,0,0
69187,-125,4,2,1,5,0,0
69254,-125,4,2,1,45,0,0
79645,-100,4,2,1,45,0,0
96696,266.429840142096,3,2,1,70,1,0
106287,266.429840142096,4,2,1,70,1,0
110549,-100,4,2,1,70,0,1
127601,-100,4,2,1,70,0,0
130798,-100,4,2,1,70,0,1
133995,-100,4,2,1,70,0,0
135061,-100,4,2,1,70,0,0
160638,266.429840142096,3,2,1,70,1,0
172628,266.429840142096,5,2,2,100,1,0
173960,266.429840142096,3,2,1,70,1,0
183551,266.429840142096,4,2,1,70,1,0
187813,-100,4,2,1,70,0,1
204865,-100,4,2,1,70,0,0
208062,-100,4,2,1,70,0,1
212325,266.429840142096,3,2,1,70,1,0
268808,266.429840142096,4,2,2,40,1,0
287458,266.429840142096,4,2,1,70,1,1
311969,266.429840142096,3,2,1,70,1,0

[Colours]
Combo1 : 0,128,255
Combo2 : 234,255,0
Combo3 : 255,50,0
Combo4 : 127,255,0

[HitObjects]
111,130,19164,6,0,B|105:88|105:88|112:67|112:67|105:17,2,100
196,182,19963,2,0,B|202:224|202:224|195:245|195:245|202:295,1,100
209,379,20496,1,0,0:0:0:0:
307,363,20762,6,0,P|322:328|302:252,1,100
266,179,21295,1,0,0:0:0:0:
194,108,21561,2,0,B|157:103|157:103|135:108|135:108|88:101,2,100
266,179,22361,2,0,B|303:184|303:184|325:179|325:179|372:186,1,100
464,197,22894,1,0,0:0:0:0:
486,294,23160,6,0,P|474:322|400:351,1,100
237,261,23693,1,0,0:0:0:0:
335,247,23959,1,0,0:0:0:0:
335,247,24226,1,0,0:0:0:0:
304,342,24492,1,0,0:0:0:0:
203,345,24759,6,0,P|163:323|150:253,1,100
176,178,25291,1,0,0:0:0:0:
206,82,25558,6,0,B|247:73|247:73|266:77|266:77|312:67,2,100
176,178,26358,2,0,B|135:169|135:169|116:173|116:173|70:163,2,100
274,194,27157,6,0,P|288:218|281:300,1,100
206,348,27690,1,0,0:0:0:0:
109,371,27956,2,0,L|0:365,2,100
206,348,28756,6,0,P|218:316|206:247,1,100
152,169,29288,1,0,0:0:0:0:
91,89,29555,2,0,P|128:69|196:83,1,100
272,122,30088,1,0,0:0:0:0:
352,181,30354,2,0,L|344:297,1,100
336,380,30887,1,0,0:0:0:0:
255,320,31153,1,0,0:0:0:0:
156,336,31420,1,0,0:0:0:0:
155,186,31686,1,0,0:0:0:0:
253,204,31953,6,0,L|293:192,12,25
157,231,33018,1,0,0:0:0:0:
149,260,33152,1,0,0:0:0:0:
140,288,33285,1,0,0:0:0:0:
108,382,33551,5,0,0:0:0:0:
34,314,33818,2,0,L|41:211,1,100
46,164,34217,1,0,0:0:0:0:
46,164,34351,2,0,P|73:136|137:129,1,100
271,169,34883,1,0,0:0:0:0:
303,263,35150,6,0,L|297:305,12,25
367,186,36216,1,0,0:0:0:0:
372,156,36349,1,0,0:0:0:0:
378,126,36482,1,0,0:0:0:0:
397,27,36749,1,0,0:0:0:0:
306,69,37015,2,0,L|195:61,1,100
156,55,37415,1,0,0:0:0:0:
156,55,37548,5,0,0:0:0:0:
85,126,37814,1,0,0:0:0:0:
90,155,37947,1,0,0:0:0:0:
95,184,38081,1,0,0:0:0:0:
120,280,38347,6,0,L|81:276,12,25
212,242,39413,1,0,0:0:0:0:
241,245,39546,1,0,0:0:0:0:
270,248,39679,1,0,0:0:0:0:
369,261,39946,2,0,P|379:232|361:149,1,100
343,122,40345,1,0,0:0:0:0:
343,122,40479,2,0,L|275:112,1,50
244,106,40745,5,0,0:0:0:0:
154,149,41011,1,0,0:0:0:0:
156,280,41278,1,0,0:0:0:0:
246,323,41544,6,0,L|288:312,12,25
156,280,42610,1,0,0:0:0:0:
156,250,42743,1,0,0:0:0:0:
156,220,42876,1,0,0:0:0:0:
154,119,43143,5,0,0:0:0:0:
240,168,43409,2,0,L|268:169,4,25
156,220,43942,1,0,0:0:0:0:
154,119,45008,5,0,0:0:0:0:
154,119,45274,1,0,0:0:0:0:
154,119,45542,6,0,P|194:73|313:84,1,179.999994506836
325,100,45808,2,0,P|354:126|426:131,1,100
496,80,46074,1,0,0:0:0:0:
351,200,46208,1,0,0:0:0:0:
430,260,46341,2,0,L|416:373,1,100
277,265,46607,6,0,P|250:214|303:114,1,150
311,107,46874,1,0,0:0:0:0:
393,193,47007,1,0,0:0:0:0:
353,305,47140,2,0,P|315:347|264:348,1,100
129,201,47407,2,0,L|114:92,1,100
326,26,47673,6,0,B|306:93|306:93|316:146|316:146|292:227,1,200
259,334,48073,1,0,0:0:0:0:
432,215,48206,2,0,P|401:170|333:155,1,100
144,214,48472,2,0,P|120:263|141:329,1,100
245,172,48739,6,0,B|160:161|160:161|130:170|130:170|35:157,1,200
47,158,49138,1,0,0:0:0:0:
299,88,49272,2,0,L|421:76,1,100
478,276,49538,2,0,L|356:264,1,100
120,254,49804,6,0,P|166:217|270:250,1,150
272,252,50071,1,0,0:0:0:0:
161,337,50204,1,0,0:0:0:0:
124,151,50337,2,0,P|94:111|48:97,1,100
67,328,50604,2,0,P|112:347|161:337,1,100
248,184,50870,6,0,L|236:20,1,150
246,5,51137,1,0,0:0:0:0:
369,106,51270,1,0,0:0:0:0:
305,252,51403,2,0,P|249:277|194:256,1,100
59,116,51669,2,0,P|65:55|111:17,1,100
348,82,51936,6,0,B|268:97|268:97|234:81|234:81|154:95,1,200
41,240,52335,1,0,0:0:0:0:
240,318,52469,2,0,P|219:267|149:244,1,100
59,47,52735,2,0,P|96:79|164:82,1,100
391,35,53002,6,0,P|335:59|319:171,1,150
316,168,53268,2,0,P|335:197|311:275,1,100
165,339,53534,1,0,0:0:0:0:
17,233,53668,1,0,0:0:0:0:
17,233,53734,1,0,0:0:0:0:
17,233,53801,1,0,0:0:0:0:
196,224,53934,1,0,0:0:0:0:
287,357,54067,6,0,P|328:368|412:277,1,160
401,219,54467,1,0,0:0:0:0:
350,156,54600,2,0,L|362:62,1,80
277,183,54867,2,0,L|266:262,1,80
253,341,55133,6,0,P|206:360|104:323,1,160
75,252,55533,1,0,0:0:0:0:
71,172,55666,2,0,P|87:131|128:109,1,80
223,234,55932,2,0,P|193:259|153:263,1,80
193,148,56199,6,0,L|360:135,1,160
431,121,56598,1,0,0:0:0:0:
357,216,56732,2,0,P|310:209|285:175,1,80
284,106,56998,1,0,0:0:0:0:
225,51,57131,1,0,0:0:0:0:
202,206,57264,6,0,B|188:269|188:269|198:297|198:297|182:364,1,160
182,360,57664,1,0,0:0:0:0:
34,294,57797,2,0,P|69:280|119:296,1,80
269,334,58064,1,0,0:0:0:0:
346,354,58197,1,0,0:0:0:0:
407,303,58330,6,0,L|425:129,1,160
437,64,58730,1,0,0:0:0:0:
369,197,58863,2,0,P|335:203|282:172,1,80
173,49,59129,2,0,P|207:43|260:74,1,80
294,186,59396,6,0,L|279:350,1,160
175,80,59795,2,0,L|189:239,1,160
88,319,60195,1,0,0:0:0:0:
0,225,60328,1,0,0:0:0:0:
100,144,60462,6,0,L|93:64,1,80
218,187,60728,2,0,L|212:108,1,80
337,130,60994,2,0,L|330:50,1,80
456,173,61260,2,0,L|449:93,1,80
360,249,61527,6,0,P|340:293|414:375,1,160
400,373,61927,1,0,0:0:0:0:
402,172,62060,1,0,0:0:0:0:
261,303,62193,1,0,0:0:0:0:
246,309,62260,1,0,0:0:0:0:
231,315,62327,6,0,L|79:303,1,129.999994049073
86,160,62593,6,0,P|136:176|165:292,1,160
77,257,62993,1,0,0:0:0:0:
168,103,63126,2,0,L|155:12,1,80
279,147,63392,2,0,L|258:283,1,120
256,298,63659,6,0,B|322:283|322:283|350:294|350:294|420:280,1,160
411,281,64058,1,0,0:0:0:0:
359,214,64192,2,0,P|337:168|343:123,1,80
492,283,64458,2,0,P|481:328|436:357,1,80
256,298,64724,6,0,L|63:284,1,160
24,321,65124,1,0,0:0:0:0:
121,209,65257,2,0,L|105:121,1,80
78,3,65524,1,0,0:0:0:0:
140,52,65657,1,0,0:0:0:0:
219,50,65790,6,0,B|320:44|266:104|379:95,1,160
435,55,66190,1,0,0:0:0:0:
301,145,66323,2,0,P|279:168|272:228,1,80
408,296,66589,2,0,P|442:276|461:242,1,80
366,95,66856,6,0,L|200:87,1,160
130,114,67256,1,0,0:0:0:0:
268,143,67389,2,0,P|289:102|280:57,1,80
189,175,67655,1,0,0:0:0:0:
250,226,67788,1,0,0:0:0:0:
328,206,67922,6,0,P|368:215|414:195,1,80
462,107,68188,1,0,0:0:0:0:
378,32,68321,2,0,P|337:37|300:71,1,80
307,173,68588,1,0,0:0:0:0:
189,49,68721,2,0,P|178:86|203:146,1,80
279,215,68987,6,0,L|434:194,1,120
429,192,69254,1,0,0:0:0:0:
334,277,69387,2,0,P|301:297|238:286,1,80
182,195,69653,1,0,0:0:0:0:
397,198,69787,2,0,P|428:226|434:278,1,80
300,182,70053,6,0,L|323:20,1,160
322,23,70453,1,0,0:0:0:0:
206,133,70586,1,0,0:0:0:0:
321,242,70719,1,0,0:0:0:0:
336,239,70786,1,0,0:0:0:0:
351,236,70852,1,0,0:0:0:0:
200,297,70986,1,0,0:0:0:0:
370,233,71119,6,0,P|402:181|356:75,1,160
160,167,71518,2,0,B|226:154|226:154|255:167|255:167|316:157,1,160
372,328,71918,2,0,P|329:322|297:273,1,80
296,63,72184,6,0,P|353:66|406:170,1,160
153,276,72584,2,0,P|184:228|300:234,1,160
256,346,72984,1,0,0:0:0:0:
129,362,73117,1,0,0:0:0:0:
69,248,73250,6,0,B|81:182|81:182|74:154|74:154|93:74,1,160
293,76,73650,2,0,P|241:134|164:135,1,160
31,31,74049,2,0,P|70:10|111:14,1,80
311,186,74316,6,0,P|243:226|166:216,1,160
280,47,74716,2,0,B|344:44|344:44|371:56|371:56|452:51,1,160
343,181,75115,1,0,0:0:0:0:
206,98,75248,1,0,0:0:0:0:
77,195,75382,6,0,L|97:279,1,80
117,356,75648,1,0,0:0:0:0:
172,206,75781,2,0,L|130:33,1,160
95,272,76181,2,0,P|125:303|183:306,1,80
328,204,76447,6,0,B|264:211|264:211|238:198|238:198|172:206,2,160
481,155,77113,1,0,0:0:0:0:
416,302,77247,1,0,0:0:0:0:
263,255,77380,1,0,0:0:0:0:
313,103,77513,6,0,L|289:18,1,80
204,97,77780,1,0,0:0:0:0:
415,106,77913,1,0,0:0:0:0:
274,181,78046,2,0,P|243:205|191:207,1,80
54,105,78312,2,0,L|173:113,1,120
206,117,78579,6,0,P|234:148|195:273,1,160
81,339,78978,1,0,0:0:0:0:
141,189,79112,1,0,0:0:0:0:
280,305,79245,1,0,0:0:0:0:
303,310,79311,1,0,0:0:0:0:
326,316,79378,1,0,0:0:0:0:
384,202,79511,1,0,0:0:0:0:
325,52,79645,6,0,L|152:43,1,150
135,40,79911,1,0,0:0:0:0:
248,121,80044,1,0,0:0:0:0:
387,115,80177,2,0,P|416:71|407:19,1,100
290,196,80444,2,0,P|286:248|320:289,1,100
411,308,80710,6,0,B|330:319|330:319|306:303|306:303|195:315,1,200
117,328,81110,1,0,0:0:0:0:
253,250,81243,2,0,P|266:194|237:135,1,100
143,105,81510,1,0,0:0:0:0:
43,171,81643,1,0,0:0:0:0:
182,289,81776,6,0,L|350:272,1,150
370,267,82042,1,0,0:0:0:0:
266,327,82176,1,0,0:0:0:0:
295,47,82309,2,0,P|336:56|372:113,1,100
240,194,82575,2,0,L|118:179,1,100
67,354,82842,6,0,L|265:326,1,200
265,325,83241,1,0,0:0:0:0:
235,149,83375,2,0,P|280:170|306:212,1,100
430,198,83641,2,0,P|434:247|411:290,1,100
222,239,83907,6,0,B|210:164|210:164|226:131|226:131|211:33,1,200
212,44,84307,1,0,0:0:0:0:
123,152,84440,2,0,P|72:162|18:142,2,100
305,81,84840,1,0,0:0:0:0:
305,81,84973,6,0,L|466:67,1,150
492,81,85240,1,0,0:0:0:0:
344,172,85373,1,0,0:0:0:0:
344,172,85506,2,0,P|288:180|239:155,1,100
89,26,85772,2,0,P|86:74|49:121,1,100
35,294,86039,6,0,B|109:279|109:279|146:294|146:294|238:277,1,200
