osu file format v14

[General]
AudioFilename: audio.mp3
AudioLeadIn: 0
PreviewTime: 4474
Countdown: 0
SampleSet: Normal
StackLeniency: 0.7
Mode: 0
LetterboxInBreaks: 0
WidescreenStoryboard: 0

[Editor]
DistanceSpacing: 1.4
BeatDivisor: 8
GridSize: 4
TimelineZoom: 1.099999

[Metadata]
Title:Poshli vy v zhopu!
TitleUnicode:Пошли вы в жопу!
Artist:Bianka AKA Kralya
ArtistUnicode:Бьянка АКА Краля
Creator:Sieg
Version:TicCl!ck's Hard
Source:
Tags:hip-hop rap russian bakari ticclick marmowka fcl namki shmiklak wajinshu refaller nelly хейтеры-хуейтеры
BeatmapID:980743
BeatmapSetID:454827

[Difficulty]
HPDrainRate:5
CircleSize:4
OverallDifficulty:6
ApproachRate:8
SliderMultiplier:2.4
SliderTickRate:4

[Events]
//Background and Video events
0,0,"peezdyukee-avtoreetety.jpg",0,0
//Break Periods
2,67531,69438
//Storyboard Layer 0 (Background)
//Storyboard Layer 1 (Fail)
//Storyboard Layer 2 (Pass)
//Storyboard Layer 3 (Foreground)
//Storyboard Sound Samples

[TimingPoints]
189,714.285714285714,4,2,2,60,1,0
2153,-166.666666666667,4,2,2,20,0,0
2421,-166.666666666667,4,2,2,5,0,0
2555,-166.666666666667,4,2,2,10,0,0
2867,-100,4,2,2,60,0,0
4831,-100,4,1,1,40,0,0
5903,-100,4,1,1,40,0,0
25813,-166.666666666667,4,1,1,40,0,0
25992,-166.666666666667,4,1,1,5,0,0
26171,-166.666666666667,4,1,1,40,0,0
26349,-166.666666666667,4,1,1,5,0,0
26528,-166.666666666667,4,1,1,40,0,0
26706,-100,4,1,1,40,0,0
28760,-90.9090909090909,4,1,0,40,0,1
28805,-90.9090909090909,4,1,1,40,0,1
33938,-90.9090909090909,4,1,1,32,0,1
34177,-90.9090909090909,4,1,1,28,0,1
34355,-90.9090909090909,4,1,1,40,0,1
40144,-100,4,1,1,40,0,0
40188,-90.9090909090909,4,1,0,40,0,1
40233,-90.9090909090909,4,1,1,40,0,1
44787,-90.9090909090909,4,1,1,55,0,1
45055,-90.9090909090909,4,1,1,40,0,1
48046,-90.9090909090909,4,1,1,40,0,0
48760,-90.9090909090909,4,1,1,40,0,1
50858,-125,4,1,1,40,0,1
51037,-125,4,1,1,10,0,1
51126,-125,4,1,1,40,0,1
51617,-100,4,1,1,40,0,0
54385,-133.333333333333,4,1,1,40,0,0
54563,-133.333333333333,4,1,1,10,0,0
54921,-133.333333333333,4,1,1,40,0,0
57242,-100,4,1,1,40,0,0
60099,-133.333333333333,4,1,1,40,0,0
62956,-100,4,1,1,40,0,0
65813,-133.333333333333,4,1,1,40,0,0
65992,-133.333333333333,4,1,1,10,0,0
66171,-133.333333333333,4,1,1,40,0,0
66706,-133.333333333333,4,1,1,10,0,0
66885,-133.333333333333,4,1,1,40,0,0
67242,-133.333333333333,4,1,0,40,0,0
67421,-133.333333333333,4,1,1,40,0,0
70188,714.285714285714,4,1,1,40,1,0
70188,-100,4,1,1,40,0,0
80902,-100,4,1,1,60,0,1
80991,-100,4,1,1,40,0,0

[Colours]
Combo1 : 126,171,226
Combo2 : 193,74,116
Combo3 : 115,120,223
Combo4 : 119,187,165

[HitObjects]
164,312,189,5,2,0:0:0:0:
332,288,546,1,0,0:0:0:0:
332,152,1260,1,0,0:0:0:0:
332,152,1438,1,0,0:0:0:0:
256,184,1617,5,2,0:0:0:0:
88,160,1974,1,0,0:0:0:0:
172,59,2331,2,0,P|207:57|243:60,1,71.9999978027344
348,124,3046,5,2,0:0:0:0:
484,4,3403,1,0,0:0:0:0:
276,144,4831,6,0,L|273:114,2,30,2|0|0,0:2|0:0|0:0,0:0:0:0:
320,219,5188,2,0,P|311:248|295:273,1,60,0|2,0:0|0:2,0:0:0:0:
212,272,5546,1,0,0:0:0:0:
212,272,5903,6,0,P|152:288|76:284,1,120,4|0,0:3|0:0,0:0:0:0:
40,224,6438,1,4,0:3:0:0:
79,152,6617,2,0,P|84:122|80:92,1,60,8|0,0:0|0:0,0:0:0:0:
32,28,6974,1,0,0:0:0:0:
32,28,7153,1,0,0:0:0:0:
156,116,7331,6,0,L|236:104,1,60,4|0,0:3|0:0,0:0:0:0:
192,204,7688,2,0,L|132:213,1,60,0|4,0:0|0:3,0:0:0:0:
288,184,8046,2,0,L|406:163,1,120,8|0,0:0|0:0,0:0:0:0:
472,264,8581,1,0,0:0:0:0:
368,252,8760,6,0,L|300:264,1,60,4|0,0:3|0:0,0:0:0:0:
216,364,9117,1,0,0:0:0:0:
296,344,9296,1,4,0:3:0:0:
164,300,9474,2,0,P|145:259|136:215,1,90,8|0,0:0|0:0,0:0:0:0:
100,232,9831,2,0,P|75:214|56:191,1,60
194,104,10188,6,0,P|209:130|216:160,1,60,4|0,0:3|0:0,0:0:0:0:
316,88,10546,1,0,0:0:0:0:
248,40,10724,1,4,0:3:0:0:
167,23,10903,2,0,P|107:28|51:50,1,120,8|0,0:0|0:0,0:0:0:0:
36,148,11438,1,0,0:0:0:0:
100,232,11617,6,0,P|129:232|160:224,1,60,2|0,0:2|0:0,0:0:0:0:
56,312,11974,1,0,0:0:0:0:
152,307,12153,2,0,P|181:312|208:328,1,60,2|8,0:2|0:0,0:0:0:0:
288,348,12510,1,0,0:0:0:0:
352,292,12688,1,0,0:0:0:0:
332,212,12867,1,0,0:0:0:0:
252,184,13046,1,4,0:3:0:0:
356,168,13224,5,0,0:0:0:0:
300,104,13403,1,0,0:0:0:0:
332,28,13581,1,4,0:3:0:0:
408,8,13760,2,0,P|457:39|478:94,1,120,8|0,0:0|0:0,0:0:0:0:
431,175,14296,1,0,0:0:0:0:
431,175,14474,6,0,P|439:205|439:234,1,60,4|0,0:3|0:0,0:0:0:0:
372,284,14831,1,0,0:0:0:0:
292,260,15010,1,4,0:3:0:0:
212,283,15188,2,0,P|211:224|196:164,1,120,8|0,0:0|0:0,0:0:0:0:
136,108,15724,1,0,0:0:0:0:
232,48,15903,1,4,0:3:0:0:
236,52,16617,5,2,0:2:0:0:
236,52,16974,1,0,0:0:0:0:
92,36,17331,5,4,0:3:0:0:
68,116,17510,1,0,0:0:0:0:
108,188,17688,2,4,P|102:217|85:241,1,60,4|4,0:3|0:3,0:3:0:0:
192,164,18046,1,8,0:0:0:0:
192,247,18224,2,0,P|194:277|190:307,1,60
272,360,18581,1,0,0:0:0:0:
339,308,18760,6,4,P|343:278|340:248,1,60,4|4,0:3|0:3,0:3:0:0:
448,196,19117,1,0,0:0:0:0:
368,168,19296,1,4,0:3:0:0:
419,276,19474,2,0,P|439:298|463:316,1,60,8|0,0:0|0:0,0:0:0:0:
340,248,19831,1,0,0:0:0:0:
256,260,20010,1,0,0:0:0:0:
184,216,20188,6,0,P|165:192|140:176,1,60,4|0,0:3|0:0,0:0:0:0:
156,80,20546,2,0,P|211:103|272:112,1,120,2|8,0:2|0:0,0:0:0:0:
324,24,21081,1,2,0:2:0:0:
356,160,21260,2,0,P|360:189|356:219,1,60,2|0,0:2|0:0,0:0:0:0:
429,286,21617,6,0,P|438:257|440:228,2,60,4|0|0,0:3|0:0|0:0,0:0:0:0:
356,328,22153,1,4,0:3:0:0:
279,287,22331,2,0,P|220:280|162:292,1,120,8|0,0:0|0:0,0:0:0:0:
100,348,22867,1,0,0:0:0:0:
128,224,23046,6,0,P|121:196|120:160,1,60,2|0,0:2|0:0,0:0:0:0:
40,152,23403,1,0,0:0:0:0:
156,92,23581,1,2,0:2:0:0:
156,92,23760,2,0,P|206:61|265:62,1,120,8|0,0:0|0:0,0:0:0:0:
336,108,24296,1,0,0:0:0:0:
331,192,24474,6,0,P|313:215|288:232,1,60,4|0,0:3|0:0,0:0:0:0:
404,228,24831,2,0,P|446:242|474:276,1,90
480,314,25188,2,0,P|449:363|392:379,1,120,8|0,0:0|0:0,0:0:0:0:
332,296,25724,1,0,0:0:0:0:
239,367,25903,6,0,P|171:348|100:357,1,143.999995605469,4|0,0:3|0:0,0:0:0:0:
248,140,28760,5,4,1:0:0:0:
208,60,28938,1,0,0:0:0:0:
128,196,29117,2,0,P|130:261|164:320,1,132.00000402832,0|8,0:0|0:0,0:0:0:0:
252,344,29653,1,0,0:0:0:0:
320,280,29831,2,0,P|319:247|312:214,1,66.0000020141602
424,128,30188,5,4,0:3:0:0:
408,220,30367,1,0,0:0:0:0:
336,84,30546,2,0,P|280:65|200:60,1,132.00000402832,0|8,0:0|0:0,0:0:0:0:
112,104,31081,1,0,0:0:0:0:
112,104,31260,2,0,L|109:38,1,66.0000020141602
204,148,31617,6,0,L|206:213,1,66.0000020141602,4|0,0:3|0:0,0:0:0:0:
168,300,31974,1,0,0:0:0:0:
100,200,32153,2,0,L|93:69,1,132.00000402832,4|0,0:3|0:0,0:0:0:0:
39,271,32688,2,0,P|16:248|-11:231,1,66.0000020141602
126,311,33046,6,0,P|158:302|191:300,1,66.0000020141602,4|0,0:3|0:0,0:0:0:0:
224,308,33313,1,0,0:0:0:0:
256,320,33403,2,0,P|275:319|304:312,3,33.0000010070801,0|0|4|0,0:0|0:0|0:3|0:0,0:0:0:0:
319,303,33760,2,0,P|346:263|352:220,2,88.000002685547,8|8|8,0:0|0:0|0:0,0:0:0:0:
440,296,34474,6,0,P|471:303|500:320,1,66.0000020141602,4|0,0:3|0:0,0:0:0:0:
472,216,34831,2,0,P|475:150|507:93,1,132.00000402832,0|8,0:0|0:0,0:0:0:0:
508,8,35367,1,0,0:0:0:0:
408,108,35546,2,0,P|373:104|336:92,1,66.0000020141602
196,48,35903,6,0,P|226:30|257:24,1,66.0000020141602,4|0,0:3|0:0,0:0:0:0:
244,128,36260,1,0,0:0:0:0:
164,176,36438,1,4,0:3:0:0:
115,94,36617,2,0,P|107:63|109:30,2,66.0000020141602,8|0|0,0:0|0:0|0:0,0:0:0:0:
164,176,37153,1,0,0:0:0:0:
52,168,37331,6,0,P|23:151|2:126,1,66.0000020141602,4|0,0:3|0:0,0:0:0:0:
116,96,37688,1,0,0:0:0:0:
103,252,37867,2,0,P|113:316|143:375,1,132.00000402832,4|0,0:3|0:0,0:0:0:0:
235,355,38403,2,0,P|229:323|229:290,1,66.0000020141602
292,224,38760,5,4,0:3:0:0:
380,256,38938,1,0,0:0:0:0:
380,256,39028,1,0,0:0:0:0:
380,256,39117,2,0,L|392:300,3,33.0000010070801,0|0|4|0,0:0|0:0|0:3|0:0,0:0:0:0:
420,276,39474,2,0,P|416:210|425:145,1,132.00000402832,8|0,0:0|0:0,0:0:0:0:
512,128,40010,1,0,0:0:0:0:
336,104,40188,6,0,P|272:108|184:100,1,132.00000402832,4|0,0:0|0:2,0:0:0:0:
140,36,40724,1,2,0:2:0:0:
72,176,40903,2,0,P|104:181|137:184,1,66.0000020141602,8|0,0:0|0:0,0:0:0:0:
203,264,41260,2,0,P|172:272|139:275,1,66.0000020141602,2|0,0:2|0:0,0:0:0:0:
244,180,41617,6,0,P|312:172|384:192,1,132.00000402832,4|0,0:3|0:0,0:0:0:0:
464,188,42153,1,4,0:3:0:0:
368,280,42331,2,0,P|335:287|302:287,1,66.0000020141602,8|0,0:0|0:0,0:0:0:0:
439,336,42688,2,0,P|412:353|380:363,1,66.0000020141602
448,248,43046,5,4,0:3:0:0:
456,156,43224,1,0,0:0:0:0:
380,104,43403,1,2,0:2:0:0:
380,104,43581,1,2,0:2:0:0:
288,124,43760,2,0,P|262:117|222:115,1,66.0000020141602,8|0,0:0|0:0,0:0:0:0:
96,172,44117,2,0,P|127:185|160:188,1,66.0000020141602,2|0,0:2|0:0,0:0:0:0:
16,248,44474,6,0,P|14:281|20:320,1,66.0000020141602,4|8,0:3|0:3,0:0:0:0:
40,340,44742,1,0,0:0:0:0:
40,340,44831,1,8,0:3:0:0:
148,324,45010,1,12,0:3:0:0:
240,360,45188,2,0,P|305:357|392:360,1,132.00000402832,12|0,0:0|0:0,0:0:0:0:
464,336,45724,1,0,0:0:0:0:
332,279,45903,6,0,P|327:214|331:148,1,132.00000402832,4|0,0:3|0:0,0:0:0:0:
244,192,46438,1,2,0:2:0:0:
268,64,46617,2,0,L|333:56,1,66.0000020141602,8|0,0:0|0:0,0:0:0:0:
176,96,46974,2,0,L|108:84,1,66.0000020141602,2|0,0:2|0:0,0:0:0:0:
39,191,47331,6,0,P|88:236|151:251,1,132.00000402832,4|0,0:3|0:0,0:0:0:0:
260,280,47867,1,4,0:3:0:0:
300,152,48046,1,8,0:0:0:0:
300,152,48760,5,4,0:3:0:0:
364,40,48938,1,0,0:0:0:0:
388,128,49117,1,2,0:2:0:0:
276,64,49296,1,2,0:2:0:0:
187,35,49474,2,0,P|155:29|122:29,1,66.0000020141602,8|0,0:0|0:0,0:0:0:0:
276,64,49831,2,0,P|308:67|344:64,1,66.0000020141602,2|0,0:2|0:0,0:0:0:0:
280,184,50188,6,0,P|244:191|204:188,1,66.0000020141602,4|0,0:3|0:0,0:0:0:0:
184,176,50456,1,2,0:2:0:0:
184,176,50546,2,0,P|152:166|119:166,1,66.0000020141602,0|4,0:0|0:3,0:0:0:0:
87,176,50813,1,0,0:0:0:0:
87,176,50903,6,0,P|42:189|-5:185,1,96,8|0,0:0|0:0,0:0:0:0:
116,72,51617,6,0,P|142:69|176:72,1,60,4|0,0:3|0:0,0:0:0:0:
248,116,51974,1,0,0:0:0:0:
264,200,52153,1,4,0:3:0:0:
272,284,52331,2,0,P|330:290|385:266,1,120,8|0,0:0|0:0,0:0:0:0:
420,192,52867,1,0,0:0:0:0:
440,348,53046,6,0,P|411:355|381:357,1,60,4|0,0:3|0:0,0:0:0:0:
300,344,53403,2,0,P|270:340|240:341,1,60,0|4,0:0|0:3,0:0:0:0:
155,351,53760,1,8,0:0:0:0:
155,351,53938,2,0,P|114:309|103:251,1,120
159,167,54474,6,0,P|204:172|249:165,1,90.0000034332277,4|0,0:3|0:0,0:0:0:0:
320,188,55010,1,4,0:3:0:0:
260,240,55188,2,0,P|264:264|264:288,2,45.0000017166138,8|0|0,0:0|0:0|0:0,0:0:0:0:
136,219,55903,6,0,P|132:264|136:309,1,90.0000034332277,0|0,0:3|0:0,0:0:0:0:
80,364,56438,1,4,0:3:0:0:
60,288,56617,2,0,P|37:284|15:284,2,45.0000017166138,4|0|0,0:3|0:0|0:0,0:0:0:0:
220,259,57331,6,0,P|249:254|277:244,1,60,2|0,0:2|0:0,0:0:0:0:
348,200,57688,1,0,0:0:0:0:
200,168,57867,1,2,0:2:0:0:
200,168,58046,2,0,P|140:162|82:175,1,120,8|4,0:0|0:3,0:0:0:0:
52,252,58581,1,0,0:0:0:0:
28,96,58760,6,0,P|23:68|24:36,2,60,4|0|0,0:3|0:0|0:0,0:0:0:0:
8,184,59296,1,4,0:3:0:0:
108,91,59474,2,0,P|123:66|144:45,1,60,8|0,0:0|0:0,0:0:0:0:
233,124,59831,2,0,P|204:129|176:140,1,60
304,187,60188,6,0,P|344:170|372:135,1,90.0000034332277,4|0,0:0|0:0,0:0:0:0:
404,40,60724,1,0,0:0:0:0:
404,40,60903,1,0,0:0:0:0:
452,212,61260,1,0,0:0:0:0:
452,212,62688,5,2,0:2:0:0:
276,216,63046,6,0,P|232:255|172:263,1,120
264,360,63581,1,4,0:3:0:0:
264,360,63760,2,0,P|235:367|203:368,1,60,8|0,0:0|0:0,0:0:0:0:
344,328,64117,2,0,P|376:328|416:336,1,60
464,268,64474,6,0,L|460:208,1,60,4|0,0:3|0:0,0:0:0:0:
376,140,64831,2,0,L|379:199,1,60,0|4,0:0|0:3,0:0:0:0:
304,72,65188,2,0,P|248:84|160:88,1,120,8|0,0:0|0:0,0:0:0:0:
236,168,65724,1,0,0:0:0:0:
111,140,65903,6,0,P|97:182|94:227,1,90.0000034332277,4|0,0:3|0:0,0:0:0:0:
52,300,66438,1,4,0:3:0:0:
152,288,66617,2,0,P|196:287|240:297,1,90.0000034332277,8|0,0:0|0:0,0:0:0:0:
312,152,67331,5,4,0:0:0:0:
207,64,70188,6,0,P|235:53|265:48,1,60,4|0,0:3|0:0,0:0:0:0:
348,72,70545,1,0,0:0:0:0:
424,40,70723,1,4,0:3:0:0:
388,144,70902,2,0,P|383:203|358:257,1,120,8|0,0:0|0:0,0:0:0:0:
280,284,71438,1,0,0:0:0:0:
340,336,71616,5,4,0:3:0:0:
220,339,71795,2,0,P|190:343|160:342,1,60
80,296,72152,1,4,0:3:0:0:
80,296,72241,1,0,0:2:0:0:
80,295,72330,2,0,P|48:296|20:301,2,60,8|0|0,0:0|0:0|0:0,0:0:0:0:
140,236,72866,1,0,0:0:0:0:
200,164,73045,6,0,P|259:171|324:168,1,120,4|0,0:3|0:0,0:0:0:0:
388,224,73580,1,4,0:3:0:0:
368,104,73759,2,0,P|397:97|427:95,1,60,8|0,0:0|0:0,0:0:0:0:
308,44,74116,2,0,P|278:41|248:43,1,60
184,112,74473,6,0,L|56:88,1,120,4|0,0:3|0:0,0:0:0:0:
12,156,75009,1,4,0:3:0:0:
64,220,75188,2,0,L|123:216,2,60,8|0|0,0:0|0:0|0:0,0:0:0:0:
28,320,75723,1,0,0:0:0:0:
136,300,75902,6,0,P|165:305|192:317,1,60,2|0,0:2|0:0,0:0:0:0:
320,292,76259,1,0,0:0:0:0:
320,292,76438,1,2,0:2:0:0:
280,191,76616,2,0,P|225:167|166:165,1,120,8|0,0:0|0:0,0:0:0:0:
296,108,77152,5,0,0:0:0:0:
296,108,77330,2,0,L|288:32,1,60,2|0,0:2|0:0,0:0:0:0:
380,160,77688,2,0,L|376:232,1,60,0|2,0:0|0:2,0:0:0:0:
272,300,78045,2,0,P|213:313|155:301,1,120,8|2,0:0|0:2,0:0:0:0:
84,200,78580,1,0,0:0:0:0:
68,344,78759,5,4,0:3:0:0:
68,344,80188,5,4,0:3:0:0:
200,364,80545,1,4,0:3:0:0:
32,220,80902,1,4,0:3:0:0:
