osu file format v14

[General]
AudioFilename: audio.mp3
AudioLeadIn: 0
PreviewTime: 4474
Countdown: 0
SampleSet: Soft
StackLeniency: 0.7
Mode: 0
LetterboxInBreaks: 0
WidescreenStoryboard: 0

[Editor]
Bookmarks: 51612,67331,80902
DistanceSpacing: 1.3
BeatDivisor: 4
GridSize: 4
TimelineZoom: 1.099999

[Metadata]
Title:Poshli vy v zhopu!
TitleUnicode:Пошли вы в жопу!
Artist:Bianka AKA Kralya
ArtistUnicode:Бьянка АКА Краля
Creator:Sieg
Version:Nelly's Easy
Source:
Tags:hip-hop rap russian bakari ticclick marmowka fcl namki shmiklak wajinshu refaller nelly хейтеры-хуейтеры
BeatmapID:1008173
BeatmapSetID:454827

[Difficulty]
HPDrainRate:2
CircleSize:3
OverallDifficulty:2
ApproachRate:3.5
SliderMultiplier:1.3
SliderTickRate:2

[Events]
//Background and Video events
0,0,"peezdyukee-avtoreetety.jpg",0,0
//Break Periods
2,51817,55951
//Storyboard Layer 0 (Background)
//Storyboard Layer 1 (Fail)
//Storyboard Layer 2 (Pass)
//Storyboard Layer 3 (Foreground)
//Storyboard Sound Samples

[TimingPoints]
189,714.285714285714,4,2,1,30,1,0
4831,-100,4,2,1,60,0,0
5903,-100,4,2,1,60,0,0
28760,-100,4,2,1,80,0,1
40144,-100,4,2,1,80,0,0
40188,-100,4,2,1,80,0,1
51617,-100,4,2,1,60,0,0
70188,714.285714285714,4,2,1,60,1,0
70188,-100,4,2,1,60,0,0

[Colours]
Combo1 : 126,171,226
Combo2 : 193,74,116
Combo3 : 115,120,223
Combo4 : 119,187,165

[HitObjects]
30,231,189,6,0,B|30:263|-2:295|-2:295|30:295|30:359|126:359|190:295,1,260,2|0,0:0|0:0,0:0:0:0:
374,84,3046,2,0,B|342:52|358:20|358:20|302:52|246:-12|174:60,1,260,2|0,0:0|0:0,0:0:0:0:
448,224,5903,6,0,P|379:341|269:308,1,260,2|0,0:0|0:0,0:0:0:0:
132,232,8046,1,8,0:0:0:0:
296,184,8760,2,0,P|336:168|427:186,2,130,2|8|0,0:0|0:0|0:0,0:0:0:0:
132,232,10903,1,8,0:0:0:0:
244,104,11617,6,0,P|352:100|364:236,1,260,2|0,0:0|0:0,0:0:0:0:
220,304,13760,1,8,0:0:0:0:
164,144,14474,2,0,P|114:82|54:71,2,130,2|8|0,0:0|0:0|0:0,0:0:0:0:
396,325,17331,6,0,P|440:258|446:193,2,130,2|8|0,0:0|0:0|0:0,0:0:0:0:
287,195,19474,1,8,0:0:0:0:
192,335,20188,2,0,P|116:359|52:347,2,130,2|8|0,0:0|0:0|0:0,0:0:0:0:
64,224,22331,1,8,0:0:0:0:
164,88,23046,6,0,B|228:56|257:0|257:0|292:56|352:85,1,260,2|0,0:0|0:0,0:0:0:0:
256,225,25188,1,8,0:0:0:0:
413,163,25903,2,0,P|445:227|413:291,2,130,2|8|0,0:0|0:0|0:0,0:0:0:0:
138,79,28760,6,0,P|75:111|69:181,1,130,2|8,0:0|0:0,0:0:0:0:
229,199,30188,2,0,L|261:327,1,130,0|8,0:0|0:0,0:0:0:0:
415,260,31617,2,0,P|479:228|479:164,1,130,0|8,0:0|0:0,0:0:0:0:
400,32,33046,2,0,P|336:64|336:128,1,130,0|8,0:0|0:0,0:0:0:0:
186,28,34474,5,2,0:0:0:0:
67,147,35188,1,8,0:0:0:0:
229,99,35903,1,0,0:0:0:0:
106,218,36617,1,8,0:0:0:0:
271,185,37331,2,0,P|327:129|391:113,1,130,2|8,0:0|0:0,0:0:0:0:
385,282,38760,2,0,P|460:258|524:274,1,130,0|8,0:0|0:0,0:0:0:0:
369,362,40188,6,0,L|294:357,1,65,2|0,0:0|0:0,0:0:0:0:
239,303,40903,2,0,P|195:287|153:296,1,65,8|0,0:0|0:0,0:0:0:0:
99,320,41617,2,0,P|60:257|56:182,1,130,0|8,0:0|0:0,0:0:0:0:
121,47,43046,2,0,P|159:32|207:42,1,65,2|0,0:0|0:0,0:0:0:0:
254,75,43760,2,0,L|341:69,1,65,8|0,0:0|0:0,0:0:0:0:
397,39,44474,2,0,P|434:91|444:161,1,130,0|8,0:0|0:0,0:0:0:0:
444,324,45903,6,0,P|400:336|364:328,1,65
304,300,46617,2,0,P|260:288|228:292,1,65,8|0,0:0|0:0,0:0:0:0:
156,296,47331,2,0,L|191:167,1,130,0|8,0:0|0:0,0:0:0:0:
256,192,48760,12,4,51617,0:0:0:0:
388,56,57331,6,0,L|424:204,1,130,2|8,0:0|0:0,0:0:0:0:
335,335,58760,2,0,L|299:187,1,130,0|8,0:0|0:0,0:0:0:0:
228,56,60188,2,0,B|156:32|120:60|88:24|88:24|40:68|48:124,1,260
324,329,63046,6,0,L|468:293,1,130,2|8,0:0|0:0,0:0:0:0:
356,156,64474,2,0,L|212:192,1,130,0|8,0:0|0:0,0:0:0:0:
116,60,65903,2,0,L|260:24,1,130,0|8,0:0|0:0,0:0:0:0:
408,56,67331,1,0,0:0:0:0:
432,64,70188,6,0,P|468:120|452:184,1,130,2|8,0:0|0:0,0:0:0:0:
336,296,71616,2,0,P|300:240|316:175,1,130,0|8,0:0|0:0,0:0:0:0:
188,64,73045,2,0,P|124:43|66:75,1,130,0|8,0:0|0:0,0:0:0:0:
60,236,74473,2,0,P|123:256|181:224,1,130,0|8,0:0|0:0,0:0:0:0:
280,56,75902,6,0,L|408:20,1,130,2|8,0:0|0:0,0:0:0:0:
348,180,77330,2,0,L|220:215,1,130,0|8,0:0|0:0,0:0:0:0:
256,192,78759,12,0,80902,0:0:0:0:
