osu file format v14

[General]
AudioFilename: audio.mp3
AudioLeadIn: 0
PreviewTime: 4474
Countdown: 0
SampleSet: Soft
StackLeniency: 0.7
Mode: 0
LetterboxInBreaks: 0
WidescreenStoryboard: 0

[Editor]
Bookmarks: 51612
DistanceSpacing: 1.3
BeatDivisor: 4
GridSize: 4
TimelineZoom: 1.099999

[Metadata]
Title:Poshli vy v zhopu!
TitleUnicode:Пошли вы в жопу!
Artist:Bianka AKA Kralya
ArtistUnicode:Бьянка АКА Краля
Creator:Sieg
Version:Marmo's Normal
Source:
Tags:hip-hop rap russian bakari ticclick marmowka fcl namki shmiklak wajinshu refaller nelly хейтеры-хуейтеры
BeatmapID:976890
BeatmapSetID:454827

[Difficulty]
HPDrainRate:3
CircleSize:3
OverallDifficulty:3
ApproachRate:4
SliderMultiplier:1.3
SliderTickRate:2

[Events]
//Background and Video events
0,0,"peezdyukee-avtoreetety.jpg",0,0
//Break Periods
//Storyboard Layer 0 (Background)
//Storyboard Layer 1 (Fail)
//Storyboard Layer 2 (Pass)
//Storyboard Layer 3 (Foreground)
//Storyboard Sound Samples

[TimingPoints]
189,714.285714285714,4,2,1,30,1,0
4831,-100,4,2,1,60,0,0
5903,-100,4,2,1,60,0,0
28760,-100,4,2,1,80,0,1
40144,-100,4,2,1,80,0,0
40188,-100,4,2,1,80,0,1
51617,-100,4,2,1,60,0,0
70188,714.285714285714,4,2,1,60,1,0
70188,-100,4,2,1,60,0,0

[Colours]
Combo1 : 126,171,226
Combo2 : 193,74,116
Combo3 : 115,120,223
Combo4 : 119,187,165

[HitObjects]
446,286,189,6,0,B|466:225|466:225|446:163,1,130,2|0,0:0|0:0,0:0:0:0:
380,109,1260,1,0,0:0:0:0:
308,154,1617,2,0,B|245:171|245:171|184:152,1,130,2|0,0:0|0:0,0:0:0:0:
64,271,3046,6,0,B|129:263|129:263|208:296,1,130,2|0,0:0|0:0,0:0:0:0:
449,236,4831,1,2,0:2:0:0:
449,236,5188,2,0,P|420:244|384:234,1,65,0|0,0:0|0:0,0:0:0:0:
321,182,5903,6,0,P|259:158|193:191,1,130,4|8,0:3|0:0,0:0:0:0:
158,252,6974,1,0,0:0:0:0:
105,186,7331,2,0,L|103:106,1,65,4|0,0:3|0:0,0:0:0:0:
20,103,8046,2,0,L|21:168,1,65,8|0,0:0|0:0,0:0:0:0:
32,251,8760,5,4,0:3:0:0:
92,310,9117,1,0,0:0:0:0:
174,327,9474,2,0,L|266:326,1,65,8|0,0:0|0:0,0:0:0:0:
320,305,10188,2,0,P|381:249|375:189,1,130,4|8,0:3|0:0,0:0:0:0:
309,162,11260,1,0,0:0:0:0:
232,123,11617,6,0,L|155:124,2,65,2|0|8,0:2|0:0|0:0,0:0:0:0:
300,72,12688,1,0,0:0:0:0:
376,109,13046,2,0,P|401:134|411:174,1,65,4|0,0:3|0:0,0:0:0:0:
419,245,13760,2,0,P|407:275|384:297,1,65,8|0,0:0|0:0,0:0:0:0:
305,328,14474,6,0,L|231:329,1,65,4|0,0:3|0:0,0:0:0:0:
171,279,15188,1,8,0:0:0:0:
153,196,15546,1,0,0:0:0:0:
185,118,15903,2,0,P|265:105|234:179,1,195,4|0,0:3|0:0,0:0:0:0:
153,196,17331,6,4,L|71:195,1,65,4|4,0:3|0:3,0:0:0:0:
26,137,18046,2,4,B|40:105|30:73|30:73|70:69|100:50,1,130,8|4,0:0|0:3,0:0:0:0:
166,94,19117,1,0,0:0:0:0:
245,64,19474,2,0,L|324:64,1,65,8|0,0:0|0:0,0:0:0:0:
379,111,20188,6,0,L|382:193,1,65,4|2,0:3|0:2,0:0:0:0:
386,260,20903,2,0,P|448:228|458:149,2,130,8|4|8,0:0|0:3|0:0,0:0:0:0:
309,225,22688,1,0,0:0:0:0:
244,280,23046,6,0,L|240:361,2,65,2|0|8,0:2|0:0|0:0,0:0:0:0:
181,223,24117,1,0,0:0:0:0:
108,266,24474,2,0,B|76:258|76:258|45:265|45:265|35:233|35:233|47:202,1,130,4|8,0:3|0:0,0:0:0:0:
89,130,25546,1,0,0:0:0:0:
159,82,25903,2,0,B|233:58|276:116|276:116|310:95|359:107,1,195,4|0,0:3|0:0,0:0:0:0:
104,256,28760,6,0,P|79:197|101:137,1,130,4|8,1:0|0:0,0:0:0:0:
166,84,29831,1,0,0:0:0:0:
247,60,30188,2,0,L|311:60,2,65,4|0|8,0:3|0:0|0:0,0:0:0:0:
166,84,31260,1,0,0:0:0:0:
185,166,31617,6,0,P|182:244|229:300,1,130,4|8,0:3|0:0,0:0:0:0:
284,322,32688,1,0,0:0:0:0:
368,324,33046,1,4,0:3:0:0:
440,280,33403,1,0,0:0:0:0:
466,199,33760,2,0,L|466:125,1,65,8|0,0:0|0:0,0:0:0:0:
423,60,34474,6,0,P|362:35|292:73,1,130,4|8,0:3|0:0,0:0:0:0:
259,128,35545,1,0,0:0:0:0:
309,196,35903,2,0,P|328:263|305:321,1,130,4|8,0:3|0:0,0:0:0:0:
228,344,36974,1,0,0:0:0:0:
161,291,37331,6,0,L|161:200,2,65,4|0|8,0:3|0:0|0:0,0:0:0:0:
95,344,38402,1,0,0:0:0:0:
37,281,38760,2,0,B|25:248|25:248|39:142,1,130,4|8,0:3|0:0,0:0:0:0:
84,83,39831,1,0,0:0:0:0:
165,60,40188,6,0,L|232:59,1,65,4|0,0:0|0:2,0:0:0:0:
299,107,40903,2,0,B|336:105|364:121|364:121|390:104|428:108,2,130,8|4|8,0:0|0:3|0:0,0:0:0:0:
229,154,42688,1,0,0:0:0:0:
170,92,43046,6,0,B|83:96,1,65,4|0,0:3|0:0,0:0:0:0:
71,172,43760,2,0,P|88:245|140:276,1,130,8|4,0:0|0:3,0:0:0:0:
215,266,44831,2,0,L|217:338,2,65,8|12|0,0:3|0:0|0:0,0:0:0:0:
262,196,45903,6,0,L|260:119,1,65,4|0,0:3|0:0,0:0:0:0:
310,63,46617,2,0,P|367:48|437:90,2,130,8|4|8,0:0|0:3|0:0,0:0:0:0:
363,133,48403,1,0,0:0:0:0:
420,195,48760,6,0,L|503:188,1,65,4|0,0:3|0:0,0:0:0:0:
505,271,49474,2,0,P|473:322|390:326,1,130,8|4,0:0|0:3,0:0:0:0:
362,263,50546,2,0,P|296:242|240:269,1,130
187,329,51617,6,0,P|160:270|189:200,1,130,4|8,0:3|0:0,0:0:0:0:
224,139,52688,1,0,0:0:0:0:
191,61,53046,2,0,L|109:62,1,65,4|0,0:3|0:0,0:0:0:0:
61,115,53760,2,0,L|60:185,1,65,8|0,0:0|0:0,0:0:0:0:
66,263,54474,5,4,0:3:0:0:
130,317,54831,1,0,0:0:0:0:
210,290,55188,2,0,L|291:289,1,65,8|0,0:0|0:0,0:0:0:0:
350,250,55903,2,0,L|453:251,2,97.5,0|4|0,0:3|0:3|0:0,0:0:0:0:
281,201,57331,6,0,L|203:200,2,65,2|0|8,0:2|0:0|0:0,0:0:0:0:
299,118,58402,1,4,0:3:0:0:
264,40,58760,2,0,L|181:40,1,65,4|0,0:3|0:0,0:0:0:0:
140,100,59474,2,0,P|131:137|150:178,1,65,8|0,0:0|0:0,0:0:0:0:
216,200,60188,6,0,L|219:273,1,65,4|0,0:0|0:0,0:0:0:0:
268,333,60902,1,0,0:0:0:0:
349,309,61260,1,0,0:0:0:0:
429,336,61617,2,0,P|422:268|311:232,1,195,0|2,0:0|0:2,0:0:0:0:
249,176,63045,6,0,L|246:96,1,65,4|0,0:3|0:0,0:0:0:0:
239,26,63760,2,0,P|183:51|166:136,1,130,8|4,0:0|0:3,0:0:0:0:
173,195,64831,1,0,0:0:0:0:
248,232,65188,2,0,L|331:229,1,65,8|0,0:0|0:0,0:0:0:0:
386,187,65903,5,4,0:3:0:0:
398,103,66260,2,0,L|400:28,2,65,0|8|0,0:0|0:0|0:0,0:0:0:0:
313,104,67331,2,0,P|215:114|217:257,1,260,4|0,0:0|0:0,0:0:0:0:
210,252,70188,6,0,L|340:248,1,130,4|8,0:3|0:0,0:0:0:0:
416,213,71259,1,0,0:0:0:0:
455,138,71616,2,0,L|453:65,1,65,4|0,0:3|0:0,0:0:0:0:
371,53,72330,2,0,L|372:129,1,65,8|0,0:0|0:0,0:0:0:0:
300,163,73045,6,0,L|166:164,1,130,4|8,0:3|0:0,0:0:0:0:
112,102,74116,1,0,0:0:0:0:
47,156,74473,2,0,L|45:294,1,130,4|8,0:3|0:0,0:0:0:0:
110,340,75545,1,0,0:0:0:0:
179,291,75902,5,2,0:2:0:0:
252,249,76259,2,0,L|327:254,2,65,0|8|0,0:0|0:0|0:0,0:0:0:0:
182,201,77330,1,2,0:2:0:0:
111,154,77688,2,0,L|37:157,2,65,0|8|2,0:0|0:0|0:2,0:0:0:0:
175,99,78759,5,4,0:3:0:0:
291,257,80188,1,4,0:3:0:0:
206,263,80545,1,4,0:3:0:0:
244,187,80902,1,4,0:3:0:0:
