osu file format v14

[General]
AudioFilename: audio.mp3
AudioLeadIn: 0
PreviewTime: 4474
Countdown: 0
SampleSet: Soft
StackLeniency: 0.7
Mode: 0
LetterboxInBreaks: 0
WidescreenStoryboard: 0

[Editor]
Bookmarks: 184,5898,17326,28755,40183,51612,63041,67326,70183,80897
DistanceSpacing: 1.7
BeatDivisor: 8
GridSize: 4
TimelineZoom: 1.099999

[Metadata]
Title:Poshli vy v zhopu!
TitleUnicode:Пошли вы в жопу!
Artist:Bianka AKA Kralya
ArtistUnicode:Бьянка АКА Краля
Creator:Sieg
Version:Bakari's Insane
Source:
Tags:hip-hop rap russian bakari ticclick marmowka fcl namki shmiklak wajinshu refaller nelly хейтеры-хуейтеры
BeatmapID:975745
BeatmapSetID:454827

[Difficulty]
HPDrainRate:7
CircleSize:4.3
OverallDifficulty:7.5
ApproachRate:9
SliderMultiplier:2.6
SliderTickRate:4

[Events]
//Background and Video events
0,0,"peezdyukee-avtoreetety.jpg",0,0
//Break Periods
2,67531,69588
//Storyboard Layer 0 (Background)
//Storyboard Layer 1 (Fail)
//Storyboard Layer 2 (Pass)
//Storyboard Layer 3 (Foreground)
//Storyboard Sound Samples

[TimingPoints]
189,714.285714285714,4,2,1,30,1,0
4831,-100,4,2,1,60,0,0
5903,-100,4,2,1,60,0,0
28760,-83.3333333333333,4,2,1,80,0,1
40144,-100,4,2,1,80,0,0
40188,-83.3333333333333,4,2,1,80,0,1
51617,-100,4,2,1,60,0,0
70188,714.285714285714,4,2,1,60,1,0
70188,-100,4,2,1,60,0,0

[Colours]
Combo1 : 126,171,226
Combo2 : 193,74,116
Combo3 : 115,120,223
Combo4 : 119,187,165

[HitObjects]
128,320,189,5,2,0:0:0:0:
124,304,546,1,0,0:0:0:0:
168,128,1260,5,0,0:0:0:0:
248,156,1438,1,0,0:0:0:0:
232,72,1617,1,2,0:0:0:0:
226,80,1974,1,0,0:0:0:0:
492,152,3046,5,2,0:0:0:0:
488,140,3403,1,0,0:0:0:0:
336,268,4831,6,0,P|332:288|336:336,1,65,2|0,0:2|0:0,0:0:0:0:
412,368,5188,1,0,0:0:0:0:
412,284,5367,1,2,0:2:0:0:
420,200,5546,1,0,0:0:0:0:
444,120,5724,1,0,0:0:0:0:
492,52,5903,6,0,P|460:28|444:4,1,65,4|0,0:3|0:0,0:0:0:0:
284,72,6260,1,0,0:0:0:0:
364,48,6438,1,4,0:3:0:0:
288,156,6617,2,0,P|272:152|220:120,1,65,8|0,0:0|0:0,0:0:0:0:
188,56,6974,1,0,0:0:0:0:
144,128,7153,1,0,0:0:0:0:
20,160,7331,5,4,0:3:0:0:
76,224,7510,1,0,0:0:0:0:
120,296,7688,1,0,0:0:0:0:
128,380,7867,1,4,0:3:0:0:
248,288,8046,2,0,P|288:280|336:280,1,65,8|0,0:0|0:0,0:0:0:0:
396,176,8403,2,0,P|368:176|316:168,1,65,0|0,0:0|0:0,0:0:0:0:
232,80,8760,5,4,0:3:0:0:
288,16,8938,1,0,0:0:0:0:
316,96,9117,1,0,0:0:0:0:
256,156,9296,1,4,0:3:0:0:
200,220,9474,2,0,P|176:264|168:364,1,130,8|0,0:0|0:0,0:0:0:0:
168,352,10010,1,0,0:0:0:0:
84,276,10188,6,0,L|20:264,1,65,4|0,0:3|0:0,0:0:0:0:
4,168,10546,1,0,0:0:0:0:
84,192,10724,1,4,0:3:0:0:
176,128,10903,2,0,P|176:104|160:52,1,65,8|0,0:0|0:0,0:0:0:0:
304,16,11260,2,0,P|288:40|272:76,1,65,0|0,0:0|0:0,0:0:0:0:
360,200,11617,5,2,0:2:0:0:
368,116,11796,1,0,0:0:0:0:
280,312,12153,1,2,0:2:0:0:
268,228,12331,1,8,0:0:0:0:
120,148,12688,1,0,0:0:0:0:
88,228,12867,1,0,0:0:0:0:
176,328,13046,6,0,P|184:308|192:252,1,65,4|0,0:3|0:0,0:0:0:0:
268,228,13403,2,0,P|300:236|344:244,1,65,0|4,0:0|0:3,0:0:0:0:
404,200,13760,2,0,P|416:160|408:72,1,130,8|0,0:0|0:0,0:0:0:0:
180,40,14474,5,4,0:3:0:0:
201,114,14653,1,0,0:0:0:0:
275,93,14831,1,0,0:0:0:0:
253,17,15010,1,4,0:3:0:0:
160,84,15188,2,0,P|140:112|120:172,1,65,8|0,0:0|0:0,0:0:0:0:
244,132,15546,2,0,P|272:156|312:176,1,65,0|0,0:0|0:0,0:0:0:0:
440,116,15903,6,0,P|440:88|432:36,2,65,4|0|0,0:3|0:0|0:0,0:0:0:0:
380,168,16438,1,0,0:0:0:0:
500,236,16617,1,2,0:2:0:0:
492,228,16974,1,0,0:0:0:0:
400,356,17331,6,0,L|320:348,1,65,4|0,0:3|0:0,0:0:0:0:
260,376,17688,1,4,0:3:0:0:
256,296,17867,1,4,0:3:0:0:
156,208,18046,1,8,0:0:0:0:
220,164,18224,1,0,0:0:0:0:
284,116,18403,1,0,0:0:0:0:
280,104,18581,1,0,0:0:0:0:
324,216,18760,6,4,P|360:204|388:180,1,65,4|4,0:3|0:3,0:0:0:0:
264,272,19117,2,0,P|260:304|264:348,1,65,0|4,0:0|0:3,0:0:0:0:
416,336,19474,1,8,0:0:0:0:
352,292,19653,1,0,0:0:0:0:
416,336,19831,1,0,0:0:0:0:
476,288,20010,1,0,0:0:0:0:
360,128,20188,6,0,P|344:168|336:224,1,65,4|0,0:3|0:0,0:0:0:0:
216,292,20546,2,0,L|204:200,1,65,2|0,0:2|0:0,0:0:0:0:
108,128,20903,2,0,P|96:156|64:196,1,65,8|2,0:0|0:2,0:0:0:0:
4,216,21260,1,2,0:2:0:0:
4,208,21438,1,0,0:0:0:0:
56,316,21617,5,4,0:3:0:0:
132,304,21796,1,0,0:0:0:0:
208,296,21974,1,0,0:0:0:0:
324,360,22153,1,4,0:3:0:0:
252,208,22331,2,0,P|248:168|248:124,1,65,8|0,0:0|0:0,0:0:0:0:
300,60,22688,1,0,0:0:0:0:
308,72,22867,1,0,0:0:0:0:
156,26,23046,6,0,L|88:14,1,65,2|0,0:2|0:0,0:0:0:0:
75,220,23581,2,0,L|7:228,1,65,2|8,0:2|0:0,0:0:0:0:
244,308,24117,2,0,P|272:272|288:236,1,65
216,68,24474,6,0,P|216:116|224:140,1,65,4|0,0:3|0:0,0:0:0:0:
348,168,24831,1,0,0:0:0:0:
368,92,25010,1,0,0:0:0:0:
456,208,25188,2,0,L|452:296,2,65,8|0|0,0:0|0:0|0:0,0:0:0:0:
280,312,25903,6,0,P|308:336|352:356,1,65,4|0,0:3|0:0,0:0:0:0:
263,249,26260,2,0,P|270:280|280:312,1,65,0|0,0:0|0:0,0:0:0:0:
196,200,26617,2,0,P|135:241|60:234,1,130
20,92,28760,6,0,P|24:108|32:180,1,77.999997619629,4|0,1:0|0:0,0:0:0:0:
4,280,29117,1,0,0:0:0:0:
92,228,29296,1,0,0:0:0:0:
156,304,29474,2,0,P|128:316|76:316,1,77.999997619629,8|0,0:0|0:0,0:0:0:0:
228,348,29831,1,0,0:0:0:0:
248,248,30010,1,0,0:0:0:0:
356,320,30188,6,0,P|392:336|448:340,1,77.999997619629,4|0,0:3|0:0,0:0:0:0:
352,200,30546,2,0,P|368:224|416:264,1,77.999997619629,0|0,0:0|0:0,0:0:0:0:
408,32,30903,2,0,P|404:112|428:184,1,155.999995239258,8|0,0:0|0:0,0:0:0:0:
504,252,31438,1,0,0:0:0:0:
336,356,31617,6,0,P|276:336|244:332,1,77.999997619629,4|0,0:3|0:0,0:0:0:0:
248,192,31974,2,0,P|288:232|304:284,1,77.999997619629,0|4,0:0|0:3,0:0:0:0:
172,364,32331,1,8,0:0:0:0:
144,264,32510,1,0,0:0:0:0:
304,150,32688,1,0,0:0:0:0:
296,250,32867,1,0,0:0:0:0:
152,112,33046,2,0,P|136:84|128:24,1,77.999997619629,4|0,0:3|0:0,0:0:0:0:
236,132,33403,5,0,0:0:0:0:
60,224,33581,1,4,0:3:0:0:
208,204,33760,1,8,0:0:0:0:
200,44,33938,1,0,0:0:0:0:
132,216,34117,1,0,0:0:0:0:
68,364,34296,1,0,0:0:0:0:
200,292,34474,6,0,P|216:312|248:372,1,77.999997619629,4|0,0:3|0:0,0:0:0:0:
122,299,34831,2,0,L|200:292,1,77.999997619629,0|0,0:0|0:0,0:0:0:0:
292,132,35188,1,8,0:0:0:0:
260,220,35367,1,0,0:0:0:0:
224,92,35546,1,0,0:0:0:0:
340,200,35724,1,0,0:0:0:0:
160,176,35903,6,0,P|140:200|112:264,1,77.999997619629,4|0,0:3|0:0,0:0:0:0:
268,352,36260,1,0,0:0:0:0:
216,276,36438,1,4,0:3:0:0:
332,304,36617,2,0,P|368:272|400:236,1,77.999997619629,8|0,0:0|0:0,0:0:0:0:
368,112,36974,1,0,0:0:0:0:
332,200,37153,1,0,0:0:0:0:
448,88,37331,6,0,L|440:8,1,77.999997619629,4|0,0:3|0:0,0:0:0:0:
500,228,37688,2,0,L|489:138,1,77.999997619629,0|4,0:0|0:3,0:0:0:0:
424,288,38046,1,8,0:0:0:0:
412,280,38224,1,0,0:0:0:0:
316,352,38403,1,0,0:0:0:0:
304,240,38581,1,0,0:0:0:0:
172,340,38760,6,0,P|148:352|80:360,1,77.999997619629,4|0,0:3|0:0,0:0:0:0:
12,204,39117,1,0,0:0:0:0:
92,256,39296,1,4,0:3:0:0:
188,128,39474,2,0,B|268:108|348:88|348:88|292:152,1,233.999992858887,8|0,0:0|0:0,0:0:0:0:
92,136,40188,5,4,0:0:0:0:
132,52,40367,1,0,0:0:0:0:
128,240,40546,1,0,0:2:0:0:
40,204,40724,1,2,0:2:0:0:
84,124,40903,1,8,0:0:0:0:
124,40,41082,1,0,0:0:0:0:
120,228,41261,1,2,0:2:0:0:
32,192,41439,1,0,0:0:0:0:
128,224,41617,6,0,P|100:264|72:372,1,155.999995239258,4|0,0:3|0:0,0:0:0:0:
160,336,42153,1,4,0:3:0:0:
16,220,42331,2,0,P|16:184|24:120,1,77.999997619629,8|0,0:0|0:0,0:0:0:0:
128,16,42688,1,0,0:0:0:0:
164,104,42867,1,0,0:0:0:0:
76,72,43046,6,0,P|80:96|84:168,1,77.999997619629,4|0,0:3|0:0,0:0:0:0:
20,288,43403,1,2,0:2:0:0:
12,196,43581,1,2,0:2:0:0:
68,356,43760,2,0,L|152:344,1,77.999997619629,8|0,0:0|0:0,0:0:0:0:
236,360,44117,2,0,L|320:348,1,77.999997619629,2|0,0:2|0:0,0:0:0:0:
404,380,44474,1,4,0:3:0:0:
400,368,44831,6,0,P|396:332|400:276,1,77.999997619629,8|12,0:3|0:3,0:0:0:0:
456,152,45188,2,0,P|464:184|460:248,1,77.999997619629,12|0,0:0|0:0,0:0:0:0:
375,111,45546,1,0,0:0:0:0:
188,336,45903,5,4,0:3:0:0:
108,288,46081,1,0,0:0:0:0:
60,208,46260,1,0,0:0:0:0:
56,116,46438,1,2,0:2:0:0:
200,320,46617,2,0,P|168:336|96:348,1,77.999997619629,8|0,0:0|0:0,0:0:0:0:
56,224,46974,2,0,P|20:192|-12:148,1,77.999997619629,2|0,0:2|0:0,0:0:0:0:
120,40,47331,6,0,P|96:72|56:112,1,77.999997619629,4|0,0:3|0:0,0:0:0:0:
196,232,47688,2,0,P|156:252|100:256,1,77.999997619629,0|4,0:0|0:3,0:0:0:0:
224,80,48046,1,8,0:0:0:0:
232,88,48760,6,0,P|276:96|332:84,1,77.999997619629,4|0,0:3|0:0,0:0:0:0:
384,32,49117,1,2,0:2:0:0:
448,192,49296,1,2,0:2:0:0:
388,120,49474,2,0,L|476:108,1,77.999997619629,8|0,0:0|0:0,0:0:0:0:
268,216,49831,2,0,L|361:203,1,77.999997619629,2|0,0:2|0:0,0:0:0:0:
208,292,50188,1,4,0:3:0:0:
228,135,50367,5,0,0:0:0:0:
207,92,50456,1,2,0:2:0:0:
163,73,50546,1,0,0:0:0:0:
117,84,50635,1,0,0:0:0:0:
91,122,50724,1,4,0:3:0:0:
95,168,50813,1,0,0:0:0:0:
129,200,50903,2,0,P|153:204|182:190,1,38.9999988098145,8|0,0:0|0:0,0:0:0:0:
61,234,51081,2,0,P|61:254|73:290,1,38.9999988098145
169,273,51260,1,0,0:0:0:0:
20,164,51438,1,0,0:0:0:0:
212,84,51617,6,0,P|228:48|240:8,1,65,4|0,0:3|0:0,0:0:0:0:
224,168,51974,2,0,P|240:188|276:216,1,65,0|4,0:0|0:3,0:0:0:0:
424,124,52331,1,8,0:0:0:0:
352,64,52510,1,0,0:0:0:0:
340,144,52688,1,0,0:0:0:0:
424,124,52867,1,0,0:0:0:0:
332,20,53046,5,4,0:3:0:0:
304,168,53224,1,0,0:0:0:0:
456,132,53403,1,0,0:0:0:0:
356,96,53581,1,4,0:3:0:0:
432,256,53760,2,0,P|440:288|440:344,1,65,8|0,0:0|0:0,0:0:0:0:
272,360,54117,1,0,0:0:0:0:
340,236,54296,1,0,0:0:0:0:
360,312,54474,5,4,0:3:0:0:
284,288,54653,1,0,0:0:0:0:
208,268,54831,1,0,0:0:0:0:
132,244,55010,1,4,0:3:0:0:
148,320,55188,2,0,P|152:336|156:384,1,65,8|0,0:0|0:0,0:0:0:0:
188,192,55546,2,0,P|184:156|192:120,1,65,0|0,0:0|0:0,0:0:0:0:
272,44,55903,5,0,0:3:0:0:
64,164,56260,1,0,0:0:0:0:
116,108,56438,1,4,0:3:0:0:
148,192,56617,2,0,L|128:268,1,65,4|0,0:3|0:0,0:0:0:0:
48,316,56974,1,0,0:0:0:0:
44,304,57153,1,0,0:0:0:0:
159,346,57331,5,2,0:2:0:0:
243,354,57510,1,0,0:0:0:0:
346,238,57867,1,2,0:2:0:0:
430,226,58045,1,8,0:0:0:0:
260,100,58403,1,4,0:3:0:0:
268,116,58581,1,0,0:0:0:0:
120,48,58760,6,0,P|172:36|196:36,2,65,4|0|0,0:3|0:0|0:0,0:0:0:0:
60,136,59296,1,4,0:3:0:0:
176,188,59474,2,0,P|176:160|168:108,1,65,8|0,0:0|0:0,0:0:0:0:
88,228,59831,2,0,L|84:328,1,65,0|0,0:0|0:0,0:0:0:0:
88,300,60188,6,0,P|136:272|228:264,1,130,4|0,0:0|0:0,0:0:0:0:
272,308,60724,1,0,0:0:0:0:
320,172,60903,2,0,L|312:88,2,65,0|0|0,0:0|0:0|0:0,0:0:0:0:
380,220,61438,1,0,0:0:0:0:
208,184,61617,5,0,0:0:0:0:
248,52,61796,1,0,0:0:0:0:
196,188,61974,1,0,0:0:0:0:
240,44,62153,1,0,0:0:0:0:
187,194,62331,1,0,0:0:0:0:
231,37,62510,1,0,0:0:0:0:
179,200,62688,1,2,0:0:0:0:
2,156,63046,6,0,P|30:80|88:84,1,130,4|0,0:3|0:0,0:0:0:0:
102,151,63581,1,4,0:3:0:0:
132,28,63760,2,0,P|100:8|60:0,1,65,8|0,0:0|0:0,0:0:0:0:
164,96,64117,2,0,L|244:88,1,65,0|0,0:0|0:0,0:0:0:0:
368,20,64474,5,4,0:3:0:0:
348,96,64653,1,0,0:0:0:0:
484,140,64831,1,0,0:0:0:0:
412,172,65010,1,4,0:3:0:0:
228,248,65188,2,0,P|264:232|372:240,1,130,8|0,0:0|0:0,0:0:0:0:
408,292,65724,1,0,0:0:0:0:
248,144,65903,6,0,P|244:116|240:64,1,65,4|0,0:3|0:0,0:0:0:0:
388,8,66260,1,0,0:0:0:0:
336,64,66438,1,4,0:3:0:0:
136,36,66617,2,0,P|172:24|228:20,1,65,8|0,0:0|0:0,0:0:0:0:
336,64,66974,1,0,0:0:0:0:
64,148,67331,5,4,0:0:0:0:
372,128,70188,6,0,P|392:164|404:272,1,130,4|0,0:3|0:0,0:0:0:0:
360,312,70723,1,4,0:3:0:0:
224,280,70902,1,8,0:0:0:0:
196,352,71080,1,0,0:0:0:0:
264,180,71259,1,0,0:0:0:0:
312,240,71438,1,0,0:0:0:0:
156,144,71616,6,0,P|136:88|140:16,1,130,4|0,0:3|0:0,0:0:0:0:
208,60,72152,1,4,0:3:0:0:
64,112,72330,2,0,L|52:180,1,65,8|0,0:0|0:0,0:0:0:0:
144,224,72688,2,0,L|160:288,1,65,0|0,0:0|0:0,0:0:0:0:
64,360,73045,5,4,0:3:0:0:
48,284,73223,1,0,0:0:0:0:
144,224,73402,1,0,0:0:0:0:
124,300,73580,1,4,0:3:0:0:
56,152,73759,2,0,P|40:104|40:60,1,65,8|0,0:0|0:0,0:0:0:0:
164,28,74116,1,0,0:0:0:0:
116,92,74295,1,0,0:0:0:0:
240,80,74473,6,0,P|304:72|336:76,1,65,4|0,0:3|0:0,0:0:0:0:
368,116,74830,1,0,0:0:0:0:
364,36,75009,1,4,0:3:0:0:
288,156,75188,2,0,L|292:248,2,65,8|0|0,0:0|0:0|0:0,0:0:0:0:
448,208,75902,6,0,P|460:256|448:344,1,130,2|0,0:2|0:0,0:0:0:0:
284,344,76438,1,2,0:2:0:0:
308,268,76616,1,8,0:0:0:0:
328,192,76795,1,0,0:0:0:0:
348,116,76973,1,0,0:0:0:0:
384,240,77152,1,0,0:0:0:0:
236,296,77330,2,0,P|208:272|180:232,1,65,2|0,0:2|0:0,0:0:0:0:
52,312,77688,2,0,P|92:300|156:288,1,65,0|2,0:0|0:2,0:0:0:0:
104,196,78045,2,0,P|88:140|92:64,1,130,8|2,0:0|0:2,0:0:0:0:
192,16,78580,5,0,0:0:0:0:
22,56,78759,1,4,0:3:0:0:
31,61,80188,5,4,0:3:0:0:
313,11,80545,1,4,0:3:0:0:
254,290,80902,1,4,0:3:0:0:
