osu file format v14

[General]
AudioFilename: audio.mp3
AudioLeadIn: 0
PreviewTime: 4474
Countdown: 0
SampleSet: Soft
StackLeniency: 0.7
Mode: 0
LetterboxInBreaks: 0
WidescreenStoryboard: 0

[Editor]
Bookmarks: 184,5898,17326,28755,40183,51612,63041,67326,70183,80897
DistanceSpacing: 1
BeatDivisor: 8
GridSize: 32
TimelineZoom: 2.899999

[Metadata]
Title:Poshli vy v zhopu!
TitleUnicode:Пошли вы в жопу!
Artist:Bianka AKA Kralya
ArtistUnicode:Бьянка АКА Краля
Creator:Sieg
Version:Insane
Source:
Tags:hip-hop rap russian bakari ticclick marmowka fcl namki shmiklak wajinshu refaller nelly хейтеры-хуейтеры
BeatmapID:975025
BeatmapSetID:454827

[Difficulty]
HPDrainRate:6.9
CircleSize:4.6
OverallDifficulty:8.4
ApproachRate:9.1
SliderMultiplier:1.4
SliderTickRate:1

[Events]
//Background and Video events
0,0,"peezdyukee-avtoreetety.jpg",0,0
//Break Periods
2,67531,69588
//Storyboard Layer 0 (Background)
//Storyboard Layer 1 (Fail)
//Storyboard Layer 2 (Pass)
//Storyboard Layer 3 (Foreground)
//Storyboard Sound Samples

[TimingPoints]
189,714.285714285714,4,2,1,20,1,0
4831,-100,4,2,1,20,0,0
5546,-100,4,2,1,30,0,0
5903,-50,4,2,1,60,0,0
11260,-50,4,2,1,60,0,0
11438,-50,4,2,1,60,0,0
28760,-40,4,2,1,80,0,1
40144,-40,4,2,1,80,0,0
40188,-40,4,2,1,80,0,1
51617,-50,4,2,1,60,0,0
54653,-50,4,2,1,50,0,0
54831,-50,4,2,1,40,0,0
55188,-50,4,2,1,30,0,0
55724,-50,4,2,1,60,0,0
70188,714.285714285714,4,2,1,60,1,0
70188,-50,4,2,1,60,0,0

[Colours]
Combo1 : 126,171,226
Combo2 : 193,74,116
Combo3 : 115,120,223
Combo4 : 119,187,165

[HitObjects]
404,53,189,5,2,0:0:0:0:
79,104,546,1,0,0:0:0:0:
239,151,1260,5,0,0:0:0:0:
212,223,1438,1,0,0:0:0:0:
313,98,1617,1,2,0:0:0:0:
257,353,1974,1,0,0:0:0:0:
408,146,3046,5,2,0:0:0:0:
83,95,3403,1,0,0:0:0:0:
136,284,4831,6,0,L|103:289,2,17.5,2|0|0,0:2|0:0|0:0,0:0:0:0:
193,228,5188,2,0,L|238:222,2,35,0|2|0,0:0|0:2|0:0,0:0:0:0:
117,216,5724,5,2,0:0:0:0:
117,216,5813,1,2,0:0:0:0:
117,216,5903,2,0,P|69:176|83:90,1,140,4|0,0:3|0:0,0:0:0:0:
226,24,6438,1,4,0:3:0:0:
137,143,6617,1,8,0:0:0:0:
277,91,6796,1,0,0:0:0:0:
235,232,6975,1,0,0:0:0:0:
358,103,7153,6,0,P|375:95|410:95,2,35,0|2|4,0:0|0:0|0:3,0:0:0:0:
426,221,7510,2,0,P|466:220|508:191,1,70,0|0,0:0|0:0,0:0:0:0:
362,194,7867,1,4,0:3:0:0:
362,194,8046,2,0,P|373:266|453:285,1,140,8|0,0:0|0:0,0:0:0:0:
288,336,8581,5,0,0:0:0:0:
288,336,8671,1,2,0:0:0:0:
288,336,8760,2,0,L|200:353,1,70,4|0,0:3|0:0,0:0:0:0:
80,330,9117,2,0,L|168:313,1,70,0|4,0:0|0:3,0:0:0:0:
221,188,9474,2,0,P|240:154|237:109,2,70,8|0|0,0:0|0:0|0:0,0:0:0:0:
69,235,10010,5,0,0:0:0:0:
69,235,10099,1,2,0:0:0:0:
69,235,10188,2,0,P|49:201|52:156,1,70,4|0,0:3|0:0,0:0:0:0:
155,41,10546,1,0,0:0:0:0:
176,138,10724,1,4,0:3:0:0:
82,109,10903,1,8,0:0:0:0:
349,28,11260,1,0,0:0:0:0:
434,154,11438,5,0,0:0:0:0:
434,154,11528,1,2,0:1:0:0:
434,154,11617,2,0,P|479:164|513:160,1,70,4|0,0:3|0:0,0:0:0:0:
358,193,11974,1,0,0:0:0:0:
283,65,12153,1,0,0:2:0:0:
283,65,12243,1,2,0:1:0:0:
283,65,12332,2,0,P|237:75|204:72,1,70,8|0,0:0|0:0,0:0:0:0:
243,208,12688,1,0,0:0:0:0:
125,280,12867,6,0,L|92:271,2,35,0|2|4,0:0|0:1|0:3,0:0:0:0:
244,366,13224,1,0,0:0:0:0:
388,320,13403,2,0,P|423:315|462:291,1,70,0|4,0:0|0:3,0:0:0:0:
316,280,13760,2,0,P|259:298|194:224,1,140,8|0,0:0|0:0,0:0:0:0:
283,125,14296,5,0,0:0:0:0:
283,125,14385,1,2,0:1:0:0:
283,125,14474,2,0,P|231:81|166:97,1,140,4|0,0:3|0:0,0:0:0:0:
267,227,15010,1,4,0:3:0:0:
358,107,15188,1,8,0:0:0:0:
114,273,15546,1,0,0:0:0:0:
233,334,15724,6,0,P|208:350|181:354,2,35,2|2|4,0:0|0:1|0:3,0:0:0:0:
246,78,16260,1,0,0:0:0:0:
472,57,16617,1,2,0:2:0:0:
382,270,16974,1,0,0:0:0:0:
432,143,17153,5,0,0:0:0:0:
432,143,17242,1,2,0:1:0:0:
432,143,17332,2,4,P|473:150|509:142,2,70,4|0|4,0:3|0:0|0:3,0:0:0:0:
293,78,17867,1,4,0:3:0:0:
293,78,18046,2,0,P|201:117|151:93,1,140,8|0,0:0|0:0,0:0:0:0:
31,27,18582,6,4,L|75:8,2,35,0|2|4,0:0|0:1|0:3,0:0:0:0:
112,166,18939,2,0,L|187:177,1,70,4|0,0:3|0:0,0:0:0:0:
252,23,19296,1,4,0:3:0:0:
252,23,19474,2,0,P|350:36|381:83,1,140,8|0,0:0|0:0,0:0:0:0:
362,225,20010,5,0,0:0:0:0:
362,225,20099,1,2,0:1:0:0:
362,225,20189,2,0,P|350:273|366:308,1,70,4|0,0:3|0:0,0:0:0:0:
232,372,20546,2,0,P|209:327|174:311,1,70,2|0,0:2|0:0,0:0:0:0:
277,178,20903,2,0,P|306:150|342:140,2,70,8|2|2,0:0|0:2|0:2,0:0:0:0:
149,258,21439,5,0,0:0:0:0:
149,258,21528,1,2,0:1:0:0:
149,258,21617,2,0,P|119:284|0:266,1,140,4|0,0:3|0:0,0:0:0:0:
72,136,22153,1,4,0:3:0:0:
231,177,22331,2,0,P|223:215|300:309,1,140,8|0,0:0|0:0,0:0:0:0:
352,161,22867,5,0,0:0:0:0:
352,161,22957,1,2,0:1:0:0:
352,161,23046,2,0,P|397:155|423:142,1,70,4|0,0:3|0:0,0:0:0:0:
275,106,23403,1,0,0:0:0:0:
300,278,23581,1,0,0:2:0:0:
300,278,23671,1,2,0:1:0:0:
300,278,23760,2,0,P|340:300|368:304,1,70,8|0,0:0|0:0,0:0:0:0:
270,188,24117,1,0,0:0:0:0:
126,245,24296,5,0,0:0:0:0:
126,245,24385,1,2,0:1:0:0:
126,245,24474,2,0,L|42:224,1,70,4|0,0:3|0:0,0:0:0:0:
204,122,24832,2,0,L|280:110,1,70,0|0,0:0|0:0,0:0:0:0:
116,57,25189,2,0,P|59:39|-4:99,1,140,8|0,0:0|0:0,0:0:0:0:
142,169,25725,5,0,0:0:0:0:
142,169,25814,1,2,0:1:0:0:
142,169,25903,1,4,0:3:0:0:
395,25,26260,1,0,0:0:0:0:
145,245,26617,1,0,0:0:0:0:
274,352,26796,2,0,P|292:340|308:313,2,35,0|0|0,0:3|0:0|0:3,0:0:0:0:
198,272,28760,5,4,1:0:0:0:
156,259,28849,1,0,0:0:0:0:
114,270,28938,1,0,0:0:0:0:
85,302,29027,1,0,0:0:0:0:
77,344,29117,1,0,0:0:0:0:
97,170,29296,1,0,0:0:0:0:
156,335,29474,1,8,0:0:0:0:
23,205,29653,2,0,P|16:171|42:106,1,87.5,0|0,0:0|0:0,0:0:0:0:
204,145,30010,1,0,0:0:0:0:
351,236,30188,6,0,P|399:297|492:273,1,175,4|0,0:3|0:0,0:0:0:0:
464,91,30724,1,0,0:0:0:0:
309,173,30903,1,8,0:0:0:0:
415,35,31081,1,0,0:0:0:0:
251,125,31260,1,0,0:0:0:0:
434,158,31438,1,0,0:0:0:0:
306,287,31617,6,0,P|258:348|165:324,1,175,4|0,0:3|0:0,0:0:0:0:
118,160,32153,1,4,0:3:0:0:
46,328,32331,1,8,0:0:0:0:
227,273,32510,1,0,0:0:0:0:
54,211,32688,1,0,0:0:0:0:
209,94,32867,2,0,P|196:73|173:64,2,43.75,0|0|4,0:0|0:0|0:3,0:0:0:0:
227,273,33224,5,0,0:0:0:0:
247,311,33313,1,0,0:0:0:0:
282,339,33403,1,0,0:0:0:0:
327,348,33492,1,0,0:0:0:0:
370,339,33581,1,4,0:3:0:0:
405,312,33671,1,0,0:0:0:0:
426,272,33760,1,8,0:0:0:0:
412,186,33938,1,0,0:0:0:0:
367,110,34117,1,0,0:0:0:0:
405,31,34296,1,0,0:0:0:0:
484,76,34474,6,0,P|411:101|301:61,1,175,4|0,0:3|0:0,0:0:0:0:
134,19,35010,1,0,0:0:0:0:
10,154,35188,1,8,0:0:0:0:
197,71,35367,2,0,P|239:86|264:125,1,87.5,0|0,0:0|0:0,0:0:0:0:
296,282,35724,1,0,0:0:0:0:
457,299,35902,6,0,P|518:220|468:135,1,175,4|0,0:3|0:0,0:0:0:0:
379,269,36438,1,4,0:3:0:0:
292,109,36617,1,8,0:0:0:0:
296,282,36795,1,0,0:0:0:0:
219,95,36974,2,0,P|218:73|228:43,2,43.75,0|0|0,0:0|0:0|0:0,0:0:0:0:
185,317,37331,6,0,L|5:342,1,175,4|0,0:3|0:0,0:0:0:0:
185,247,37867,1,4,0:3:0:0:
361,288,38046,1,8,0:0:0:0:
215,173,38224,1,0,0:0:0:0:
254,343,38402,1,0,0:0:0:0:
127,205,38581,1,0,0:0:0:0:
127,205,38670,1,0,0:0:0:0:
127,205,38760,1,4,0:3:0:0:
119,373,38938,5,0,0:0:0:0:
74,369,39028,1,0,0:0:0:0:
34,349,39117,1,0,0:0:0:0:
5,315,39206,1,0,0:0:0:0:
1,273,39296,1,4,0:3:0:0:
1,228,39385,1,0,0:0:0:0:
11,188,39474,1,8,0:0:0:0:
80,134,39653,1,0,0:0:0:0:
131,63,39831,1,0,0:0:0:0:
63,7,40010,1,0,0:0:0:0:
11,77,40188,6,0,P|69:113|235:18,1,262.5,4|2,0:0|0:2,0:0:0:0:
423,133,40903,2,0,P|314:121|290:68,1,175,8|2,0:0|0:2,0:0:0:0:
151,376,41617,6,0,P|223:293|280:304,1,175,4|0,0:3|0:0,0:0:0:0:
449,363,42153,1,4,0:3:0:0:
345,222,42331,2,0,L|253:199,1,87.5,8|0,0:0|0:0,0:0:0:0:
83,235,42688,1,0,0:0:0:0:
280,59,43046,6,0,P|322:23|364:17,1,87.5,4|0,0:3|0:0,0:0:0:0:
511,73,43403,1,2,0:2:0:0:
346,90,43581,1,2,0:2:0:0:
504,153,43760,1,8,0:0:0:0:
390,284,43938,1,0,0:0:0:0:
287,128,44117,2,0,P|250:121|202:142,1,87.5,2|0,0:2|0:0,0:0:0:0:
372,189,44474,1,4,0:3:0:0:
292,348,44653,5,8,0:3:0:0:
247,374,44742,1,0,0:0:0:0:
195,384,44831,1,8,0:3:0:0:
144,375,44920,1,0,0:0:0:0:
99,349,45010,1,12,0:3:0:0:
66,308,45099,1,0,0:0:0:0:
49,259,45188,1,12,0:0:0:0:
138,107,45367,1,0,0:0:0:0:
305,158,45545,1,0,0:0:0:0:
177,277,45724,1,0,0:0:0:0:
365,225,45903,6,0,P|428:150|394:68,1,175,4|0,0:3|0:0,0:0:0:0:
278,197,46438,1,2,0:2:0:0:
145,80,46618,2,0,P|195:51|244:58,1,87.5,8|0,0:0|0:0,0:0:0:0:
157,212,46974,1,2,0:2:0:0:
438,362,47332,6,0,P|374:298|286:336,1,175,4|0,0:3|0:0,0:0:0:0:
449,251,47868,1,4,0:3:0:0:
234,291,48046,2,0,L|192:302,1,43.75,8|0,0:0|0:0,0:0:0:0:
114,50,48761,6,0,L|27:39,1,87.5,4|0,0:3|0:0,0:0:0:0:
184,116,49118,1,2,0:2:0:0:
350,63,49296,1,2,0:2:0:0:
228,188,49474,1,8,0:0:0:0:
394,135,49652,1,0,0:0:0:0:
262,253,49832,2,0,P|220:261|177:239,1,87.5,2|0,0:2|0:0,0:0:0:0:
319,134,50189,1,4,0:3:0:0:
258,329,50368,5,0,0:0:0:0:
303,355,50457,1,2,0:2:0:0:
355,365,50546,1,0,0:0:0:0:
406,356,50635,1,0,0:0:0:0:
451,330,50725,1,4,0:3:0:0:
484,289,50814,1,0,0:0:0:0:
501,240,50903,1,8,0:0:0:0:
414,87,51082,1,0,0:0:0:0:
247,138,51260,1,0,0:0:0:0:
375,257,51439,1,0,0:0:0:0:
232,65,51617,6,0,P|181:102|191:189,1,140,4|0,0:3|0:0,0:0:0:0:
247,298,52152,1,4,0:3:0:0:
114,216,52331,1,8,0:0:0:0:
42,353,52510,1,0,0:0:0:0:
178,258,52689,1,0,0:0:0:0:
74,141,52867,6,0,L|38:135,2,35,0|2|4,0:0|0:1|0:3,0:0:0:0:
225,174,53224,2,0,P|265:179|313:152,1,70,0|0,0:0|0:0,0:0:0:0:
422,90,53581,1,4,0:3:0:0:
422,90,53760,2,0,P|433:162|513:181,1,140,8|0,0:0|0:0,0:0:0:0:
393,290,54295,5,0,0:0:0:0:
393,290,54385,1,2,0:1:0:0:
393,290,54474,2,0,P|352:276|303:280,1,70,4|0,0:3|0:0,0:0:0:0:
200,339,54831,2,0,P|158:322|116:324,1,70,0|4,0:0|0:3,0:0:0:0:
25,223,55188,2,0,P|44:189|41:144,2,70,8|0|0,0:0|0:0|0:0,0:0:0:0:
125,126,55724,5,0,0:0:0:0:
125,126,55813,1,2,0:1:0:0:
125,126,55902,2,0,P|92:103|96:1,1,140,0|0,0:3|0:0,0:0:0:0:
284,267,56617,2,0,P|320:252|339:151,1,140,4|0,0:3|0:0,0:0:0:0:
452,72,57152,5,0,0:0:0:0:
452,72,57242,1,2,0:1:0:0:
452,72,57331,2,0,L|458:151,1,70,4|0,0:3|0:0,0:0:0:0:
369,27,57688,1,0,0:0:0:0:
279,141,57867,1,2,0:2:0:0:
279,141,57957,1,2,0:1:0:0:
279,141,58046,2,0,L|273:62,1,70,8|0,0:0|0:0,0:0:0:0:
180,184,58402,1,4,0:3:0:0:
117,55,58581,6,0,L|158:38,2,35,0|2|4,0:0|0:1|0:3,0:0:0:0:
4,146,58938,1,0,0:0:0:0:
104,252,59117,2,0,P|137:256|169:284,1,70,0|4,0:0|0:3,0:0:0:0:
32,266,59474,2,0,P|44:207|141:188,1,140,8|0,0:0|0:0,0:0:0:0:
264,249,60010,5,0,0:0:0:0:
264,249,60099,1,2,0:1:0:0:
264,249,60188,2,0,P|247:315|290:366,1,140,4|0,0:0|0:0,0:0:0:0:
425,330,60724,1,0,0:0:0:0:
321,194,60902,1,0,0:0:0:0:
461,263,61081,1,0,0:0:0:0:
461,263,61171,1,0,0:0:0:0:
461,263,61260,1,0,0:0:0:0:
155,334,61617,5,0,0:0:0:0:
38,212,61796,1,0,0:0:0:0:
60,46,61974,1,0,0:0:0:0:
67,348,62331,5,0,0:0:0:0:
108,184,62510,1,0,0:0:0:0:
260,114,62688,1,2,0:2:0:0:
435,144,62867,5,0,0:0:0:0:
435,144,62956,1,2,0:1:0:0:
435,144,63046,2,0,P|475:148|516:130,2,70,4|0|0,0:3|0:0|0:0,0:0:0:0:
338,247,63581,1,4,0:3:0:0:
338,247,63760,2,0,P|246:286|196:262,1,140,8|0,0:0|0:0,0:0:0:0:
214,111,64296,6,0,L|224:65,2,35,0|2|4,0:0|0:1|0:3,0:0:0:0:
141,252,64653,2,0,L|121:334,1,70,0|0,0:0|0:0,0:0:0:0:
186,187,65010,1,4,0:3:0:0:
186,187,65188,2,0,P|106:181|66:232,1,140,8|0,0:0|0:0,0:0:0:0:
141,92,65724,5,0,0:0:0:0:
141,92,65813,1,2,0:1:0:0:
141,92,65903,2,0,P|153:44|137:9,1,70,4|0,0:3|0:0,0:0:0:0:
275,130,66260,2,0,P|252:85|217:69,1,70,0|4,0:0|0:3,0:0:0:0:
400,83,66617,2,0,P|359:52|321:53,2,70,8|0|0,0:0|0:0|0:0,0:0:0:0:
360,232,67153,5,0,0:0:0:0:
360,232,67242,1,2,0:1:0:0:
360,232,67331,1,4,0:0:0:0:
383,345,70188,6,0,P|445:348|493:276,1,140,4|0,0:3|0:0,0:0:0:0:
349,258,70723,1,4,0:3:0:0:
253,147,70902,2,0,P|264:98|255:60,1,70,8|0,0:0|0:0,0:0:0:0:
167,205,71259,1,0,0:0:0:0:
263,337,71438,6,0,L|315:329,2,35,0|2|4,0:0|0:1|0:3,0:0:0:0:
103,301,71795,2,0,L|11:313,1,70,0|0,0:0|0:0,0:0:0:0:
94,169,72151,1,4,0:3:0:0:
94,169,72241,1,0,0:1:0:0:
94,169,72330,2,0,P|149:126|223:147,1,140,8|0,0:0|0:0,0:0:0:0:
370,103,72866,5,0,0:0:0:0:
370,103,72956,1,2,0:1:0:0:
370,103,73045,2,0,P|401:85|458:86,1,70,4|0,0:3|0:0,0:0:0:0:
279,66,73402,2,0,P|248:48|191:49,1,70,0|4,0:0|0:3,0:0:0:0:
92,161,73759,2,0,P|35:131|23:40,1,140,8|0,0:0|0:0,0:0:0:0:
187,120,74295,6,0,L|240:113,2,35,0|2|4,0:0|0:1|0:3,0:0:0:0:
402,334,74830,1,0,0:0:0:0:
143,184,75188,1,8,0:0:0:0:
401,35,75545,1,0,0:0:0:0:
478,171,75723,5,0,0:0:0:0:
478,171,75813,1,2,0:1:0:0:
478,171,75902,2,0,L|484:250,1,70,2|0,0:2|0:0,0:0:0:0:
403,117,76259,1,0,0:0:0:0:
332,251,76438,1,2,0:2:0:0:
332,251,76528,1,2,0:1:0:0:
332,251,76617,2,0,L|338:330,1,70,8|0,0:0|0:0,0:0:0:0:
257,197,76974,1,0,0:0:0:0:
155,69,77152,6,0,L|144:22,2,35,0|0|2,0:0|0:0|0:2,0:0:0:0:
204,244,77509,1,0,0:0:0:0:
231,72,77688,1,0,0:0:0:0:
131,250,77866,1,2,0:2:0:0:
300,108,78045,2,0,P|349:167|337:241,1,140,8|2,0:0|0:2,0:0:0:0:
177,155,78581,5,2,0:0:0:0:
178,163,78670,1,2,0:1:0:0:
172,158,78759,1,4,0:3:0:0:
172,158,80188,5,4,0:3:0:0:
413,326,80545,1,4,0:3:0:0:
170,78,80902,1,4,0:3:0:0:
