osu file format v14

[General]
AudioFilename: audio.mp3
AudioLeadIn: 0
PreviewTime: 23995
Countdown: 0
SampleSet: Soft
StackLeniency: 0.7
Mode: 0
LetterboxInBreaks: 0
WidescreenStoryboard: 1

[Editor]
Bookmarks: 819,1525,24113,45995,46701,52348,55172,56583,57995,80583,103172,104583,129995,140582,152582
DistanceSpacing: 1.1
BeatDivisor: 3
GridSize: 4
TimelineZoom: 1

[Metadata]
Title:Nikto krome ty (Letnyaya pesnya)
TitleUnicode:Никто кроме ты (Летняя песня)
Artist:Bianka
ArtistUnicode:Бьянка
Creator:Sieg
Version:Signum's Easy
Source:
Tags:hip-hop pop nobody besides you summer song russian namki signum
BeatmapID:1028432
BeatmapSetID:479965

[Difficulty]
HPDrainRate:3
CircleSize:3
OverallDifficulty:3
ApproachRate:3
SliderMultiplier:1.5
SliderTickRate:1

[Events]
//Background and Video events
0,0,"bg.jpg",0,0
//Break Periods
2,46901,55143
//Storyboard Layer 0 (Background)
//Storyboard Layer 1 (Fail)
//Storyboard Layer 2 (Pass)
//Storyboard Layer 3 (Foreground)
//Storyboard Sound Samples

[TimingPoints]
1525,705.882352941176,4,2,1,60,1,0
24113,-100,4,2,1,60,0,1
35289,-100,4,2,1,60,0,0
35407,-100,4,2,1,60,0,1
46583,-100,4,2,1,60,0,0
46701,-100,4,2,1,60,0,1
46819,-100,4,2,1,60,0,0
56583,-100,4,2,1,30,0,0
56819,-100,4,2,1,40,0,0
57054,-100,4,2,1,50,0,0
57289,-100,4,2,1,60,0,0
80583,-100,4,2,1,60,0,1
91760,-100,4,2,1,60,0,0
91877,-100,4,2,1,60,0,1
103054,-100,4,2,1,60,0,0
104583,705.882352941176,4,2,1,60,1,0
129994,-100,4,2,1,60,0,1
141171,-100,4,2,1,60,0,0
141288,-100,4,2,1,60,0,1
152465,-100,4,2,1,60,0,0

[Colours]
Combo1 : 109,146,155
Combo2 : 232,208,169
Combo3 : 183,175,163
Combo4 : 187,215,210
Combo5 : 215,218,215
Combo6 : 172,209,233
SliderBorder : 242,240,230

[HitObjects]
108,328,1525,6,0,B|130:295|108:249|108:249|91:199|128:142,1,150,0|8,3:3|0:0,0:0:0:0:
203,129,2701,2,0,L|283:145,1,50,0|4,3:0|3:3,0:0:0:0:
376,247,3642,1,8,0:0:0:0:
224,312,4348,6,0,P|150:324|86:258,2,150,0|8|4,3:0|0:2|3:3,0:0:0:0:
386,340,6466,1,8,0:2:0:0:
468,197,7172,6,0,L|488:42,1,150,0|8,3:0|0:2,0:0:0:0:
331,103,8583,2,0,L|311:258,1,150,4|8,3:3|0:2,0:0:0:0:
164,326,9995,5,0,3:0:0:0:
54,202,10701,2,0,L|37:41,2,150,2|4|8,0:2|3:3|0:2,0:0:0:0:
161,327,12819,6,0,B|203:342|236:318|236:318|266:294|310:302,1,150,0|8,3:3|0:0,0:0:0:0:
400,250,13995,2,0,L|406:198,1,50,0|4,3:0|3:3,0:0:0:0:
298,75,14936,1,8,0:0:0:0:
136,100,15642,6,0,P|152:160|124:248,1,150,0|8,3:0|0:2,0:0:0:0:
236,226,16819,2,0,P|264:212|289:203,1,50,0|4,3:0|3:3,0:0:0:0:
438,155,17760,1,8,0:2:0:0:
368,304,18466,6,0,B|322:322|292:288|292:288|264:324|198:300,2,150,0|8|4,3:0|0:2|3:3,0:0:0:0:
461,167,20583,1,8,0:2:0:0:
323,75,21289,5,0,3:0:0:0:
220,116,21760,2,0,L|168:136,1,50,8|0,0:0|3:3,0:0:0:0:
132,171,22230,2,0,L|69:164,2,50,4|4|4,0:3|0:3|0:3,0:0:0:0:
121,162,24113,6,0,P|138:228|108:316,1,150,12|8,3:3|0:0,0:0:0:0:
276,343,25524,2,0,P|342:326|430:356,1,150,4|8,3:3|0:0,0:0:0:0:
452,186,26936,6,0,P|419:120|336:107,2,150,0|8|4,3:0|0:2|3:3,0:0:0:0:
315,284,29054,1,8,0:2:0:0:
154,246,29760,6,0,B|130:196|155:146|155:146|127:99,1,150,0|8,3:0|0:2,0:0:0:0:
267,199,31172,2,0,B|291:249|266:299|266:299|294:346,1,150,4|8,3:3|0:2,0:0:0:0:
435,260,32583,6,0,P|451:204|435:108,2,150,0|2|4,3:0|0:2|3:3,0:0:0:0:
282,324,34701,2,0,L|226:321,1,50,0|0,3:0|3:0,0:0:0:0:
124,343,35407,6,0,P|116:267|161:204,1,150,12|8,3:3|0:0,0:0:0:0:
314,163,36819,2,0,P|322:239|277:302,1,150,4|8,3:3|0:0,0:0:0:0:
124,250,38230,6,0,B|110:221|82:218|82:218|74:191|74:191|37:178|33:121,2,150,0|8|4,3:0|0:2|3:3,0:0:0:0:
254,351,40348,1,8,0:2:0:0:
410,297,41054,6,0,P|434:238|421:149,1,150,0|8,3:0|0:2,0:0:0:0:
280,70,42466,2,0,P|221:94|132:81,1,150,4|8,3:3|0:2,0:0:0:0:
18,197,43877,5,0,3:0:0:0:
117,328,44583,1,2,0:2:0:0:
274,279,45289,2,0,L|329:295,1,50,4|0,3:3|3:0,0:0:0:0:
399,215,45995,2,0,L|344:199,1,50,0|0,3:0|3:0,0:0:0:0:
261,136,46701,5,12,3:3:0:0:
418,280,56583,6,0,B|408:268|404:232|404:232|440:200|440:200|420:144,1,150,4|4,3:3|3:3,0:0:0:0:
264,192,57995,6,0,P|212:189|126:247,1,150,0|8,3:3|0:0,0:0:0:0:
224,296,59172,2,0,P|268:300|284:296,1,50,0|0,3:0|0:0,0:0:0:0:
380,176,60113,1,8,0:0:0:0:
215,163,60819,6,0,P|148:159|62:171,2,150,0|8|4,3:0|0:2|3:3,0:0:0:0:
352,254,62936,1,8,0:2:0:0:
440,114,63642,5,0,3:0:0:0:
284,59,64348,2,0,B|250:78|218:63|218:63|190:80|190:80|166:61|126:70,1,150,8|4,0:2|3:3,0:0:0:0:
23,179,65760,1,8,0:2:0:0:
154,278,66466,6,0,P|197:323|293:309,2,150,0|2|4,3:0|0:2|3:3,0:0:0:0:
33,165,68583,2,0,L|44:101,1,50,8|0,0:2|3:0,0:0:0:0:
120,39,69289,6,0,L|277:63,1,150,0|8,3:3|0:0,0:0:0:0:
368,108,70466,2,0,P|365:133|372:178,1,50,0|4,3:0|3:3,0:0:0:0:
471,285,71407,1,8,0:0:0:0:
312,331,72113,6,0,B|265:350|237:335|237:335|204:322|154:340,2,150,0|8|4,3:0|0:2|3:3,0:0:0:0:
415,202,74230,1,8,0:2:0:0:
297,85,74936,5,0,3:0:0:0:
136,124,75642,2,0,P|150:186|117:269,1,150,8|4,0:2|3:3,0:0:0:0:
255,359,77054,1,8,0:2:0:0:
391,264,77760,6,0,P|362:196|376:124,2,150,0|0|4,3:0|3:3|0:3,0:0:0:0:
391,264,80583,6,0,L|239:257,1,150,12|8,3:3|0:0,0:0:0:0:
117,147,81995,2,0,L|269:154,1,150,4|8,3:3|0:0,0:0:0:0:
418,219,83407,6,0,P|431:275|391:365,2,150,0|8|4,3:0|0:2|3:3,0:0:0:0:
303,100,85524,1,8,0:2:0:0:
140,129,86230,6,0,B|121:180|137:206|146:233|132:295,1,150,0|8,3:0|0:2,0:0:0:0:
289,337,87642,2,0,B|308:286|292:260|283:233|297:171,1,150,4|8,3:3|0:2,0:0:0:0:
396,59,89054,5,0,3:0:0:0:
490,194,89760,1,2,0:2:0:0:
372,309,90466,2,0,P|345:317|319:318,1,50,4|0,3:3|0:0,0:0:0:0:
318,208,91172,2,0,P|310:181|309:155,1,50,0|0,3:0|3:0,0:0:0:0:
418,157,91877,6,0,P|452:210|429:302,1,150,12|8,3:3|0:0,0:0:0:0:
279,342,93289,1,4,3:3:0:0:
115,317,93995,1,8,0:0:0:0:
199,175,94701,6,0,B|233:169|251:157|251:157|277:182|277:182|297:171|332:160|359:189,2,150,0|8|4,3:0|0:2|3:3,0:0:0:0:
45,235,96819,1,8,0:2:0:0:
177,333,97524,6,0,P|241:315|354:356,1,150,0|8,3:0|0:2,0:0:0:0:
454,235,98936,2,0,P|436:171|477:58,1,150,4|8,3:3|0:2,0:0:0:0:
298,34,100348,5,0,3:0:0:0:
150,107,101054,1,2,0:2:0:0:
234,248,101760,2,0,L|305:286,1,50,4|0,3:3|0:0,0:0:0:0:
377,224,102466,2,0,L|306:186,1,50,0|0,3:0|0:0,0:0:0:0:
256,120,103172,5,0,0:0:0:0:
256,120,104583,6,0,L|220:284,1,150,8|8,3:3|0:0,0:0:0:0:
356,168,105994,2,0,P|356:80|312:24,1,150,4|8,3:3|0:0,0:0:0:0:
160,65,107406,6,0,P|102:120|176:301,1,300,0|4,3:0|3:3,0:0:0:0:
299,194,109524,1,8,0:2:0:0:
420,305,110230,6,0,B|402:249|426:172|426:172|397:176|397:176|421:105|385:33,1,300,0|4,3:0|3:3,0:0:0:0:
255,140,112347,1,8,0:2:0:0:
99,196,113053,6,0,P|117:253|88:344,2,150,0|2|4,3:0|0:2|3:3,0:0:0:0:
184,54,115171,2,0,L|241:64,1,50,8|0,0:2|3:0,0:0:0:0:
330,114,115877,6,0,B|435:124|447:189|447:189|403:236|397:288|455:330,1,300,4|4,3:3|3:3,0:0:0:0:
282,359,117994,1,8,0:0:0:0:
119,330,118700,6,0,B|105:279|127:236|127:236|98:218|69:178|83:117|122:92|174:91|201:124|195:151,1,300,0|4,3:0|3:3,0:0:0:0:
322,203,120818,1,8,0:2:0:0:
437,320,121524,6,0,B|422:327|397:321|397:321|373:343|373:343|354:320|314:307|277:321,1,150,0|8,3:0|0:2,0:0:0:0:
168,221,122935,2,0,B|183:228|208:222|208:222|232:244|232:244|251:221|291:208|328:222,1,150,4|8,3:3|0:2,0:0:0:0:
431,317,124347,6,0,L|454:129,1,150,0|8,3:0|0:0,0:0:0:0:
312,74,125759,2,0,L|289:262,1,150,4|2,0:3|0:2,0:0:0:0:
256,192,127171,12,2,129288,0:1:0:0:
368,240,130700,5,8,0:0:0:0:
214,302,131406,2,0,L|58:288,1,150,4|8,3:3|0:0,0:0:0:0:
202,197,132818,6,0,P|257:212|344:158,1,150,0|8,3:0|0:2,0:0:0:0:
193,87,134230,2,0,P|138:72|51:126,1,150,4|8,3:3|0:2,0:0:0:0:
130,262,135641,5,0,3:0:0:0:
282,324,136347,1,8,0:2:0:0:
427,245,137053,2,0,P|412:189|446:86,1,150,4|8,3:3|0:2,0:0:0:0:
278,47,138465,5,0,3:0:0:0:
209,197,139171,1,2,0:2:0:0:
343,292,139877,2,0,P|375:304|392:320,1,50,4|0,3:3|0:0,0:0:0:0:
482,260,140582,2,0,P|450:248|433:232,1,50,0|0,3:0|3:0,0:0:0:0:
357,162,141288,6,0,P|292:135|206:171,2,150,12|8|4,3:3|0:0|3:3,0:0:0:0:
485,265,143406,1,8,0:0:0:0:
333,333,144112,6,0,P|271:329|179:335,1,150,0|8,3:0|0:2,0:0:0:0:
66,217,145524,2,0,P|70:155|64:63,1,150,4|8,3:3|0:2,0:0:0:0:
220,120,146935,5,0,3:0:0:0:
376,62,147641,1,8,0:2:0:0:
478,191,148347,2,0,P|438:231|334:220,1,150,4|8,3:3|0:2,0:0:0:0:
208,316,149759,5,0,3:0:0:0:
154,159,150465,1,2,0:2:0:0:
295,73,151171,2,0,L|358:95,1,50,4|0,3:3|3:0,0:0:0:0:
373,195,151877,2,0,L|420:211,2,50,4|0|0,3:3|3:0|3:0,0:0:0:0:
