osu file format v14

[General]
AudioFilename: audio.mp3
AudioLeadIn: 0
PreviewTime: 23995
Countdown: 0
SampleSet: Soft
StackLeniency: 0.7
Mode: 0
LetterboxInBreaks: 0
WidescreenStoryboard: 1

[Editor]
Bookmarks: 819,1525,24113,46701,52348,55172,56583,57995,80583,103172,104583,129995,152582
DistanceSpacing: 1
BeatDivisor: 3
GridSize: 8
TimelineZoom: 1

[Metadata]
Title:Nikto krome ty (Letnyaya pesnya)
TitleUnicode:Никто кроме ты (Летняя песня)
Artist:Bianka
ArtistUnicode:Бьянка
Creator:Sieg
Version:Namki's Normal
Source:
Tags:hip-hop pop nobody besides you summer song russian namki signum
BeatmapID:1024770
BeatmapSetID:479965

[Difficulty]
HPDrainRate:5
CircleSize:3.7
OverallDifficulty:5
ApproachRate:5
SliderMultiplier:2.3
SliderTickRate:1

[Events]
//Background and Video events
0,0,"bg.jpg",0,0
//Break Periods
2,46901,48795
//Storyboard Layer 0 (Background)
//Storyboard Layer 1 (Fail)
//Storyboard Layer 2 (Pass)
//Storyboard Layer 3 (Foreground)
//Storyboard Sound Samples

[TimingPoints]
1525,705.882352941176,4,2,1,60,1,0
24113,-100,4,2,1,60,0,1
35289,-100,4,2,1,60,0,0
35407,-100,4,2,1,60,0,1
46583,-100,4,2,1,60,0,0
46701,-100,4,2,1,60,0,1
46819,-100,4,2,1,60,0,0
56583,-100,4,2,1,30,0,0
56819,-100,4,2,1,40,0,0
57054,-100,4,2,1,50,0,0
57289,-100,4,2,1,60,0,0
80583,-100,4,2,1,60,0,1
91760,-100,4,2,1,60,0,0
91877,-100,4,2,1,60,0,1
103054,-100,4,2,1,60,0,0
104583,705.882352941176,4,2,1,60,1,0
129994,-100,4,2,1,60,0,1
141171,-100,4,2,1,60,0,0
141288,-100,4,2,1,60,0,1
152465,-100,4,2,1,60,0,0

[Colours]
Combo1 : 109,146,155
Combo2 : 232,208,169
Combo3 : 183,175,163
Combo4 : 187,215,210
Combo5 : 215,218,215
Combo6 : 172,209,233
SliderBorder : 242,240,230

[HitObjects]
92,113,819,6,0,B|127:125|127:125|254:105,1,153.333333333333,2|0,0:1|0:0,0:0:0:0:
290,47,1525,2,0,P|270:133|312:194,1,153.333333333333,0|0,3:3|0:0,0:0:0:0:
362,230,2230,2,0,P|401:220|452:233,1,76.6666666666667,8|0,0:0|0:0,0:0:0:0:
403,296,2701,1,0,3:0:0:0:
335,332,2936,2,0,B|290:341|290:341|172:320,1,153.333333333333,4|0,3:3|0:0,0:0:0:0:
116,285,3642,6,0,P|120:236|105:199,2,76.6666666666667,8|0|0,0:0|0:0|0:0,0:0:0:0:
46,248,4348,2,0,P|-3:190|17:91,1,153.333333333333,0|0,3:0|0:0,0:0:0:0:
52,59,5054,2,0,P|92:73|134:69,1,76.6666666666667,8|0,0:2|0:0,0:0:0:0:
192,34,5524,1,0,3:0:0:0:
256,75,5760,2,0,B|269:123|269:123|247:248,1,153.333333333333,4|0,3:3|0:0,0:0:0:0:
181,257,6466,2,0,P|179:292|190:336,1,76.6666666666667,8|0,0:2|0:0,0:0:0:0:
257,365,6936,1,0,0:0:0:0:
307,307,7172,6,0,P|383:293|464:328,1,153.333333333333,0|0,3:0|0:0,0:0:0:0:
509,370,7877,2,0,B|481:323|481:323|492:223,1,153.333333333333,8|0,0:2|3:0,0:0:0:0:
476,149,8583,2,0,P|454:121|411:95,1,76.6666666666667,4|0,3:3|0:0,0:0:0:0:
266,129,9289,1,8,0:2:0:0:
192,108,9524,2,0,P|153:110|116:101,1,76.6666666666667
69,40,9995,6,0,P|77:108|64:208,1,153.333333333333,0|0,3:0|0:0,0:0:0:0:
31,259,10701,1,2,0:2:0:0:
84,314,10936,2,0,P|122:325|172:317,1,76.6666666666667,2|0,0:2|3:0,0:0:0:0:
227,288,11407,2,0,P|264:282|315:305,1,76.6666666666667,4|2,3:3|0:2,0:0:0:0:
434,368,12113,5,8,0:2:0:0:
487,312,12348,2,0,P|491:277|480:228,1,76.6666666666667,0|0,3:0|0:0,0:0:0:0:
413,204,12819,2,0,B|402:157|402:157|439:48,1,153.333333333333,0|0,3:3|0:0,0:0:0:0:
362,35,13524,2,0,L|202:42,1,153.333333333333,8|0,0:0|3:0,0:0:0:0:
132,50,14230,2,0,P|148:88|184:115,1,76.6666666666667,4|0,3:3|0:0,0:0:0:0:
80,231,14936,6,0,P|29:222|-11:191,2,76.6666666666667,8|0|0,0:0|0:0|0:0,0:0:0:0:
155,247,15642,2,0,P|228:236|314:260,1,153.333333333333,0|0,3:0|0:0,0:0:0:0:
359,305,16348,2,0,P|404:313|446:294,2,76.6666666666667,8|0|0,0:2|0:0|3:0,0:0:0:0:
395,237,17054,2,0,B|407:196|407:196|387:58,1,153.333333333333,4|0,3:3|0:0,0:0:0:0:
314,78,17760,2,0,P|284:103|229:98,1,76.6666666666667,8|0,0:2|3:0,0:0:0:0:
97,63,18466,6,0,P|132:161|90:239,1,153.333333333333,0|0,3:0|0:0,0:0:0:0:
54,246,19172,2,0,B|106:234|106:234|234:256,1,153.333333333333,8|0,0:2|3:0,0:0:0:0:
260,303,19877,2,0,P|300:276|357:273,1,76.6666666666667,4|0,3:3|0:0,0:0:0:0:
455,356,20583,2,0,P|470:316|460:264,2,76.6666666666667,8|0|0,0:2|0:0|0:0,0:0:0:0:
394,304,21289,6,0,P|386:237|398:121,1,153.333333333333,0|8,3:0|0:0,0:0:0:0:
444,95,21995,1,0,3:3:0:0:
378,56,22230,2,0,P|331:61|292:53,1,76.6666666666667,4|4,0:3|0:3,0:0:0:0:
226,66,22701,2,0,P|181:49|133:53,1,76.6666666666667,4|0,0:3|0:0,0:0:0:0:
49,285,24113,6,0,L|218:277,1,153.333333333333,12|0,3:3|0:0,0:0:0:0:
275,299,24819,2,0,P|300:332|342:344,2,76.6666666666667,8|0|0,0:0|0:0|3:0,0:0:0:0:
345,269,25524,2,0,B|360:221|360:221|335:106,1,153.333333333333,4|0,3:3|0:0,0:0:0:0:
272,80,26230,2,0,P|229:84|169:74,1,76.6666666666667,8|0,0:0|0:0,0:0:0:0:
131,39,26701,1,0,3:0:0:0:
77,93,26936,6,0,B|65:133|65:133|78:166|78:166|65:216|82:256,1,153.333333333333,0|0,3:0|0:0,0:0:0:0:
150,220,27642,1,8,0:2:0:0:
221,192,27877,2,0,P|258:199|312:199,1,76.6666666666667,0|0,0:0|3:0,0:0:0:0:
358,153,28348,2,0,P|322:231|365:302,1,153.333333333333,4|0,3:3|0:0,0:0:0:0:
408,334,29054,1,8,0:2:0:0:
457,275,29289,2,0,P|463:233|456:178,1,76.6666666666667,0|0,3:0|3:0,0:0:0:0:
481,125,29760,6,0,B|473:90|436:77|436:77|406:83|406:83|374:69|342:75,1,153.333333333333,0|0,3:0|0:0,0:0:0:0:
279,95,30466,2,0,P|237:83|196:87,1,76.6666666666667,8|0,0:2|0:0,0:0:0:0:
132,111,30936,1,0,3:0:0:0:
92,176,31172,2,0,B|79:219|79:219|122:344,1,153.333333333333,4|0,3:3|0:0,0:0:0:0:
189,334,31877,2,0,P|223:326|278:336,1,76.6666666666667,8|0,0:2|0:0,0:0:0:0:
416,352,32583,6,0,P|431:316|427:271,1,76.6666666666667,0|0,3:0|0:0,0:0:0:0:
387,214,33054,1,2,0:0:0:0:
437,156,33289,2,0,P|473:83|454:7,1,153.333333333333,2|0,0:2|3:0,0:0:0:0:
391,52,33995,2,0,P|345:51|305:35,1,76.6666666666667,4|0,3:3|3:0,0:0:0:0:
240,30,34466,1,0,3:0:0:0:
169,60,34701,2,0,P|155:90|157:137,1,76.6666666666667,0|0,3:0|3:0,0:0:0:0:
198,197,35172,1,0,3:0:0:0:
224,268,35407,6,0,P|242:305|242:351,2,76.6666666666667,12|0|0,3:3|0:0|0:0,0:0:0:0:
165,320,36113,2,0,B|84:332|84:332|0:307,1,153.333333333333,8|0,0:0|3:0,0:0:0:0:
5,235,36819,2,0,P|6:200|-2:151,1,76.6666666666667,4|0,3:3|0:0,0:0:0:0:
33,90,37289,1,0,0:0:0:0:
103,57,37524,2,0,B|142:46|142:46|276:63,1,153.333333333333,8|0,0:0|3:0,0:0:0:0:
313,108,38230,6,0,P|326:147|317:204,1,76.6666666666667,0|0,3:0|0:0,0:0:0:0:
402,314,38936,2,0,B|358:298|358:298|248:314,1,153.333333333333,8|0,0:2|3:0,0:0:0:0:
193,362,39642,2,0,P|224:278|171:217,1,153.333333333333,4|0,3:3|0:0,0:0:0:0:
131,183,40348,1,8,0:2:0:0:
58,207,40583,1,0,3:0:0:0:
5,150,40819,1,0,3:0:0:0:
41,82,41054,6,0,P|81:63|131:68,1,76.6666666666667,0|0,3:0|0:0,0:0:0:0:
256,117,41760,2,0,B|299:132|299:132|418:121,1,153.333333333333,8|0,0:2|3:0,0:0:0:0:
469,78,42466,2,0,P|433:155|466:227,1,153.333333333333,4|0,3:3|0:0,0:0:0:0:
495,280,43172,2,0,P|493:324|468:359,1,76.6666666666667,8|0,0:2|0:0,0:0:0:0:
323,360,43877,2,0,P|276:292|281:210,1,153.333333333333,0|2,3:0|0:0,0:0:0:0:
328,167,44583,2,0,P|235:180|169:131,1,153.333333333333,2|0,0:2|3:0,0:0:0:0:
129,100,45289,6,0,P|90:103|57:84,1,76.6666666666667,4|0,3:3|3:0,0:0:0:0:
106,25,45760,1,0,3:0:0:0:
182,32,45995,2,0,P|225:36|268:27,1,76.6666666666667,0|0,3:0|3:0,0:0:0:0:
334,30,46466,1,0,3:0:0:0:
393,78,46701,5,12,3:3:0:0:
79,235,49995,5,0,0:0:0:0:
149,204,50230,2,0,P|186:201|242:210,1,76.6666666666667,8|0,0:2|0:0,0:0:0:0:
288,249,50701,1,0,3:0:0:0:
352,208,50936,2,0,B|374:175|374:175|367:56,1,153.333333333333,4|0,3:3|0:0,0:0:0:0:
62,99,52348,6,0,B|48:152|48:152|72:207|72:207|47:264|86:330,1,230,4|8,3:3|0:0,0:0:0:0:
225,271,53524,1,0,3:0:0:0:
278,326,53760,2,0,P|317:328|376:314,2,76.6666666666667,4|0|0,3:3|0:0|0:0,0:0:0:0:
225,271,54466,2,0,B|210:229|210:229|226:104,1,153.333333333333,8|0,0:2|0:0,0:0:0:0:
290,82,55172,1,0,3:0:0:0:
73,337,56583,6,0,P|77:291|64:244,1,76.6666666666667,4|2,3:3|0:2,0:0:0:0:
27,198,57054,1,2,0:2:0:0:
68,133,57289,2,0,P|100:109|160:109,2,76.6666666666667,4|0|0,3:3|0:0|0:0,0:0:0:0:
129,178,57995,6,0,P|201:186|293:179,1,153.333333333333,0|0,3:3|0:0,0:0:0:0:
343,225,58701,2,0,P|341:263|357:306,1,76.6666666666667,8|0,0:0|0:0,0:0:0:0:
414,345,59172,1,0,3:0:0:0:
472,295,59407,2,0,L|462:128,1,153.333333333333,4|0,3:3|0:0,0:0:0:0:
398,100,60113,2,0,B|352:111|352:111|234:90,1,153.333333333333,8|0,0:0|0:0,0:0:0:0:
182,52,60819,6,0,P|208:159|118:219,1,230,0|8,3:0|0:2,0:0:0:0:
31,344,61995,1,0,3:0:0:0:
102,317,62230,2,0,P|137:331|192:319,2,76.6666666666667,4|0|0,3:3|0:0|0:0,0:0:0:0:
147,255,62936,5,8,0:2:0:0:
215,219,63172,2,0,P|257:218|303:232,1,76.6666666666667,0|0,0:0|0:0,0:0:0:0:
345,279,63642,2,0,P|326:231|359:131,1,153.333333333333,0|0,3:0|0:0,0:0:0:0:
422,103,64348,2,0,P|416:61|397:26,1,76.6666666666667,8|0,0:2|0:0,0:0:0:0:
322,16,64819,1,0,3:0:0:0:
258,58,65054,6,0,P|216:62|173:49,2,76.6666666666667,4|0|0,3:3|0:0|0:0,0:0:0:0:
303,119,65760,2,0,B|317:156|317:156|290:277,1,153.333333333333,8|0,0:2|0:0,0:0:0:0:
227,309,66466,1,0,3:0:0:0:
150,316,66701,2,0,P|106:296|81:276,1,76.6666666666667,0|0,0:0|0:0,0:0:0:0:
65,204,67172,6,0,B|54:167|54:167|64:122|64:122|44:76|64:41,1,153.333333333333,2|0,0:2|3:0,0:0:0:0:
129,29,67877,2,0,P|204:56|278:40,1,153.333333333333,4|2,3:3|0:2,0:0:0:0:
324,99,68583,2,0,P|369:109|426:103,2,76.6666666666667,8|0|0,0:2|3:0|0:0,0:0:0:0:
276,159,69289,6,0,P|250:249|367:307,1,230,0|8,3:3|0:0,0:0:0:0:
475,217,70466,1,0,3:0:0:0:
431,154,70701,2,0,P|421:107|427:68,2,76.6666666666667,4|0|0,3:3|0:0|0:0,0:0:0:0:
475,217,71407,2,0,P|417:248|319:221,1,153.333333333333,8|0,0:0|0:0,0:0:0:0:
259,250,72113,6,0,B|211:238|211:238|96:259,1,153.333333333333,0|0,3:0|0:0,0:0:0:0:
58,198,72819,2,0,L|70:101,1,76.6666666666667,8|0,0:2|0:0,0:0:0:0:
99,52,73289,1,0,3:0:0:0:
172,69,73524,2,0,P|256:79|340:65,1,153.333333333333,4|0,3:3|0:0,0:0:0:0:
396,45,74230,5,8,0:2:0:0:
426,115,74466,2,0,P|419:159|432:218,1,76.6666666666667,0|0,3:0|0:0,0:0:0:0:
454,260,74936,2,0,P|420:334|326:342,1,153.333333333333,0|0,3:0|0:0,0:0:0:0:
291,307,75642,2,0,B|200:300|200:300|157:314|157:314|37:309,1,230,8|4,0:2|3:3,0:0:0:0:
17,163,76819,5,0,0:0:0:0:
88,134,77054,2,0,P|119:143|175:130,2,76.6666666666667,8|0|0,0:2|0:0|0:0,0:0:0:0:
127,67,77760,2,0,P|199:40|292:59,1,153.333333333333,0|8,3:0|0:0,0:0:0:0:
336,93,78466,5,0,3:3:0:0:
412,85,78701,2,0,P|455:95|496:86,1,76.6666666666667,4|4,0:3|0:3,0:0:0:0:
498,165,79172,2,0,P|504:213|496:275,1,76.6666666666667,4|0,0:3|0:0,0:0:0:0:
111,343,80583,6,0,P|25:309|23:235,1,153.333333333333,12|0,3:3|0:0,0:0:0:0:
50,188,81289,2,0,P|50:134|42:98,2,76.6666666666667,8|0|0,0:0|0:0|3:0,0:0:0:0:
123,209,81995,2,0,B|167:220|167:220|290:188,1,153.333333333333,4|0,3:3|0:0,0:0:0:0:
308,125,82701,1,8,0:0:0:0:
375,161,82936,2,0,P|414:169|456:158,1,76.6666666666667,0|0,0:0|3:0,0:0:0:0:
501,104,83407,6,0,L|497:280,1,153.333333333333,0|0,3:0|0:0,0:0:0:0:
465,327,84113,2,0,P|426:317|387:319,1,76.6666666666667,8|0,0:2|0:0,0:0:0:0:
325,360,84583,1,0,3:0:0:0:
248,362,84819,2,0,P|154:330|148:274,1,153.333333333333,4|0,3:3|0:0,0:0:0:0:
148,210,85524,1,8,0:2:0:0:
223,200,85760,2,0,P|265:201|315:193,1,76.6666666666667,0|0,3:0|3:0,0:0:0:0:
373,177,86230,6,0,B|379:140|379:140|369:103|369:103|392:55|379:22,1,153.333333333333,0|0,3:0|0:0,0:0:0:0:
307,50,86936,2,0,P|264:55|222:37,1,76.6666666666667,8|0,0:2|0:0,0:0:0:0:
158,27,87407,1,0,3:0:0:0:
103,80,87642,2,0,B|101:253,1,153.333333333333,4|0,3:3|0:0,0:0:0:0:
112,309,88348,2,0,P|158:315|197:309,1,76.6666666666667,8|0,0:2|0:0,0:0:0:0:
335,351,89054,6,0,P|322:306|325:252,2,76.6666666666667,0|0|2,3:0|0:0|0:0,0:0:0:0:
410,366,89760,2,0,P|463:308|453:205,1,153.333333333333,2|0,0:2|3:0,0:0:0:0:
417,177,90466,2,0,P|411:135|422:100,1,76.6666666666667,4|0,3:3|3:0,0:0:0:0:
462,38,90936,1,0,3:0:0:0:
383,33,91172,2,0,L|292:35,1,76.6666666666667,0|0,3:0|3:0,0:0:0:0:
249,86,91642,1,0,3:0:0:0:
190,135,91877,6,0,P|116:191|51:178,1,153.333333333333,12|0,3:3|0:0,0:0:0:0:
7,127,92583,2,0,B|25:171|25:171|-5:296,1,153.333333333333,8|0,0:0|3:0,0:0:0:0:
29,344,93289,2,0,P|119:360|188:324,1,153.333333333333,4|0,3:3|0:0,0:0:0:0:
234,289,93995,1,8,0:0:0:0:
286,232,94230,1,0,0:0:0:0:
277,155,94466,1,0,3:0:0:0:
237,89,94701,6,0,P|296:29|381:24,1,153.333333333333,0|0,3:0|0:0,0:0:0:0:
415,74,95407,2,0,P|408:110|420:181,1,76.6666666666667,8|0,0:2|0:0,0:0:0:0:
442,219,95877,1,0,3:0:0:0:
399,283,96113,2,0,B|359:311|359:311|230:304,1,153.333333333333,4|0,3:3|0:0,0:0:0:0:
194,257,96819,2,0,P|193:213|186:175,2,76.6666666666667,8|0|0,0:2|3:0|3:0,0:0:0:0:
136,307,97524,6,0,P|89:304|45:284,1,76.6666666666667,0|0,3:0|0:0,0:0:0:0:
16,231,97995,1,0,0:0:0:0:
48,162,98230,2,0,P|39:123|38:57,2,76.6666666666667,8|0|0,0:2|0:0|3:0,0:0:0:0:
119,190,98936,2,0,B|166:204|166:204|301:185,1,153.333333333333,4|0,3:3|0:0,0:0:0:0:
338,155,99642,1,8,0:2:0:0:
395,205,99877,2,0,P|407:240|409:298,1,76.6666666666667,0|0,0:0|0:0,0:0:0:0:
360,337,100348,6,0,B|298:343|298:343|271:333|271:333|176:340,1,153.333333333333,0|2,3:0|0:0,0:0:0:0:
134,355,101054,2,0,P|81:335|61:297,1,76.6666666666667,2|0,0:2|0:0,0:0:0:0:
24,258,101524,1,0,3:0:0:0:
56,188,101760,2,0,P|68:139|53:85,1,76.6666666666667,4|0,3:3|3:0,0:0:0:0:
33,43,102230,1,0,3:0:0:0:
108,28,102466,2,0,L|209:30,2,76.6666666666667,0|0|0,3:0|3:0|3:0,0:0:0:0:
156,325,104583,6,0,P|226:287|301:312,1,153.333333333333,8|0,3:3|0:0,0:0:0:0:
352,354,105288,2,0,P|434:351|491:290,1,153.333333333333,8|0,0:0|3:3,0:0:0:0:
471,229,105994,2,0,P|416:221|309:173,1,153.333333333333,4|2,3:3|0:0,0:0:0:0:
266,135,106700,2,0,P|241:165|177:184,1,76.6666666666667,8|0,0:0|0:0,0:0:0:0:
58,218,107406,6,0,P|24:299|86:365,1,153.333333333333,0|2,3:0|0:0,0:0:0:0:
131,345,108112,2,0,B|173:332|173:332|288:349,1,153.333333333333,8|0,0:2|0:0,0:0:0:0:
357,357,108818,2,0,P|422:355|458:251,1,153.333333333333,4|2,3:3|0:0,0:0:0:0:
425,219,109524,2,0,P|425:174|436:139,1,76.6666666666667,8|0,0:2|0:0,0:0:0:0:
302,222,110230,6,0,P|238:222|123:215,1,153.333333333333,0|0,3:0|0:0,0:0:0:0:
75,194,110935,2,0,P|62:103|81:38,1,153.333333333333,8|0,0:2|0:0,0:0:0:0:
154,36,111641,2,0,P|196:35|240:43,1,76.6666666666667,4|0,3:3|0:0,0:0:0:0:
328,166,112347,2,0,B|370:178|370:178|516:162,1,153.333333333333,8|2,0:2|0:0,0:0:0:0:
503,238,113053,6,0,P|463:302|393:330,1,153.333333333333,0|2,3:0|0:0,0:0:0:0:
322,300,113759,2,0,P|245:288|159:308,1,153.333333333333,2|0,0:2|3:0,0:0:0:0:
95,294,114465,2,0,B|81:254|81:254|96:144,1,153.333333333333,4|2,3:3|0:2,0:0:0:0:
148,87,115171,2,0,P|193:64|246:76,1,76.6666666666667,8|0,0:2|3:0,0:0:0:0:
370,79,115877,6,0,L|373:251,1,153.333333333333,4|0,3:3|0:0,0:0:0:0:
340,302,116583,2,0,P|309:325|272:334,1,76.6666666666667,8|0,0:0|0:0,0:0:0:0:
201,307,117053,1,0,3:0:0:0:
127,328,117288,2,0,P|83:335|46:331,1,76.6666666666667,4|2,3:3|0:0,0:0:0:0:
30,257,117759,1,0,3:0:0:0:
64,188,117994,2,0,P|61:145|36:96,1,76.6666666666667,8|0,0:0|0:0,0:0:0:0:
199,85,118700,6,0,B|235:58|235:58|356:68,1,153.333333333333,0|2,3:0|0:0,0:0:0:0:
407,24,119406,2,0,P|420:59|418:97,1,76.6666666666667,8|0,0:2|0:0,0:0:0:0:
373,159,119877,1,0,3:0:0:0:
328,221,120112,2,0,P|314:255|321:309,2,76.6666666666667,4|2|2,3:3|0:0|0:0,0:0:0:0:
388,267,120818,2,0,P|428:277|481:263,1,76.6666666666667,8|0,0:2|0:0,0:0:0:0:
341,365,121524,6,0,L|181:368,1,153.333333333333,0|2,3:0|0:0,0:0:0:0:
110,363,122230,2,0,P|121:326|122:288,1,76.6666666666667,8|0,0:2|0:0,0:0:0:0:
77,226,122700,1,0,3:0:0:0:
137,178,122935,2,0,B|177:194|177:194|299:177,1,153.333333333333,4|2,3:3|0:0,0:0:0:0:
338,235,123641,2,0,P|372:250|446:252,1,76.6666666666667,8|0,0:2|0:0,0:0:0:0:
508,374,124347,6,0,P|490:283|511:219,1,153.333333333333,0|8,3:0|0:0,0:0:0:0:
476,155,125053,2,0,B|426:141|426:141|288:165,1,153.333333333333,8|2,0:0|0:0,0:0:0:0:
256,124,125759,2,0,P|245:90|243:17,2,76.6666666666667,4|0|8,0:3|0:0|0:0,0:0:0:0:
194,170,126465,2,0,P|191:223|204:336,1,153.333333333333,2|2,0:2|0:0,0:0:0:0:
256,192,127171,12,2,128582,0:1:0:0:
41,216,129994,6,0,B|102:222|102:222|130:213|130:213|206:219,1,153.333333333333,12|0,3:3|0:0,0:0:0:0:
255,261,130700,2,0,P|280:292|327:308,2,76.6666666666667,8|0|0,0:0|0:0|3:0,0:0:0:0:
325,230,131406,2,0,P|331:150|328:49,1,153.333333333333,4|0,3:3|0:0,0:0:0:0:
264,36,132112,2,0,P|224:54|179:44,1,76.6666666666667,8|0,0:0|0:0,0:0:0:0:
116,38,132582,1,0,3:0:0:0:
41,55,132818,6,0,B|35:92|35:92|50:136|50:136|33:170|46:221,1,153.333333333333,0|0,3:0|0:0,0:0:0:0:
99,255,133524,2,0,P|138:252|189:264,1,76.6666666666667,8|0,0:2|0:0,0:0:0:0:
250,266,133994,1,0,3:0:0:0:
302,322,134230,2,0,P|384:362|453:324,1,153.333333333333,4|0,3:3|0:0,0:0:0:0:
494,290,134935,1,8,0:2:0:0:
451,226,135171,2,0,P|444:181|455:139,1,76.6666666666667,0|0,3:0|3:0,0:0:0:0:
506,99,135641,6,0,B|464:110|464:110|337:97,1,153.333333333333,0|0,3:0|0:0,0:0:0:0:
289,57,136347,2,0,P|263:89|221:117,1,76.6666666666667,8|0,0:2|0:0,0:0:0:0:
165,77,136818,1,0,3:0:0:0:
110,131,137053,2,0,L|112:288,1,153.333333333333,4|0,3:3|0:0,0:0:0:0:
106,361,137759,2,0,P|142:363|191:355,1,76.6666666666667,8|0,0:2|0:0,0:0:0:0:
340,362,138465,6,0,P|319:319|322:272,2,76.6666666666667,0|0|2,3:0|0:0|0:0,0:0:0:0:
393,306,139171,2,0,B|411:267|411:267|399:127,1,153.333333333333,2|0,0:2|3:0,0:0:0:0:
333,122,139877,1,4,3:3:0:0:
258,137,140112,2,0,P|217:144|174:130,1,76.6666666666667,0|0,3:0|3:0,0:0:0:0:
107,129,140582,2,0,P|86:162|71:223,1,76.6666666666667,0|0,3:0|3:0,0:0:0:0:
113,263,141053,1,0,3:0:0:0:
165,319,141288,6,0,L|352:314,1,153.333333333333,12|0,3:3|0:0,0:0:0:0:
392,334,141994,2,0,P|435:337|491:327,1,76.6666666666667,8|0,0:0|0:0,0:0:0:0:
510,274,142465,1,0,3:0:0:0:
472,207,142700,2,0,B|450:167|450:167|465:37,1,153.333333333333,4|0,3:3|0:0,0:0:0:0:
395,21,143406,1,8,0:0:0:0:
328,59,143641,2,0,P|291:80|246:88,1,76.6666666666667,0|0,0:0|3:0,0:0:0:0:
201,36,144112,6,0,P|214:121|183:203,1,153.333333333333,0|0,3:0|0:0,0:0:0:0:
125,218,144818,2,0,P|121:256|136:304,1,76.6666666666667,8|0,0:2|0:0,0:0:0:0:
191,339,145288,1,0,3:0:0:0:
266,323,145524,2,0,P|301:331|355:327,2,76.6666666666667,4|0|0,3:3|0:0|0:0,0:0:0:0:
255,246,146230,1,8,0:2:0:0:
309,192,146465,2,0,P|312:157|301:98,1,76.6666666666667,0|0,3:0|3:0,0:0:0:0:
246,69,146935,6,0,P|170:113|102:102,1,153.333333333333,0|0,3:0|0:0,0:0:0:0:
33,125,147641,2,0,P|18:169|31:228,1,76.6666666666667,8|0,0:2|0:0,0:0:0:0:
43,271,148112,1,0,3:0:0:0:
96,326,148347,2,0,B|135:339|135:339|285:315,1,153.333333333333,4|0,3:3|0:0,0:0:0:0:
313,284,149053,2,0,P|347:306|396:299,2,76.6666666666667,8|0|0,0:2|0:0|0:0,0:0:0:0:
256,192,149759,12,0,152347,3:0:0:0:
