osu file format v14

[General]
AudioFilename: audio.mp3
AudioLeadIn: 0
PreviewTime: 23995
Countdown: 0
SampleSet: Soft
StackLeniency: 0.7
Mode: 0
LetterboxInBreaks: 0
WidescreenStoryboard: 1

[Editor]
Bookmarks: 819,1525,24113,46701,55172,56583,57995,80583,103172,104583,129995,152582
DistanceSpacing: 0.8
BeatDivisor: 12
GridSize: 32
TimelineZoom: 3.999998

[Metadata]
Title:Nikto krome ty (Letnyaya pesnya)
TitleUnicode:Никто кроме ты (Летняя песня)
Artist:Bianka
ArtistUnicode:Бьянка
Creator:Sieg
Version:Hard
Source:
Tags:hip-hop pop nobody besides you summer song russian namki signum
BeatmapID:1024769
BeatmapSetID:479965

[Difficulty]
HPDrainRate:6
CircleSize:4
OverallDifficulty:7
ApproachRate:8
SliderMultiplier:3.2
SliderTickRate:1

[Events]
//Background and Video events
0,0,"bg.jpg",0,0
//Break Periods
//Storyboard Layer 0 (Background)
//Storyboard Layer 1 (Fail)
//Storyboard Layer 2 (Pass)
//Storyboard Layer 3 (Foreground)
//Storyboard Sound Samples

[TimingPoints]
1525,705.882352941176,4,2,1,60,1,0
24113,-100,4,2,1,60,0,1
35289,-100,4,2,1,60,0,0
35407,-100,4,2,1,60,0,1
46583,-100,4,2,1,60,0,0
46701,-100,4,2,1,60,0,1
46819,-100,4,2,1,60,0,0
56583,-100,4,2,1,30,0,0
56819,-100,4,2,1,40,0,0
57054,-100,4,2,1,50,0,0
57289,-100,4,2,1,60,0,0
80583,-100,4,2,1,60,0,1
91760,-100,4,2,1,60,0,0
91877,-100,4,2,1,60,0,1
103054,-100,4,2,1,60,0,0
104583,705.882352941176,4,2,1,60,1,0
129994,-100,4,2,1,60,0,1
141171,-100,4,2,1,60,0,0
141288,-100,4,2,1,60,0,1
152465,-100,4,2,1,60,0,0

[Colours]
Combo1 : 109,146,155
Combo2 : 232,208,169
Combo3 : 183,175,163
Combo4 : 187,215,210
Combo5 : 215,218,215
Combo6 : 172,209,233
SliderBorder : 242,240,230

[HitObjects]
335,339,819,5,2,0:1:0:0:
335,339,1525,2,0,P|436:350|483:169,1,320,0|8,3:3|0:0,0:0:0:0:
333,39,2701,1,0,3:0:0:0:
311,121,2936,1,4,3:3:0:0:
52,110,3642,1,8,0:0:0:0:
11,35,3877,2,0,P|135:88|121:161,1,213.333333333333,0|0,0:0|3:0,0:0:0:0:
24,364,5054,5,8,0:2:0:0:
52,110,5524,1,0,3:0:0:0:
96,189,5760,2,0,P|230:181|242:108,1,213.333333333333,4|0,3:3|0:0,0:0:0:0:
339,158,6466,2,0,P|456:92|435:21,1,213.333333333333,8|0,0:2|0:0,0:0:0:0:
371,78,7172,1,0,3:0:0:0:
160,132,7701,6,0,P|118:119|67:129,1,80,0|8,0:0|0:2,0:0:0:0:
291,190,8348,2,0,P|342:164|404:165,1,106.666666666667,0|4,3:0|3:3,0:0:0:0:
199,52,9054,1,0,0:0:0:0:
232,143,9289,2,0,B|192:199|232:239|232:247|272:287|232:343,1,213.333333333333,8|0,0:2|0:0,0:0:0:0:
123,359,9995,2,0,P|117:298|85:256,1,106.666666666667,0|0,3:0|0:0,0:0:0:0:
5,164,10466,5,0,0:0:0:0:
5,164,10701,2,0,P|11:103|43:61,1,106.666666666667,2|2,0:2|0:2,0:0:0:0:
151,111,11172,1,0,3:0:0:0:
151,111,11407,2,0,P|205:83|258:88,1,106.666666666667,4|2,3:3|0:2,0:0:0:0:
223,189,11877,1,2,0:2:0:0:
321,269,12113,1,8,0:2:0:0:
315,144,12348,1,0,3:0:0:0:
92,261,12819,6,0,B|115:299|165:321|218:289|218:289|234:350|276:379|324:383|376:362,1,320,0|8,3:3|0:0,0:0:0:0:
501,189,13995,1,0,3:0:0:0:
489,104,14230,1,4,3:3:0:0:
330,40,14701,1,0,0:0:0:0:
277,107,14936,2,0,P|259:156|272:225,1,106.666666666667,8|0,0:0|0:0,0:0:0:0:
388,268,15407,1,0,0:0:0:0:
321,321,15642,1,0,3:0:0:0:
124,268,16113,5,0,0:0:0:0:
191,321,16348,1,8,0:2:0:0:
256,128,16819,1,0,3:0:0:0:
264,213,17054,2,0,P|337:144|295:52,1,213.333333333333,4|0,3:3|0:0,0:0:0:0:
207,41,17760,1,8,0:2:0:0:
120,77,17995,1,0,3:0:0:0:
32,53,18230,1,0,0:0:0:0:
1,132,18466,6,0,B|131:236|223:117|186:135|86:196|135:293,1,320,0|8,3:0|0:2,0:0:0:0:
316,367,19642,1,0,3:0:0:0:
234,333,19877,2,0,P|211:277|225:212,1,106.666666666667,4|0,3:3|0:0,0:0:0:0:
306,266,20348,1,0,0:0:0:0:
307,173,20583,2,0,B|330:126|381:124|381:124|428:153|461:150|506:128,1,213.333333333333,8|0,0:2|0:0,0:0:0:0:
377,213,21289,2,0,P|368:100|450:63,1,213.333333333333,0|8,3:0|0:0,0:0:0:0:
317,29,21995,5,0,3:3:0:0:
215,130,22230,1,4,0:3:0:0:
62,146,22466,1,4,0:3:0:0:
212,39,22701,1,4,0:3:0:0:
334,233,23230,2,0,L|378:247,2,26.6666666666667,0|0|2,0:0|0:0|0:2,0:0:0:0:
294,241,23407,1,0,0:0:0:0:
18,107,24113,6,0,P|138:41|196:87,1,213.333333333333,12|0,3:3|0:0,0:0:0:0:
175,170,24819,2,0,L|297:149,1,106.666666666667,8|0,0:0|0:0,0:0:0:0:
333,218,25289,1,0,3:0:0:0:
390,280,25524,2,0,L|512:259,1,106.666666666667,4|0,3:3|0:0,0:0:0:0:
364,98,26230,1,8,0:0:0:0:
289,56,26466,1,0,0:0:0:0:
214,97,26701,1,0,3:0:0:0:
129,91,26936,6,0,P|229:180|289:136,1,213.333333333333,0|0,3:0|0:0,0:0:0:0:
214,97,27642,1,8,0:2:0:0:
50,322,28113,1,0,3:0:0:0:
114,266,28348,2,0,B|143:239|190:237|236:263|244:318|244:318|267:280|304:274|333:266|382:304,1,320,4|8,3:3|0:2,0:0:0:0:
316,362,29289,1,0,3:0:0:0:
408,380,29524,1,0,3:0:0:0:
482,330,29760,2,0,P|468:277|488:202,1,106.666666666667,0|0,3:0|0:0,0:0:0:0:
505,55,30466,5,8,0:2:0:0:
386,224,30936,1,0,3:0:0:0:
437,155,31172,2,0,P|375:35|303:54,1,213.333333333333,4|0,3:3|0:0,0:0:0:0:
254,114,31877,2,0,P|195:101|133:133,1,106.666666666667,8|0,0:2|0:0,0:0:0:0:
359,120,32583,5,0,3:0:0:0:
140,41,33054,1,2,0:0:0:0:
56,24,33289,1,2,0:2:0:0:
182,168,33760,5,0,3:0:0:0:
54,254,33995,1,4,3:3:0:0:
77,145,34230,1,0,3:0:0:0:
131,284,34466,1,0,3:0:0:0:
31,333,34701,1,0,3:0:0:0:
117,211,34936,1,0,3:0:0:0:
244,266,35171,1,0,3:0:0:0:
273,114,35407,6,0,P|351:39|443:74,1,213.333333333333,12|0,3:3|0:0,0:0:0:0:
495,144,36113,2,0,L|505:259,1,106.666666666667,8|0,0:0|0:0,0:0:0:0:
472,336,36583,1,0,3:0:0:0:
381,314,36819,2,0,L|371:199,1,106.666666666667,4|0,3:3|0:0,0:0:0:0:
285,37,37524,1,8,0:0:0:0:
240,110,37760,1,0,0:0:0:0:
249,194,37995,1,0,3:0:0:0:
296,268,38230,6,0,P|169:223|177:149,1,213.333333333333,0|0,3:0|0:0,0:0:0:0:
249,194,38936,1,8,0:2:0:0:
112,350,39407,1,0,3:0:0:0:
53,287,39642,2,0,B|13:231|53:191|53:183|93:143|53:87,1,213.333333333333,4|0,3:3|0:0,0:0:0:0:
114,26,40348,1,8,0:2:0:0:
163,95,40583,1,0,3:0:0:0:
242,125,40818,1,0,3:0:0:0:
325,107,41054,5,0,3:0:0:0:
395,58,41289,2,0,B|435:114|395:154|395:162|355:202|395:258,1,213.333333333333,0|8,0:0|0:2,0:0:0:0:
217,340,42230,1,0,3:0:0:0:
156,279,42466,2,0,P|189:158|278:150,1,213.333333333333,4|0,3:3|0:0,0:0:0:0:
332,210,43171,2,0,P|390:219|444:193,1,106.666666666667,8|0,0:2|0:0,0:0:0:0:
276,57,43877,1,0,3:0:0:0:
235,234,44348,1,2,0:0:0:0:
253,317,44583,1,2,0:2:0:0:
375,130,45054,5,0,3:0:0:0:
347,44,45289,1,4,3:3:0:0:
259,24,45524,1,0,3:0:0:0:
191,87,45759,1,0,3:0:0:0:
218,176,45995,1,0,3:0:0:0:
206,263,46230,1,0,3:0:0:0:
119,299,46465,1,0,3:0:0:0:
42,244,46700,1,12,3:3:0:0:
453,326,47407,6,0,P|478:277|473:225,1,106.666666666667,8|0,0:0|0:0,0:0:0:0:
451,136,47877,1,0,3:0:0:0:
363,109,48113,2,0,B|348:173|348:173|272:162|275:103|284:61|313:27|365:23|402:43,1,320,4|8,3:3|0:0,0:0:0:0:
451,136,49054,1,2,0:1:0:0:
341,348,49524,1,0,3:0:0:0:
142,268,49995,5,0,0:0:0:0:
171,348,50230,1,8,0:2:0:0:
341,348,50701,1,0,3:0:0:0:
364,266,50936,1,4,3:3:0:0:
291,229,51172,1,0,0:0:0:0:
240,296,51407,2,0,L|124:312,1,106.666666666667,0|8,0:0|0:2,0:0:0:0:
80,236,51877,2,0,P|55:187|60:135,1,106.666666666667,0|0,3:0|0:0,0:0:0:0:
149,109,52348,6,0,B|164:173|164:173|240:162|237:103|228:61|199:27|147:23|110:43,1,320,4|8,3:3|0:0,0:0:0:0:
49,243,53524,1,0,3:0:0:0:
116,301,53760,2,0,B|130:330|181:348|218:336|256:304|256:304|294:336|331:348|382:330|396:301,1,320,4|8,3:3|0:2,0:0:0:0:
308,146,54936,1,0,0:0:0:0:
329,235,55172,1,0,3:0:0:0:
177,339,56583,5,4,3:3:0:0:
177,339,56819,1,2,0:2:0:0:
177,339,57054,1,2,0:2:0:0:
177,339,57289,1,4,3:3:0:0:
177,339,57995,6,0,P|76:350|50:171,1,320,0|8,3:3|0:0,0:0:0:0:
142,29,59171,1,0,3:0:0:0:
164,111,59406,1,4,3:3:0:0:
258,331,59877,1,0,0:0:0:0:
236,249,60112,1,8,0:0:0:0:
318,266,60347,2,0,P|364:261|415:290,1,106.666666666667,0|0,0:0|0:0,0:0:0:0:
445,370,60819,2,0,B|502:346|515:286|496:239|457:218|457:218|489:178|479:141|461:115|436:102,1,320,0|8,3:0|0:2,0:0:0:0:
414,289,61994,5,0,3:0:0:0:
335,334,62230,2,0,P|224:258|251:189,1,213.333333333333,4|0,3:3|0:0,0:0:0:0:
155,176,62936,2,0,P|32:120|47:47,1,213.333333333333,8|0,0:2|0:0,0:0:0:0:
127,26,63642,2,0,L|242:33,1,106.666666666667,0|0,3:0|0:0,0:0:0:0:
233,32,64348,5,8,0:2:0:0:
330,183,64818,2,0,P|381:157|442:162,1,106.666666666667,0|4,3:0|3:3,0:0:0:0:
256,136,65759,2,0,B|216:192|256:232|256:240|296:280|256:336,1,213.333333333333,8|0,0:2|0:0,0:0:0:0:
172,288,66465,2,0,P|111:294|69:326,1,106.666666666667,0|0,3:0|0:0,0:0:0:0:
20,239,66936,5,0,0:0:0:0:
20,239,67171,2,0,L|30:133,1,106.666666666667,2|2,0:2|0:2,0:0:0:0:
122,68,67642,1,0,3:0:0:0:
122,68,67877,2,0,L|112:174,1,106.666666666667,4|2,3:3|0:2,0:0:0:0:
158,260,68347,1,2,0:2:0:0:
249,314,68583,1,8,0:2:0:0:
355,207,68819,1,0,3:0:0:0:
249,213,69055,1,0,0:0:0:0:
391,282,69289,6,0,B|429:259|451:209|419:156|419:156|480:140|509:98|513:50|492:-2,1,320,0|8,3:3|0:0,0:0:0:0:
317,65,70466,1,0,3:0:0:0:
402,53,70701,1,4,3:3:0:0:
231,55,71171,1,0,0:0:0:0:
154,19,71406,2,0,P|144:70|186:122,1,106.666666666667,8|0,0:0|0:0,0:0:0:0:
230,176,71877,1,0,0:0:0:0:
213,259,72112,1,0,3:0:0:0:
48,347,72583,5,0,0:0:0:0:
65,264,72818,1,8,0:2:0:0:
266,272,73289,1,0,3:0:0:0:
227,350,73524,2,0,P|326:335|344:236,1,213.333333333333,4|0,3:3|0:0,0:0:0:0:
281,178,74230,1,8,0:2:0:0:
296,93,74466,1,0,3:0:0:0:
362,40,74700,5,0,0:0:0:0:
448,52,74936,2,0,B|488:108|448:148|448:156|408:196|448:252,1,213.333333333333,0|0,3:0|0:0,0:0:0:0:
498,321,75642,1,8,0:2:0:0:
304,358,76112,1,0,3:0:0:0:
245,295,76347,2,0,P|189:272|128:287,1,106.666666666667,4|0,3:3|0:0,0:0:0:0:
64,309,76818,5,0,0:0:0:0:
31,229,77054,2,0,B|-9:173|31:133|31:125|71:85|31:29,1,213.333333333333,8|0,0:2|0:0,0:0:0:0:
127,116,77759,2,0,P|240:125|277:43,1,213.333333333333,0|8,3:0|0:0,0:0:0:0:
188,50,78465,5,0,3:3:0:0:
286,131,78700,1,4,0:3:0:0:
273,266,78936,1,4,0:3:0:0:
365,130,79171,1,4,0:3:0:0:
100,85,79701,2,0,L|85:50,2,26.6666666666667,0|0|2,0:0|0:0|0:2,0:0:0:0:
127,116,79877,1,0,0:0:0:0:
240,297,80583,6,0,P|376:310|411:245,1,213.333333333333,12|0,3:3|0:0,0:0:0:0:
417,174,81289,2,0,P|474:166|515:122,1,106.666666666667,8|0,0:0|0:0,0:0:0:0:
434,91,81759,1,0,3:0:0:0:
373,31,81994,2,0,L|251:52,1,106.666666666667,4|0,3:3|0:0,0:0:0:0:
417,174,82700,1,8,0:0:0:0:
337,212,82936,1,0,0:0:0:0:
287,285,83171,1,0,3:0:0:0:
353,339,83406,6,0,P|219:331|207:258,1,213.333333333333,0|0,3:0|0:0,0:0:0:0:
287,285,84112,1,8,0:2:0:0:
116,293,84583,1,0,3:0:0:0:
85,365,84818,2,0,B|48:350|25:309|28:256|74:225|74:225|63:182,1,213.333333333333,4|0,3:3|0:0,0:0:0:0:
44,101,85524,1,8,0:2:0:0:
125,125,85759,1,0,3:0:0:0:
207,103,85994,1,0,3:0:0:0:
259,35,86230,6,0,P|312:21|376:51,1,106.666666666667,0|0,3:0|0:0,0:0:0:0:
506,124,86936,1,8,0:2:0:0:
307,99,87406,1,0,3:0:0:0:
382,143,87642,2,0,P|402:276|332:303,1,213.333333333333,4|0,3:3|0:0,0:0:0:0:
264,338,88347,2,0,L|272:232,1,106.666666666667,8|0,0:2|0:0,0:0:0:0:
380,63,89053,5,0,3:0:0:0:
183,39,89524,1,2,0:0:0:0:
99,22,89759,1,2,0:2:0:0:
232,147,90230,5,0,3:0:0:0:
345,92,90465,1,4,3:3:0:0:
365,194,90700,1,0,3:0:0:0:
275,298,90936,1,0,3:0:0:0:
292,195,91171,1,0,3:0:0:0:
348,337,91407,1,0,3:0:0:0:
218,357,91642,1,0,3:0:0:0:
109,284,91877,6,0,P|65:226|124:97,1,213.333333333333,12|0,3:3|0:0,0:0:0:0:
194,121,92583,2,0,L|204:236,1,106.666666666667,8|0,0:0|0:0,0:0:0:0:
250,298,93053,1,0,3:0:0:0:
329,329,93289,2,0,P|332:275|301:231,1,106.666666666667,4|0,3:3|0:0,0:0:0:0:
400,92,93994,1,8,0:0:0:0:
366,172,94230,1,0,0:0:0:0:
377,259,94465,1,0,3:0:0:0:
329,329,94701,6,0,P|456:284|448:210,1,213.333333333333,0|0,3:0|0:0,0:0:0:0:
377,259,95406,1,8,0:2:0:0:
112,350,95877,1,0,3:0:0:0:
62,280,96112,2,0,B|62:228|62:228|62:136|186:136|190:188,1,213.333333333333,4|0,3:3|0:0,0:0:0:0:
140,234,96818,1,8,0:2:0:0:
221,258,97053,1,0,3:0:0:0:
295,217,97288,1,0,3:0:0:0:
312,133,97524,5,0,3:0:0:0:
361,63,97759,2,0,B|305:23|265:63|257:63|217:103|161:63,1,213.333333333333,0|8,0:0|0:2,0:0:0:0:
312,133,98700,1,0,3:0:0:0:
361,63,98936,2,0,P|482:96|490:185,1,213.333333333333,4|0,3:3|0:0,0:0:0:0:
444,237,99641,2,0,L|456:350,1,106.666666666667,8|0,0:2|0:0,0:0:0:0:
403,148,100348,5,0,3:0:0:0:
229,255,100818,1,2,0:0:0:0:
247,338,101053,1,2,0:2:0:0:
73,269,101524,5,0,3:0:0:0:
32,188,101759,1,4,3:3:0:0:
80,111,101994,1,0,3:0:0:0:
173,107,102229,1,0,3:0:0:0:
216,190,102465,1,0,3:0:0:0:
292,242,102700,1,0,3:0:0:0:
380,206,102935,1,0,3:0:0:0:
220,348,104583,5,8,3:3:0:0:
220,348,105288,2,0,P|322:293|420:335,1,213.333333333333,8|0,0:0|3:3,0:0:0:0:
476,275,105994,1,4,3:3:0:0:
351,158,106465,1,2,0:0:0:0:
329,240,106700,1,8,0:0:0:0:
161,158,107171,5,0,0:0:0:0:
183,240,107406,1,0,3:0:0:0:
245,161,107641,2,0,P|235:114|186:76,1,106.666666666667,0|2,0:0|0:0,0:0:0:0:
161,158,108113,2,0,P|36:180|14:16,1,320,8|4,0:2|3:3,0:0:0:0:
207,52,109288,1,2,0:0:0:0:
274,105,109524,2,0,P|408:97|420:24,1,213.333333333333,8|0,0:2|3:0,0:0:0:0:
337,43,110230,6,0,P|299:95|342:229,1,213.333333333333,0|0,3:0|0:0,0:0:0:0:
409,279,110936,2,0,P|423:237|393:160,1,106.666666666667,8|0,0:2|0:0,0:0:0:0:
226,221,111642,1,4,3:3:0:0:
247,303,111877,1,0,0:0:0:0:
179,355,112112,2,0,L|66:336,1,106.666666666667,2|8,0:0|0:2,0:0:0:0:
22,161,112818,5,2,0:0:0:0:
90,214,113053,2,0,B|130:158|90:118|90:110|50:70|90:14,1,213.333333333333,0|2,3:0|0:0,0:0:0:0:
157,66,113759,2,0,L|270:85,1,106.666666666667,2|2,0:2|0:2,0:0:0:0:
347,39,114230,5,0,3:0:0:0:
347,39,114465,2,0,P|408:45|450:77,1,106.666666666667,4|2,3:3|0:2,0:0:0:0:
400,185,114936,1,2,0:2:0:0:
400,185,115171,2,0,P|428:239|423:292,1,106.666666666667,8|0,0:2|3:0,0:0:0:0:
322,257,115641,1,0,3:0:0:0:
242,355,115877,1,4,3:3:0:0:
284,152,116347,5,0,0:0:0:0:
354,102,116583,2,0,B|331:55|280:53|280:53|233:82|200:79|155:57,1,213.333333333333,8|0,0:0|3:0,0:0:0:0:
56,23,117288,1,4,3:3:0:0:
137,147,117524,1,2,0:0:0:0:
2,78,117759,1,0,3:0:0:0:
86,221,117994,2,0,P|142:236|217:112,1,213.333333333333,8|0,0:0|0:0,0:0:0:0:
288,31,118700,6,0,L|300:146,1,106.666666666667,0|0,3:0|0:0,0:0:0:0:
290,222,119171,1,2,0:0:0:0:
298,302,119406,1,8,0:2:0:0:
78,350,119877,1,0,3:0:0:0:
184,271,120112,1,4,3:3:0:0:
23,289,120347,1,2,0:0:0:0:
203,345,120583,1,2,0:0:0:0:
62,221,120818,2,0,P|66:161|201:132,1,213.333333333333,8|0,0:2|0:0,0:0:0:0:
277,215,121524,5,0,3:0:0:0:
241,64,121759,1,2,0:0:0:0:
143,196,121994,1,2,0:0:0:0:
328,153,122230,1,8,0:2:0:0:
463,365,122700,5,0,3:0:0:0:
321,341,122935,1,4,3:3:0:0:
358,209,123171,1,2,0:0:0:0:
495,174,123406,1,2,0:0:0:0:
399,314,123641,1,8,0:2:0:0:
290,125,124112,5,0,0:0:0:0:
374,114,124347,2,0,P|328:203|228:188,1,213.333333333333,0|8,3:0|0:0,0:0:0:0:
183,116,125053,2,0,P|95:166|20:99,1,213.333333333333,8|2,0:0|0:0,0:0:0:0:
105,79,125759,1,4,0:3:0:0:
186,275,126230,5,8,0:0:0:0:
256,322,126465,2,0,B|295:267|256:226|256:218|216:178|256:122,1,213.333333333333,2|2,0:2|0:0,0:0:0:0:
313,58,127171,1,4,0:3:0:0:
256,192,127406,12,2,129288,0:1:0:0:
457,204,129994,6,0,P|476:335|406:368,1,213.333333333333,12|0,3:3|0:0,0:0:0:0:
350,319,130700,2,0,P|305:343|233:327,1,106.666666666667,8|0,0:0|0:0,0:0:0:0:
178,292,131170,1,0,3:0:0:0:
106,339,131406,2,0,P|61:363|-11:347,1,106.666666666667,4|0,3:3|0:0,0:0:0:0:
152,205,132111,1,8,0:0:0:0:
202,133,132347,1,0,0:0:0:0:
287,113,132582,1,0,3:0:0:0:
361,156,132817,6,0,P|305:33|233:48,1,213.333333333333,0|0,3:0|0:0,0:0:0:0:
287,113,133523,1,8,0:2:0:0:
135,220,133994,1,0,3:0:0:0:
104,294,134229,2,0,B|66:281|41:241|42:188|86:155|86:155|42:153|18:123|-2:102|7:41,1,320,4|8,3:3|0:2,0:0:0:0:
88,73,135170,1,0,3:0:0:0:
165,36,135405,1,0,3:0:0:0:
236,83,135641,6,0,L|360:93,1,106.666666666667,0|0,3:0|0:0,0:0:0:0:
504,37,136347,1,8,0:2:0:0:
392,165,136817,1,0,3:0:0:0:
342,91,137053,2,0,P|222:153|241:225,1,213.333333333333,4|0,3:3|0:0,0:0:0:0:
298,260,137758,2,0,P|285:319|317:381,1,106.666666666667,8|0,0:2|0:0,0:0:0:0:
306,170,138465,5,0,3:0:0:0:
140,41,138935,1,2,0:0:0:0:
56,24,139170,1,2,0:2:0:0:
182,168,139641,5,0,3:0:0:0:
54,254,139876,1,4,3:3:0:0:
77,145,140111,1,0,3:0:0:0:
131,284,140347,1,0,3:0:0:0:
31,333,140582,1,0,3:0:0:0:
117,211,140817,1,0,3:0:0:0:
228,240,141052,1,0,3:0:0:0:
23,221,141288,6,0,P|75:126|173:131,1,213.333333333333,12|0,3:3|0:0,0:0:0:0:
251,153,141994,2,0,L|241:38,1,106.666666666667,8|0,0:0|0:0,0:0:0:0:
319,11,142464,1,0,3:0:0:0:
389,59,142700,2,0,L|399:174,1,106.666666666667,4|0,3:3|0:0,0:0:0:0:
258,264,143405,1,8,0:0:0:0:
346,249,143641,1,0,0:0:0:0:
424,292,143877,1,0,3:0:0:0:
376,362,144111,6,0,P|503:317|495:243,1,213.333333333333,0|0,3:0|0:0,0:0:0:0:
424,292,144817,1,8,0:2:0:0:
256,344,145288,1,0,3:0:0:0:
172,326,145523,2,0,B|132:270|172:230|172:222|212:182|172:126,1,213.333333333333,4|0,3:3|0:0,0:0:0:0:
93,90,146229,1,8,0:2:0:0:
152,30,146464,1,0,3:0:0:0:
235,12,146699,1,0,3:0:0:0:
314,43,146935,5,0,3:0:0:0:
340,126,147171,2,0,B|300:182|340:222|340:230|380:270|340:326,1,213.333333333333,0|8,0:0|0:2,0:0:0:0:
138,354,148111,1,0,3:0:0:0:
56,329,148347,2,0,P|89:208|178:200,1,213.333333333333,4|0,3:3|0:0,0:0:0:0:
232,243,149052,2,0,P|241:185|215:131,1,106.666666666667,8|0,0:2|0:0,0:0:0:0:
108,15,149758,5,0,3:0:0:0:
289,48,150229,1,2,0:0:0:0:
372,30,150464,1,2,0:2:0:0:
390,202,150935,5,0,3:0:0:0:
421,287,151170,1,4,3:3:0:0:
364,357,151405,1,0,3:0:0:0:
272,349,151640,1,0,3:0:0:0:
238,262,151876,1,0,3:0:0:0:
172,200,152111,1,0,3:0:0:0:
84,226,152347,1,0,3:0:0:0:
