osu file format v14

[General]
AudioFilename: audio.mp3
AudioLeadIn: 0
PreviewTime: 44113
Countdown: 0
SampleSet: Soft
StackLeniency: 0.7
Mode: 3
LetterboxInBreaks: 0
SpecialStyle: 0
WidescreenStoryboard: 1

[Editor]
DistanceSpacing: 1
BeatDivisor: 4
GridSize: 4
TimelineZoom: 1.6

[Metadata]
Title:stereo future
TitleUnicode:stereo future
Artist:BiSH
ArtistUnicode:BiSH
Creator:- Ly0572 -
Version:Tofu's Providence
Source:GOD EATER 3
Tags:Tofu1222 AnkhPH ufotable punk rock jrock bandai namco action rpg オープニングテーマ opening theme
BeatmapID:1909251
BeatmapSetID:906073

[Difficulty]
HPDrainRate:8.3
CircleSize:4
OverallDifficulty:8.3
ApproachRate:5
SliderMultiplier:1.4
SliderTickRate:1

[Events]
//Background and Video events
0,0,"ge3bg1.jpg",0,0
//Break Periods
//Storyboard Layer 0 (Background)
//Storyboard Layer 1 (Fail)
//Storyboard Layer 2 (Pass)
//Storyboard Layer 3 (Foreground)
//Storyboard Sound Samples

[TimingPoints]
1441,344.827586206897,4,2,1,70,1,0
45578,-100,4,2,1,70,0,1
55234,-100,4,2,1,70,0,0
56613,-100,4,2,1,70,0,1
66268,-100,4,2,1,70,0,0

[HitObjects]
64,192,1441,128,0,4199:0:0:0:0:
448,192,1441,128,0,1958:0:0:0:0:
192,192,1613,1,0,0:0:0:0:
320,192,1785,1,0,0:0:0:0:
192,192,1958,128,0,2475:0:0:0:0:
320,192,2130,1,0,0:0:0:0:
448,192,2303,1,0,0:0:0:0:
320,192,2475,128,0,2992:0:0:0:0:
448,192,2647,1,0,0:0:0:0:
192,192,2820,1,0,0:0:0:0:
448,192,2992,128,0,3509:0:0:0:0:
192,192,3165,1,0,0:0:0:0:
320,192,3337,1,0,0:0:0:0:
192,192,3509,1,0,0:0:0:0:
448,192,3682,1,0,0:0:0:0:
192,192,3854,1,0,0:0:0:0:
320,192,4027,1,0,0:0:0:0:
192,192,4199,128,0,6872:0:0:0:0:
448,192,4199,128,0,4716:0:0:0:0:
64,192,4372,1,0,0:0:0:0:
320,192,4544,1,0,0:0:0:0:
64,192,4716,128,0,5234:0:0:0:0:
320,192,4889,1,0,0:0:0:0:
448,192,5061,1,0,0:0:0:0:
320,192,5234,128,0,5751:0:0:0:0:
448,192,5406,1,0,0:0:0:0:
64,192,5578,1,0,0:0:0:0:
448,192,5751,1,0,0:0:0:0:
64,192,5923,1,0,0:0:0:0:
320,192,6096,1,0,0:0:0:0:
64,192,6268,128,0,6872:0:0:0:0:
448,192,6268,1,0,0:0:0:0:
320,192,6441,1,0,0:0:0:0:
448,192,6613,1,0,0:0:0:0:
320,192,6785,1,0,0:0:0:0:
448,192,6958,1,4,0:0:0:0:
192,192,6958,1,2,0:0:0:0:
64,192,6958,128,0,7475:0:0:0:0:
320,192,7130,1,0,0:0:0:0:
192,192,7303,1,2,0:0:0:0:
320,192,7475,1,8,0:0:0:0:
448,192,7475,128,0,7992:0:0:0:0:
192,192,7647,1,2,0:0:0:0:
64,192,7820,1,0,0:0:0:0:
320,192,7992,1,8,0:0:0:0:
192,192,7992,128,0,8509:0:0:0:0:
448,192,8165,1,0,0:0:0:0:
64,192,8337,1,2,0:0:0:0:
320,192,8509,128,8,9027:0:0:0:0:
448,192,8509,1,0,0:0:0:0:
64,192,8682,1,2,0:0:0:0:
192,192,8854,1,0,0:0:0:0:
448,192,9027,1,8,0:0:0:0:
64,192,9027,1,0,0:0:0:0:
320,192,9199,1,0,0:0:0:0:
64,192,9372,1,2,0:0:0:0:
192,192,9372,1,0,0:0:0:70:LR_Tom Hit Z.wav
320,192,9544,1,0,0:0:0:0:
448,192,9716,128,2,10234:0:0:0:0:
64,192,9716,1,0,0:0:0:70:LR_Tom Hit Y.wav
192,192,9889,1,0,0:0:0:0:
320,192,10061,1,2,0:0:0:0:
64,192,10234,128,8,10751:0:0:0:0:
192,192,10234,1,0,0:0:0:0:
320,192,10406,1,2,0:0:0:0:
448,192,10578,1,0,0:0:0:0:
192,192,10751,1,8,0:0:0:0:
320,192,10751,128,0,11268:0:0:0:0:
64,192,10923,1,0,0:0:0:0:
448,192,11096,1,2,0:0:0:0:
64,192,11268,1,8,0:0:0:0:
192,192,11268,128,0,11785:0:0:0:0:
448,192,11441,1,2,0:0:0:0:
320,192,11613,1,0,0:0:0:0:
448,192,11785,1,8,0:0:0:0:
64,192,11785,1,0,0:0:0:0:
192,192,11958,1,0,0:0:0:0:
320,192,12130,1,2,0:0:0:0:
448,192,12130,1,0,0:0:0:70:LR_Tom Hit Z.wav
192,192,12303,1,0,0:0:0:0:
448,192,12475,1,0,0:0:0:70:LR_Tom Hit Y.wav
64,192,12475,128,2,12992:0:0:0:0:
320,192,12647,1,0,0:0:0:0:
192,192,12820,1,2,0:0:0:0:
320,192,12992,1,8,0:0:0:0:
448,192,12992,128,0,13509:0:0:0:0:
192,192,13165,1,2,0:0:0:0:
64,192,13337,1,0,0:0:0:0:
320,192,13509,1,8,0:0:0:0:
192,192,13509,128,0,14027:0:0:0:0:
448,192,13682,1,0,0:0:0:0:
64,192,13854,1,2,0:0:0:0:
320,192,14027,128,8,14544:0:0:0:0:
448,192,14027,1,0,0:0:0:0:
64,192,14199,1,2,0:0:0:0:
192,192,14372,1,0,0:0:0:0:
448,192,14544,1,8,0:0:0:0:
64,192,14544,1,0,0:0:0:0:
320,192,14716,1,0,0:0:0:0:
192,192,14889,1,2,0:0:0:0:
64,192,14889,1,0,0:0:0:70:LR_Tom Hit Z.wav
320,192,15061,1,0,0:0:0:0:
64,192,15234,1,0,0:0:0:70:LR_Tom Hit Y.wav
448,192,15234,128,2,15751:0:0:0:0:
192,192,15406,1,0,0:0:0:0:
320,192,15578,1,2,0:0:0:0:
192,192,15751,1,8,0:0:0:0:
64,192,15751,128,0,16268:0:0:0:0:
320,192,15923,1,2,0:0:0:0:
448,192,16096,1,0,0:0:0:0:
192,192,16268,1,8,0:0:0:0:
320,192,16268,128,0,16785:0:0:0:0:
64,192,16441,1,0,0:0:0:0:
448,192,16613,1,2,0:0:0:0:
64,192,16785,1,8,0:0:0:0:
192,192,16785,1,0,0:0:0:0:
320,192,16958,1,2,0:0:0:0:
192,192,17130,1,0,0:0:0:0:
64,192,17303,1,8,0:0:0:0:
448,192,17303,1,0,0:0:0:0:
320,192,17475,1,0,0:0:0:0:
192,192,17647,1,0,0:0:0:70:LR_Tom Hit Z.wav
64,192,17647,1,2,0:0:0:0:
320,192,17820,1,0,0:0:0:0:
448,192,17992,1,2,0:0:0:0:
192,192,17992,1,0,0:0:0:70:LR_Tom Hit Y.wav
64,192,17992,128,4,20061:0:0:0:0:
192,192,18165,1,0,0:0:0:0:
192,192,18337,1,2,0:0:0:0:
448,192,18509,1,8,0:0:0:0:
320,192,18509,1,0,0:0:0:0:
320,192,18682,1,2,0:0:0:0:
320,192,18854,1,0,0:0:0:0:
192,192,19027,1,8,0:0:0:0:
448,192,19027,1,0,0:0:0:0:
448,192,19199,1,0,0:0:0:0:
448,192,19372,1,2,0:0:0:0:
192,192,19544,1,8,0:0:0:0:
320,192,19544,1,0,0:0:0:0:
192,192,19716,1,2,0:0:0:0:
192,192,19889,1,0,0:0:0:0:
448,192,20061,128,8,20751:0:0:0:0:
320,192,20061,1,0,0:0:0:0:
64,192,20234,1,0,0:0:0:0:
192,192,20406,1,0,0:0:0:70:LR_Tom Hit Z.wav
320,192,20406,1,2,0:0:0:0:
64,192,20578,1,0,0:0:0:0:
192,192,20751,128,2,22820:0:0:0:0:
320,192,20751,1,0,0:0:0:70:LR_Tom Hit Y.wav
320,192,20923,1,0,0:0:0:0:
320,192,21096,1,2,0:0:0:0:
64,192,21268,1,8,0:0:0:0:
448,192,21268,1,0,0:0:0:0:
64,192,21441,1,2,0:0:0:0:
64,192,21613,1,0,0:0:0:0:
320,192,21785,1,8,0:0:0:0:
448,192,21785,1,0,0:0:0:0:
320,192,21958,1,0,0:0:0:0:
320,192,22130,1,2,0:0:0:0:
448,192,22303,1,8,0:0:0:0:
64,192,22303,1,0,0:0:0:0:
448,192,22475,1,2,0:0:0:0:
448,192,22647,1,0,0:0:0:0:
320,192,22820,128,8,23509:0:0:0:0:
64,192,22820,1,0,0:0:0:0:
192,192,22992,1,0,0:0:0:0:
64,192,23165,1,2,0:0:0:0:
448,192,23165,1,0,0:0:0:70:LR_Tom Hit Z.wav
192,192,23337,1,0,0:0:0:0:
448,192,23509,128,2,24889:0:0:0:0:
64,192,23509,1,0,0:0:0:70:LR_Tom Hit Y.wav
192,192,23854,1,2,0:0:0:0:
64,192,24027,1,8,0:0:0:0:
320,192,24027,1,0,0:0:0:0:
192,192,24199,1,2,0:0:0:0:
64,192,24544,1,8,0:0:0:0:
320,192,24544,1,0,0:0:0:0:
64,192,24889,128,2,26268:0:0:0:0:
192,192,25061,1,8,0:0:0:0:
448,192,25061,1,0,0:0:0:0:
320,192,25234,1,2,0:0:0:0:
192,192,25578,1,8,0:0:0:0:
448,192,25578,1,0,0:0:0:0:
192,192,25923,1,2,0:0:0:0:
448,192,25923,1,0,0:0:0:70:LR_Tom Hit Z.wav
192,192,26268,128,0,26958:0:0:0:70:LR_Tom Hit Y.wav
320,192,26268,1,2,0:0:0:0:
320,192,26613,1,2,0:0:0:0:
64,192,26785,1,8,0:0:0:0:
448,192,26785,1,0,0:0:0:0:
320,192,26958,128,2,27647:0:0:0:0:
64,192,27303,1,8,0:0:0:0:
448,192,27303,1,0,0:0:0:0:
64,192,27647,128,2,28337:0:0:0:0:
192,192,27820,1,8,0:0:0:0:
320,192,27820,1,0,0:0:0:0:
448,192,27992,1,2,0:0:0:0:
192,192,28165,1,8,0:0:0:0:
320,192,28165,1,0,0:0:0:0:
448,192,28337,128,8,29027:0:0:0:0:
192,192,28509,1,2,0:0:0:0:
320,192,28682,1,8,0:0:0:0:
64,192,28854,1,0,0:0:0:0:
192,192,29027,128,4,33509:0:0:0:0:
320,192,29027,1,2,0:0:0:0:
448,192,29199,1,2,0:0:0:0:
64,192,29544,1,2,0:0:0:0:
320,192,29716,1,8,0:0:0:0:
448,192,29716,1,0,0:0:0:0:
64,192,30061,1,2,0:0:0:0:
64,192,30234,1,2,0:0:0:0:
320,192,30578,1,2,0:0:0:0:
320,192,30751,1,2,0:0:0:0:
64,192,31096,1,8,0:0:0:0:
448,192,31096,1,0,0:0:0:0:
320,192,31441,1,0,0:0:0:0:
448,192,31785,1,2,0:0:0:0:
448,192,31958,1,2,0:0:0:0:
320,192,32303,1,2,0:0:0:0:
64,192,32475,1,8,0:0:0:0:
448,192,32475,1,0,0:0:0:0:
320,192,32820,1,2,0:0:0:0:
320,192,32992,1,2,0:0:0:0:
64,192,33337,1,2,0:0:0:0:
64,192,33509,1,2,0:0:0:0:
448,192,33682,1,0,0:0:0:0:
320,192,33682,1,0,0:0:0:70:soft-hitclap2.wav
192,192,33768,1,0,0:0:0:0:
64,192,33768,1,0,0:0:0:0:
320,192,33854,1,8,0:0:0:0:
448,192,33854,1,0,0:0:0:0:
192,192,34027,1,2,0:0:0:0:
64,192,34199,1,0,0:0:0:70:soft-hitclap2.wav
320,192,34199,1,0,0:0:0:0:
448,192,34199,1,0,0:0:0:0:
64,192,34372,1,0,0:0:0:70:soft-hitclap2.wav
320,192,34372,1,0,0:0:0:0:
448,192,34372,1,0,0:0:0:0:
192,192,34544,1,4,0:0:0:0:
320,192,34544,1,2,0:0:0:0:
448,192,34544,1,0,0:0:0:70:soft-hitclap2.wav
64,192,34889,1,2,0:0:0:0:
64,192,35061,1,2,0:0:0:0:
192,192,35234,1,8,0:0:0:0:
448,192,35234,1,0,0:0:0:0:
320,192,35234,1,0,0:0:0:0:
64,192,35406,1,2,0:0:0:0:
320,192,35923,1,2,0:0:0:0:
64,192,36096,1,8,0:0:0:0:
448,192,36096,1,0,0:0:0:0:
192,192,36268,1,2,0:0:0:0:
192,192,36441,1,2,0:0:0:0:
320,192,36613,1,8,0:0:0:0:
64,192,36613,1,0,0:0:0:0:
448,192,36613,1,0,0:0:0:0:
192,192,36785,1,2,0:0:0:0:
192,192,37303,1,2,0:0:0:0:
320,192,37647,1,2,0:0:0:0:
320,192,37820,1,2,0:0:0:0:
64,192,37992,1,8,0:0:0:0:
448,192,37992,1,0,0:0:0:0:
192,192,37992,1,0,0:0:0:0:
320,192,38165,1,2,0:0:0:0:
192,192,38337,1,4,0:0:0:0:
64,192,38337,1,0,0:0:0:0:
320,192,38682,1,2,0:0:0:0:
448,192,38854,1,0,0:0:0:0:
64,192,38854,1,8,0:0:0:0:
192,192,39027,1,2,0:0:0:0:
192,192,39199,1,2,0:0:0:0:
64,192,39372,1,8,0:0:0:0:
448,192,39372,1,0,0:0:0:0:
320,192,39372,1,0,0:0:0:0:
192,192,39544,1,2,0:0:0:0:
448,192,39716,1,4,0:0:0:0:
320,192,39716,1,8,0:0:0:0:
192,192,40061,1,0,0:0:0:70:soft-hitclap2.wav
64,192,40061,1,2,0:0:0:0:
448,192,40061,1,4,0:0:0:0:
192,192,40234,1,2,0:0:0:0:
192,192,40406,1,2,0:0:0:0:
64,192,40578,1,0,0:0:0:70:soft-hitclap2.wav
320,192,40578,1,0,0:0:0:0:
448,192,40578,1,0,0:0:0:0:
320,192,40751,1,2,0:0:0:0:
320,192,40923,1,2,0:0:0:0:
64,192,41096,1,0,0:0:0:70:soft-hitclap2.wav
448,192,41096,1,0,0:0:0:0:
192,192,41096,1,0,0:0:0:0:
192,192,41268,1,2,0:0:0:0:
192,192,41441,1,2,0:0:0:0:
64,192,41613,1,0,0:0:0:70:soft-hitclap2.wav
320,192,41613,1,0,0:0:0:0:
448,192,41613,1,0,0:0:0:0:
320,192,41785,1,2,0:0:0:0:
320,192,41958,1,2,0:0:0:0:
192,192,42130,1,0,0:0:0:70:soft-hitclap2.wav
64,192,42130,1,0,0:0:0:0:
448,192,42130,1,0,0:0:0:0:
448,192,42303,1,2,0:0:0:0:
64,192,42475,1,0,0:0:0:70:soft-hitclap2.wav
192,192,42475,1,0,0:0:0:0:
320,192,42475,1,0,0:0:0:0:
320,192,42647,1,2,0:0:0:0:
64,192,42820,1,4,0:0:0:0:
192,192,42820,1,8,0:0:0:0:
448,192,42820,1,0,0:0:0:0:
320,192,42906,1,0,0:0:0:70:soft-hitclap2.wav
192,192,42992,1,0,0:0:0:70:soft-hitclap2.wav
64,192,43078,1,0,0:0:0:70:soft-hitclap2.wav
320,192,43165,1,0,0:0:0:70:soft-hitclap2.wav
448,192,43165,1,0,0:0:0:0:
192,192,43251,1,0,0:0:0:70:soft-hitclap2.wav
320,192,43337,1,0,0:0:0:70:soft-hitclap2.wav
448,192,43423,1,0,0:0:0:70:soft-hitclap2.wav
64,192,43509,1,0,0:0:0:70:soft-hitclap2.wav
192,192,43509,1,0,0:0:0:0:
320,192,43596,1,0,0:0:0:70:soft-hitclap2.wav
448,192,43682,1,0,0:0:0:70:soft-hitclap2.wav
64,192,43768,1,0,0:0:0:70:soft-hitclap2.wav
192,192,43854,1,0,0:0:0:70:soft-hitclap2.wav
320,192,43854,1,0,0:0:0:0:
448,192,43941,1,0,0:0:0:70:soft-hitclap2.wav
64,192,44027,1,0,0:0:0:70:soft-hitclap2.wav
192,192,44113,1,0,0:0:0:70:soft-hitclap2.wav
320,192,44199,1,8,0:0:0:0:
448,192,44199,1,0,0:0:0:0:
448,192,44372,1,8,0:0:0:0:
320,192,44372,1,0,0:0:0:0:
192,192,44544,1,8,0:0:0:0:
64,192,44544,1,0,0:0:0:0:
192,192,44716,1,8,0:0:0:0:
64,192,44716,1,0,0:0:0:0:
320,192,44889,1,8,0:0:0:0:
448,192,44889,1,0,0:0:0:0:
64,192,45061,1,8,0:0:0:0:
192,192,45061,1,0,0:0:0:0:
320,192,45147,1,8,0:0:0:0:
448,192,45147,1,0,0:0:0:0:
192,192,45234,1,8,0:0:0:0:
64,192,45234,1,0,0:0:0:0:
320,192,45320,1,8,0:0:0:0:
448,192,45320,1,0,0:0:0:0:
192,192,45406,1,8,0:0:0:0:
64,192,45406,1,0,0:0:0:0:
320,192,45492,1,8,0:0:0:0:
448,192,45578,1,2,0:0:0:0:
192,192,45578,1,0,0:0:0:70:soft-hitclap2.wav
64,192,45578,128,4,48337:0:0:0:0:
320,192,45751,1,2,0:0:0:0:
320,192,45923,1,8,0:0:0:0:
448,192,45923,1,0,0:0:0:0:
192,192,45923,1,0,0:0:0:0:
320,192,46268,1,2,0:0:0:0:
192,192,46268,1,0,0:0:0:0:
448,192,46441,1,2,0:0:0:0:
448,192,46613,1,8,0:0:0:0:
320,192,46613,1,0,0:0:0:0:
192,192,46613,1,0,0:0:0:0:
448,192,46958,1,2,0:0:0:0:
192,192,46958,1,0,0:0:0:0:
320,192,47130,1,2,0:0:0:0:
448,192,47303,1,8,0:0:0:0:
192,192,47303,1,0,0:0:0:0:
320,192,47303,1,0,0:0:0:0:
320,192,47647,1,2,0:0:0:0:
448,192,47647,1,0,0:0:0:0:
192,192,47820,1,2,0:0:0:0:
192,192,47992,1,8,0:0:0:0:
448,192,47992,1,0,0:0:0:0:
320,192,47992,1,0,0:0:0:0:
448,192,48337,128,2,49716:0:0:0:0:
192,192,48337,1,0,0:0:0:0:
320,192,48509,1,2,0:0:0:0:
64,192,48682,1,8,0:0:0:0:
320,192,48682,1,0,0:0:0:0:
192,192,48682,1,0,0:0:0:0:
64,192,49027,1,2,0:0:0:0:
320,192,49027,1,0,0:0:0:0:
192,192,49199,1,2,0:0:0:0:
64,192,49372,1,8,0:0:0:0:
192,192,49372,1,0,0:0:0:0:
320,192,49372,1,0,0:0:0:0:
192,192,49716,1,2,0:0:0:0:
64,192,49716,1,0,0:0:0:0:
320,192,49889,128,2,50061:0:0:0:0:
64,192,50061,1,8,0:0:0:0:
448,192,50061,1,0,0:0:0:0:
192,192,50061,128,0,50234:0:0:0:0:
448,192,50234,128,0,50406:0:0:0:0:
192,192,50406,1,2,0:0:0:0:
64,192,50406,1,0,0:0:0:0:
320,192,50578,1,2,0:0:0:0:
64,192,50751,1,8,0:0:0:0:
448,192,50751,1,0,0:0:0:0:
192,192,50751,1,0,0:0:0:0:
320,192,51096,1,4,0:0:0:0:
448,192,51096,1,2,0:0:0:0:
64,192,51096,128,0,52475:0:0:0:0:
192,192,51268,1,2,0:0:0:0:
192,192,51441,1,8,0:0:0:0:
320,192,51441,1,0,0:0:0:0:
448,192,51441,1,0,0:0:0:0:
448,192,51785,1,2,0:0:0:0:
192,192,51785,1,0,0:0:0:0:
320,192,51958,1,2,0:0:0:0:
192,192,52130,1,8,0:0:0:0:
320,192,52130,1,0,0:0:0:0:
448,192,52130,1,0,0:0:0:0:
320,192,52475,128,2,53854:0:0:0:0:
448,192,52475,1,0,0:0:0:0:
192,192,52647,1,2,0:0:0:0:
64,192,52820,1,8,0:0:0:0:
192,192,52820,1,0,0:0:0:0:
448,192,52820,1,0,0:0:0:0:
192,192,53165,1,2,0:0:0:0:
448,192,53165,1,0,0:0:0:0:
64,192,53337,1,2,0:0:0:0:
64,192,53509,1,8,0:0:0:0:
192,192,53509,1,0,0:0:0:0:
448,192,53509,1,0,0:0:0:0:
448,192,53854,1,4,0:0:0:0:
64,192,53854,1,2,0:0:0:0:
192,192,53854,128,0,54889:0:0:0:0:
320,192,54027,1,2,0:0:0:0:
448,192,54199,1,8,0:0:0:0:
64,192,54199,1,0,0:0:0:0:
320,192,54199,1,0,0:0:0:0:
64,192,54544,1,2,0:0:0:0:
320,192,54544,1,0,0:0:0:0:
448,192,54716,1,2,0:0:0:0:
448,192,54889,1,8,0:0:0:0:
320,192,54889,1,0,0:0:0:0:
64,192,54889,128,0,55234:0:0:0:0:
448,192,55234,128,2,55923:0:0:0:0:
192,192,55234,1,0,0:0:0:0:
320,192,55406,1,2,0:0:0:0:
64,192,55578,1,8,0:0:0:0:
320,192,55578,1,0,0:0:0:0:
192,192,55578,1,0,0:0:0:0:
192,192,55923,1,8,0:0:0:0:
448,192,56096,1,8,0:0:0:0:
320,192,56096,1,0,0:0:0:0:
192,192,56182,1,8,0:0:0:0:
64,192,56182,1,0,0:0:0:0:
320,192,56268,1,8,0:0:0:0:
448,192,56268,1,0,0:0:0:0:
192,192,56354,1,8,0:0:0:0:
64,192,56354,1,0,0:0:0:0:
320,192,56441,1,8,0:0:0:0:
448,192,56441,1,0,0:0:0:0:
192,192,56527,1,8,0:0:0:0:
448,192,56613,128,4,59372:0:0:0:0:
320,192,56613,1,2,0:0:0:0:
64,192,56613,1,0,0:0:0:0:
192,192,56785,1,2,0:0:0:0:
320,192,56958,1,8,0:0:0:0:
64,192,56958,1,0,0:0:0:0:
192,192,56958,1,0,0:0:0:0:
320,192,57303,1,2,0:0:0:0:
192,192,57303,1,0,0:0:0:0:
64,192,57475,1,2,0:0:0:0:
320,192,57647,1,8,0:0:0:0:
192,192,57647,1,0,0:0:0:0:
64,192,57647,1,0,0:0:0:0:
320,192,57992,1,2,0:0:0:0:
64,192,57992,1,0,0:0:0:0:
192,192,58165,1,2,0:0:0:0:
192,192,58337,1,8,0:0:0:0:
320,192,58337,1,0,0:0:0:0:
64,192,58337,1,0,0:0:0:0:
64,192,58682,1,2,0:0:0:0:
192,192,58682,1,0,0:0:0:0:
320,192,58854,1,2,0:0:0:0:
192,192,59027,1,8,0:0:0:0:
64,192,59027,1,0,0:0:0:0:
320,192,59027,1,0,0:0:0:0:
320,192,59372,1,2,0:0:0:0:
64,192,59372,128,0,60751:0:0:0:0:
192,192,59544,1,2,0:0:0:0:
320,192,59716,1,8,0:0:0:0:
192,192,59716,1,0,0:0:0:0:
448,192,59716,1,0,0:0:0:0:
192,192,60061,1,2,0:0:0:0:
448,192,60061,1,0,0:0:0:0:
320,192,60234,1,2,0:0:0:0:
192,192,60406,1,8,0:0:0:0:
320,192,60406,1,0,0:0:0:0:
448,192,60406,1,0,0:0:0:0:
320,192,60751,1,2,0:0:0:0:
448,192,60751,1,0,0:0:0:0:
192,192,60923,128,2,61096:0:0:0:0:
320,192,61096,128,8,61268:0:0:0:0:
64,192,61096,1,0,0:0:0:0:
448,192,61096,1,0,0:0:0:0:
64,192,61268,128,0,61441:0:0:0:0:
448,192,61441,1,2,0:0:0:0:
320,192,61441,1,0,0:0:0:0:
192,192,61613,1,2,0:0:0:0:
320,192,61785,1,8,0:0:0:0:
64,192,61785,1,0,0:0:0:0:
448,192,61785,1,0,0:0:0:0:
448,192,62130,128,4,63509:0:0:0:0:
64,192,62130,1,2,0:0:0:0:
192,192,62130,1,0,0:0:0:0:
320,192,62303,1,2,0:0:0:0:
64,192,62475,1,8,0:0:0:0:
192,192,62475,1,0,0:0:0:0:
320,192,62475,1,0,0:0:0:0:
320,192,62820,1,2,0:0:0:0:
64,192,62820,1,0,0:0:0:0:
192,192,62992,1,2,0:0:0:0:
64,192,63165,1,8,0:0:0:0:
192,192,63165,1,0,0:0:0:0:
320,192,63165,1,0,0:0:0:0:
64,192,63509,1,2,0:0:0:0:
192,192,63509,128,0,64889:0:0:0:0:
320,192,63682,1,2,0:0:0:0:
64,192,63854,1,8,0:0:0:0:
320,192,63854,1,0,0:0:0:0:
448,192,63854,1,0,0:0:0:0:
64,192,64199,1,2,0:0:0:0:
320,192,64199,1,0,0:0:0:0:
448,192,64372,1,2,0:0:0:0:
64,192,64544,1,8,0:0:0:0:
320,192,64544,1,0,0:0:0:0:
448,192,64544,1,0,0:0:0:0:
64,192,64889,1,4,0:0:0:0:
448,192,64889,1,2,0:0:0:0:
320,192,64889,128,0,65923:0:0:0:0:
192,192,65061,1,2,0:0:0:0:
64,192,65234,1,8,0:0:0:0:
192,192,65234,1,0,0:0:0:0:
448,192,65234,1,0,0:0:0:0:
448,192,65578,1,2,0:0:0:0:
192,192,65578,1,0,0:0:0:0:
64,192,65751,1,2,0:0:0:0:
192,192,65923,1,8,0:0:0:0:
64,192,65923,1,0,0:0:0:0:
448,192,65923,128,0,66268:0:0:0:0:
192,192,66268,128,2,66958:0:0:0:0:
64,192,66268,1,0,0:0:0:0:
320,192,66441,1,2,0:0:0:0:
64,192,66613,1,8,0:0:0:0:
320,192,66613,1,0,0:0:0:0:
448,192,66613,1,0,0:0:0:0:
64,192,66958,1,8,0:0:0:0:
448,192,66958,1,0,0:0:0:0:
320,192,66958,1,0,0:0:0:0:
192,192,67130,1,8,0:0:0:0:
64,192,67130,1,0,0:0:0:0:
320,192,67216,1,8,0:0:0:0:
448,192,67216,1,0,0:0:0:0:
64,192,67303,1,8,0:0:0:0:
192,192,67303,1,0,0:0:0:0:
320,192,67475,1,8,0:0:0:0:
448,192,67475,1,0,0:0:0:0:
192,192,67561,1,8,0:0:0:0:
64,192,67647,1,4,0:0:0:0:
320,192,67647,1,0,0:0:0:0:
448,192,67647,128,2,67992:0:0:0:0:
320,192,67820,1,2,0:0:0:0:
192,192,67992,128,8,68337:0:0:0:0:
64,192,67992,1,0,0:0:0:0:
320,192,67992,1,0,0:0:0:0:
320,192,68337,128,2,68682:0:0:0:0:
448,192,68337,1,0,0:0:0:0:
448,192,68509,1,2,0:0:0:0:
64,192,68682,128,8,69027:0:0:0:0:
192,192,68682,1,0,0:0:0:0:
448,192,68682,1,0,0:0:0:0:
448,192,69027,128,2,69372:0:0:0:0:
320,192,69027,1,0,0:0:0:0:
320,192,69199,1,2,0:0:0:0:
192,192,69372,128,8,69716:0:0:0:0:
64,192,69372,1,0,0:0:0:0:
320,192,69372,1,0,0:0:0:0:
448,192,69716,128,2,70061:0:0:0:0:
64,192,69716,1,0,0:0:0:0:
64,192,69889,1,2,0:0:0:0:
320,192,70061,128,8,70406:0:0:0:0:
192,192,70061,1,0,0:0:0:0:
64,192,70061,1,0,0:0:0:0:
448,192,70406,128,4,70751:0:0:0:0:
192,192,70406,1,2,0:0:0:0:
192,192,70578,1,2,0:0:0:0:
64,192,70751,1,8,0:0:0:0:
320,192,70751,128,0,71096:0:0:0:0:
192,192,70751,1,0,0:0:0:0:
64,192,71096,128,2,71441:0:0:0:0:
448,192,71096,1,0,0:0:0:0:
448,192,71268,1,2,0:0:0:0:
320,192,71441,128,8,71785:0:0:0:0:
192,192,71441,1,0,0:0:0:0:
448,192,71441,1,0,0:0:0:0:
448,192,71785,128,2,72130:0:0:0:0:
64,192,71785,1,0,0:0:0:0:
64,192,71958,1,2,0:0:0:0:
320,192,72130,1,8,0:0:0:0:
192,192,72130,128,0,72475:0:0:0:0:
64,192,72130,1,0,0:0:0:0:
448,192,72475,128,2,72820:0:0:0:0:
320,192,72475,1,0,0:0:0:0:
320,192,72647,1,2,0:0:0:0:
64,192,72820,128,8,73165:0:0:0:0:
192,192,72820,1,0,0:0:0:0:
320,192,72820,1,0,0:0:0:0:
320,192,73165,128,4,73509:0:0:0:0:
192,192,73165,1,2,0:0:0:0:
448,192,73165,1,0,0:0:0:0:
192,192,73337,1,2,0:0:0:0:
64,192,73509,1,8,0:0:0:0:
448,192,73509,1,0,0:0:0:0:
192,192,73509,128,0,73854:0:0:0:0:
320,192,73854,128,2,74199:0:0:0:0:
64,192,73854,1,0,0:0:0:0:
64,192,74027,1,2,0:0:0:0:
448,192,74199,128,8,74544:0:0:0:0:
64,192,74199,1,0,0:0:0:0:
192,192,74199,1,0,0:0:0:0:
192,192,74544,128,2,74889:0:0:0:0:
320,192,74544,1,0,0:0:0:0:
320,192,74716,1,2,0:0:0:0:
64,192,74889,128,8,75234:0:0:0:0:
320,192,74889,1,0,0:0:0:0:
448,192,74889,1,0,0:0:0:0:
320,192,75234,128,2,75578:0:0:0:0:
192,192,75234,1,0,0:0:0:0:
192,192,75406,1,2,0:0:0:0:
448,192,75578,128,8,75923:0:0:0:0:
192,192,75578,1,0,0:0:0:0:
64,192,75578,1,0,0:0:0:0:
64,192,75923,1,2,0:0:0:0:
192,192,75923,1,0,0:0:0:0:
320,192,75923,1,0,0:0:0:0:
320,192,76268,1,2,0:0:0:0:
192,192,76613,1,0,0:0:0:70:soft-hitclap2.wav
64,192,76613,1,0,0:0:0:0:
320,192,76785,1,0,0:0:0:70:soft-hitclap2.wav
448,192,76785,1,0,0:0:0:0:
192,192,76958,1,0,0:0:0:70:soft-hitclap2.wav
64,192,76958,1,0,0:0:0:0:
320,192,77130,1,0,0:0:0:70:soft-hitclap2.wav
448,192,77130,1,0,0:0:0:0:
64,192,77303,1,2,0:0:0:0:
192,192,77303,1,8,0:0:0:0:
448,192,77303,1,4,0:0:0:0:
320,192,77475,1,8,0:0:0:0:
64,192,77475,1,0,0:0:0:0:
192,192,77561,1,8,0:0:0:0:
448,192,77561,1,0,0:0:0:0:
320,192,77647,1,8,0:0:0:0:
64,192,77647,1,0,0:0:0:0:
448,192,77820,1,8,0:0:0:0:
192,192,77820,1,0,0:0:0:0:
320,192,77906,1,8,0:0:0:0:
64,192,77906,1,0,0:0:0:0:
192,192,77992,1,8,0:0:0:0:
448,192,77992,1,0,0:0:0:0:
64,192,78078,1,8,0:0:0:0:
320,192,78165,1,8,0:0:0:0:
448,192,78165,1,0,0:0:0:0:
192,192,78251,1,8,0:0:0:0:
64,192,78251,1,0,0:0:0:0:
448,192,78337,1,8,0:0:0:0:
320,192,78337,1,0,0:0:0:0:
192,192,78423,1,8,0:0:0:0:
448,192,78509,1,8,0:0:0:0:
64,192,78509,1,0,0:0:0:0:
320,192,78596,1,8,0:0:0:0:
64,192,78682,1,2,0:0:0:0:
448,192,78682,1,0,0:0:0:70:soft-hitclap2.wav
192,192,78682,1,4,0:0:0:0:
320,192,78854,1,0,0:0:0:0:
320,192,79027,1,0,0:0:0:0:
448,192,79199,1,8,0:0:0:0:
64,192,79199,1,0,0:0:0:0:
192,192,79372,1,0,0:0:0:0:
192,192,79544,1,0,0:0:0:0:
448,192,79716,1,8,0:0:0:0:
320,192,79716,1,0,0:0:0:0:
64,192,79889,1,0,0:0:0:0:
64,192,80061,1,0,0:0:0:0:
320,192,80234,1,8,0:0:0:0:
192,192,80234,1,0,0:0:0:0:
448,192,80406,1,0,0:0:0:0:
448,192,80578,1,0,0:0:0:0:
192,192,80751,1,8,0:0:0:0:
64,192,80751,1,0,0:0:0:0:
320,192,80923,1,0,0:0:0:0:
64,192,81096,1,2,0:0:0:0:
448,192,81096,1,0,0:0:0:70:LR_Tom Hit Z.wav
192,192,81268,1,0,0:0:0:0:
320,192,81441,1,2,0:0:0:0:
448,192,81441,1,0,0:0:0:70:LR_Tom Hit Y.wav
64,192,81441,1,0,0:0:0:0:
192,192,81613,1,0,0:0:0:0:
192,192,81785,1,0,0:0:0:0:
64,192,81958,1,8,0:0:0:0:
448,192,81958,1,0,0:0:0:0:
320,192,82130,1,0,0:0:0:0:
320,192,82303,1,0,0:0:0:0:
64,192,82475,1,8,0:0:0:0:
192,192,82475,1,0,0:0:0:0:
448,192,82647,1,0,0:0:0:0:
448,192,82820,1,0,0:0:0:0:
192,192,82992,1,8,0:0:0:0:
320,192,82992,1,0,0:0:0:0:
64,192,83165,1,0,0:0:0:0:
64,192,83337,1,0,0:0:0:0:
320,192,83509,1,8,0:0:0:0:
448,192,83509,1,0,0:0:0:0:
192,192,83682,1,0,0:0:0:0:
64,192,83854,1,2,0:0:0:0:
448,192,83854,1,0,0:0:0:70:LR_Tom Hit Z.wav
320,192,84027,1,0,0:0:0:0:
192,192,84199,1,2,0:0:0:0:
64,192,84199,1,0,0:0:0:70:LR_Tom Hit Y.wav
448,192,84199,1,0,0:0:0:0:
320,192,84372,1,0,0:0:0:0:
320,192,84544,1,0,0:0:0:0:
64,192,84716,1,8,0:0:0:0:
192,192,84716,1,0,0:0:0:0:
448,192,84889,1,0,0:0:0:0:
448,192,85061,1,0,0:0:0:0:
192,192,85234,1,8,0:0:0:0:
320,192,85234,1,0,0:0:0:0:
64,192,85406,1,0,0:0:0:0:
64,192,85578,1,0,0:0:0:0:
320,192,85751,1,8,0:0:0:0:
448,192,85751,1,0,0:0:0:0:
192,192,85923,1,0,0:0:0:0:
192,192,86096,1,0,0:0:0:0:
448,192,86268,1,8,0:0:0:0:
64,192,86268,1,0,0:0:0:0:
320,192,86441,1,0,0:0:0:0:
64,192,86613,1,2,0:0:0:0:
448,192,86613,1,0,0:0:0:70:LR_Tom Hit Z.wav
192,192,86785,1,0,0:0:0:0:
64,192,86958,1,2,0:0:0:0:
448,192,86958,1,0,0:0:0:70:LR_Tom Hit Y.wav
320,192,86958,1,0,0:0:0:0:
192,192,87130,1,0,0:0:0:0:
192,192,87303,1,0,0:0:0:0:
448,192,87475,1,8,0:0:0:0:
320,192,87475,1,0,0:0:0:0:
64,192,87647,1,0,0:0:0:0:
64,192,87820,1,0,0:0:0:70:soft-hitclap2.wav
192,192,87992,1,0,0:0:0:70:soft-hitclap2.wav
320,192,87992,1,0,0:0:0:70:soft-hitclap2.wav
448,192,88165,1,0,0:0:0:70:soft-hitclap2.wav
64,192,88337,1,2,0:0:0:0:
448,192,88337,1,0,0:0:0:70:LR_Tom Hit Y.wav
320,192,88509,1,8,0:0:0:0:
192,192,88509,128,0,88682:0:0:0:70:LR3_Snare FCSRL.wav
448,192,88682,128,8,88854:0:0:0:0:
64,192,88682,1,0,0:0:0:70:LR3_Snare FCSRL.wav
192,192,88854,128,8,89027:0:0:0:0:
320,192,88854,1,0,0:0:0:70:LR3_Snare FCSRL.wav
320,192,89027,128,8,89199:0:0:0:0:
448,192,89027,1,0,0:0:0:70:LR3_Snare FCSRL.wav
192,192,89199,1,8,0:0:0:0:
64,192,89199,128,0,89372:0:0:0:70:LR3_Snare FCSRL.wav
448,192,89372,1,8,0:0:0:0:
320,192,89372,128,0,89544:0:0:0:70:LR3_Snare FCSRL.wav
192,192,89544,128,8,89716:0:0:0:0:
64,192,89544,1,0,0:0:0:70:LR3_Snare FCSRL.wav
