osu file format v14

[General]
AudioFilename: audio.ogg
AudioLeadIn: 0
PreviewTime: 63060
Countdown: 0
SampleSet: Soft
StackLeniency: 0.7
Mode: 0
LetterboxInBreaks: 0
WidescreenStoryboard: 1

[Editor]
DistanceSpacing: 1
BeatDivisor: 4
GridSize: 8
TimelineZoom: 1

[Metadata]
Title:innocent arrogance (TV Size)
TitleUnicode:innocent arrogance (TV Size)
Artist:BiSH
ArtistUnicode:BiSH
Creator:Kanui
Version:normal
Source:天国大魔境
Tags:tengoku daimakyou heavenly delusion anime opening japanese rock jrock j-rock female vocals 松隈ケンタ Kenta Matsukuma JxSxK
BeatmapID:4190947
BeatmapSetID:2013708

[Difficulty]
HPDrainRate:3
CircleSize:3
OverallDifficulty:4
ApproachRate:5
SliderMultiplier:1.2
SliderTickRate:1

[Events]
//Background and Video events
0,0,"bg.jpg",0,0
Video,450,"video.mp4"
//Break Periods
//Storyboard Layer 0 (Background)
//Storyboard Layer 1 (Fail)
//Storyboard Layer 2 (Pass)
//Storyboard Layer 3 (Foreground)
//Storyboard Layer 4 (Overlay)
//Storyboard Sound Samples

[TimingPoints]
1119,352.941176470588,4,2,1,50,1,0
12413,-125,4,2,1,50,0,0
23001,-125,4,2,1,60,0,0
23707,-125,4,2,1,50,0,0
25118,-111.111111111111,4,2,1,60,0,0
26442,-111.111111111111,4,2,1,5,0,0
26530,-100,4,2,1,70,0,0
39942,-100,4,2,1,30,0,0
40648,-125,4,2,1,50,0,0
51942,-111.111111111111,4,2,1,60,0,0
60413,-111.111111111111,4,2,1,70,0,0
63236,-100,4,2,1,80,0,1
83001,-100,4,2,1,60,0,0

[Colours]
Combo1 : 205,133,133
Combo2 : 228,220,158
Combo3 : 170,208,223
Combo4 : 204,160,113

[HitObjects]
508,324,12413,6,0,P|443:331|407:336,1,96,4|0,1:0|2:0,2:0:0:0:
365,340,12942,1,0,1:0:0:0:
365,340,13118,2,0,L|350:231,1,96,2|0,0:0|2:0,2:0:0:0:
341,149,13824,2,0,B|229:176|286:218|172:243,1,192,2|0,0:0|0:0,0:0:0:0:
83,261,14883,1,2,0:3:0:0:
9,199,15236,6,0,P|-2:149|12:98,1,96,0|0,1:0|0:0,0:0:0:0:
38,69,15766,1,0,1:0:0:0:
38,69,15942,2,0,P|92:62|149:51,1,96,2|0,0:0|0:0,0:0:0:0:
227,38,16648,2,0,L|209:245,1,192,2|0,0:0|0:0,0:0:0:0:
201,325,17707,1,2,0:3:0:0:
289,362,18060,6,0,L|395:340,1,96,0|2,1:0|0:0,0:0:0:0:
429,330,18589,1,0,1:0:0:0:
429,330,18766,2,0,B|435:290|435:290|426:272|426:272|433:226,1,96,2|2,0:0|0:0,0:0:0:0:
492,163,19471,2,0,L|481:106,1,48,2|2,0:0|0:0,0:0:0:0:
423,39,20001,2,0,P|382:57|326:45,1,96,2|2,0:0|0:0,0:0:0:0:
288,30,20530,1,2,0:0:0:0:
234,110,20883,6,0,P|246:180|254:221,1,96,0|2,1:0|0:0,0:0:0:0:
264,255,21413,1,0,1:0:0:0:
264,255,21589,2,0,P|202:268|155:275,1,96,2|2,0:0|0:0,0:0:0:0:
74,287,22295,2,0,P|48:216|58:142,1,144,2|2,0:0|0:0,0:0:0:0:
85,111,23001,2,0,L|97:-1,1,96,8|8,0:0|0:0,0:0:0:0:
105,297,25118,6,0,L|98:395,2,80.9999975280763,8|8|8,0:0|0:0|0:0,0:0:0:0:
112,243,25824,2,0,L|175:229,1,53.9999983520508,0|8,1:2|0:0,0:0:0:0:
217,221,26177,1,4,0:3:0:0:
311,146,26530,6,0,B|358:154|358:154|379:171|379:171|446:182,1,120,6|12,1:0|1:2,0:0:0:0:
487,192,27060,1,8,0:0:0:0:
487,192,27236,2,0,P|496:142|498:120,1,60,10|8,1:0|0:0,0:0:0:0:
504,73,27589,1,8,1:2:0:0:
401,11,27942,2,0,P|346:6|281:36,1,120,12|0,0:0|1:0,0:0:0:0:
252,80,28471,1,8,0:0:0:0:
252,80,28648,2,0,L|260:155,1,60,12|8,1:2|0:0,0:0:0:0:
263,199,29001,2,0,L|203:205,1,60,2|8,1:3|0:0,0:0:0:0:
143,211,29354,5,6,1:0:0:0:
30,168,29707,2,0,P|36:135|39:101,1,60,8|8,1:2|0:2,0:0:0:0:
43,48,30060,2,0,P|75:54|118:57,1,60,10|8,1:0|0:2,0:0:0:0:
161,65,30413,1,8,1:2:0:0:
269,13,30766,2,0,L|257:91,1,60,8|4,0:2|0:3,0:0:0:0:
255,131,31118,2,0,B|318:116|310:159|373:146,1,120,12|4,0:0|0:3,0:0:0:0:
424,116,31648,1,4,0:3:0:0:
424,116,31824,1,2,1:2:0:0:
498,210,32177,6,0,P|518:264|500:343,1,120,6|8,1:0|0:0,0:0:0:0:
464,363,32707,1,2,0:3:0:0:
464,363,32883,2,0,L|400:351,1,60,0|2,1:0|0:3,0:0:0:0:
346,337,33236,1,0,1:0:0:0:
228,369,33589,2,0,B|217:293,1,60,8|4,0:2|0:3,0:0:0:0:
210,250,33942,1,12,0:0:0:0:
291,162,34295,2,0,L|300:101,1,60,4|8,1:2|0:0,0:0:0:0:
312,43,34648,2,0,L|232:33,1,60,8|8,1:2|0:0,0:0:0:0:
192,26,35001,6,0,B|145:37|145:37|126:60|126:60|60:76,1,120,6|0,1:0|1:0,0:0:0:0:
26,174,35707,2,0,L|42:254,2,60,8|8|8,0:0|0:3|0:0,0:0:0:0:
85,186,36236,2,2,P|148:171|208:162,1,120,6|0,1:1|1:0,0:1:0:0:
262,157,36766,1,12,0:0:0:0:
370,208,37118,2,0,L|356:287,1,60,8|8,0:0|0:3,0:0:0:0:
347,325,37471,2,0,L|419:338,1,60,4|8,0:3|0:3,0:0:0:0:
465,347,37824,5,6,1:0:0:0:
256,192,37913,12,2,39942,0:0:0:0:
392,105,40648,6,0,L|284:117,1,96,4|0,1:0|0:0,0:0:0:0:
252,116,41177,1,0,1:0:0:0:
252,116,41354,2,0,L|240:8,1,96,2|0,0:0|0:0,0:0:0:0:
146,4,42059,2,0,P|123:110|150:196,1,192,2|0,0:0|0:0,0:0:0:0:
213,256,43118,1,2,0:3:0:0:
172,343,43471,6,0,P|125:335|57:333,1,96,0|0,1:0|0:0,0:0:0:0:
33,327,44001,1,0,1:0:0:0:
33,327,44177,2,0,P|22:274|37:226,1,96,2|0,0:0|0:0,0:0:0:0:
102,168,44883,2,0,B|168:158|168:158|219:182|219:182|297:171,1,192,2|0,0:0|0:0,0:0:0:0:
382,154,45942,1,2,0:3:0:0:
468,194,46295,6,0,P|477:245|490:300,1,96,0|2,1:0|0:0,0:0:0:0:
470,335,46824,1,0,1:0:0:0:
470,335,47001,2,0,P|423:350|366:330,1,96,2|2,0:0|0:0,0:0:0:0:
298,285,47707,2,0,L|243:294,1,48,2|2,0:0|0:0,0:0:0:0:
168,343,48236,2,0,P|163:299|149:233,1,96,2|2,0:0|0:0,0:0:0:0:
145,200,48765,1,2,0:3:0:0:
225,147,49118,6,0,B|275:138|268:178|331:168,1,96,0|2,1:0|0:0,0:0:0:0:
368,173,49648,1,0,1:0:0:0:
368,173,49824,2,0,P|381:115|371:65,1,96,2|2,0:0|0:0,0:0:0:0:
295,26,50530,2,0,L|186:41,1,96,2|0,0:0|0:0,0:0:0:0:
155,46,51060,1,2,0:0:0:0:
155,46,51236,2,0,P|128:133|136:243,1,192,2|6,0:0|1:0,0:0:0:0:
197,321,52295,6,0,P|224:316|257:313,1,53.9999983520508,0|0,1:0|0:0,0:0:0:0:
304,311,52648,2,0,P|313:258|290:191,1,107.999996704102,2|2,0:0|0:0,0:0:0:0:
240,122,53354,1,2,0:1:0:0:
240,122,53530,2,0,L|249:51,1,53.9999983520508,2|0,0:0|1:0,0:0:0:0:
258,15,53883,2,0,B|347:-1|332:64|413:49,1,161.999995056153,2|2,0:0|0:0,0:0:0:0:
487,125,54766,6,0,L|497:191,1,53.9999983520508,2|2,1:0|0:0,0:0:0:0:
430,264,55295,2,0,L|443:338,2,53.9999983520508,2|2|0,0:0|0:0|1:0,0:0:0:0:
383,239,55824,2,0,L|313:226,1,53.9999983520508,2|0,0:0|1:0,0:0:0:0:
276,218,56177,1,2,0:1:0:0:
190,283,56530,2,0,P|132:302|64:304,1,107.999996704102,0|2,1:0|0:0,0:0:0:0:
31,300,57060,2,0,L|10:192,1,107.999996704102,0|0,1:0|0:0,0:0:0:0:
0,140,57589,5,6,1:0:0:0:
72,59,57942,2,0,L|136:67,1,53.9999983520508,0|2,1:0|0:0,0:0:0:0:
178,77,58295,2,0,P|171:134|162:203,1,107.999996704102,2|2,0:0|0:0,0:0:0:0:
155,295,59001,1,2,0:1:0:0:
155,295,59177,2,0,P|206:300|231:304,1,53.9999983520508,2|0,0:0|1:0,0:0:0:0:
262,305,59530,1,2,0:0:0:0:
262,305,59707,2,0,P|315:279|378:278,1,107.999996704102,2|2,0:0|0:0,0:0:0:0:
468,300,60413,5,4,1:0:0:0:
487,193,60766,1,4,1:0:0:0:
451,91,61118,1,4,1:0:0:0:
354,43,61471,1,4,1:0:0:0:
241,48,61824,2,0,P|243:108|255:175,1,107.999996704102,8|8,0:0|0:0,0:0:0:0:
206,316,63236,6,0,P|160:334|117:331,1,90,6|0,1:0|1:0,0:0:0:0:
47,289,63766,1,0,1:0:0:0:
47,289,63942,2,0,L|30:377,2,90,10|0|0,0:1|1:0|1:1,0:0:0:0:
62,230,64648,2,0,P|55:182|43:133,1,90,4|0,1:2|1:0,0:0:0:0:
92,66,65177,1,0,1:0:0:0:
92,66,65354,2,0,P|124:61|160:51,1,60,10|0,0:1|1:0,0:0:0:0:
209,43,65707,2,0,P|214:73|221:101,1,60,8|0,0:0|1:0,0:0:0:0:
233,160,66060,6,0,B|290:170|290:170|326:148,1,90,6|0,1:0|1:0,0:0:0:0:
397,109,66589,1,0,1:0:0:0:
397,109,66766,1,8,0:2:0:0:
489,185,67118,2,0,L|479:250,1,60,2|0,0:3|1:0,0:0:0:0:
445,293,67471,2,0,P|454:340|462:389,2,90,4|0|0,1:2|1:0|1:0,0:0:0:0:
393,261,68177,1,8,0:0:0:0:
294,329,68530,2,0,P|262:323|226:320,1,60,8|4,0:0|0:3,0:0:0:0:
176,306,68883,6,0,B|162:244|162:244|187:214,1,90,6|0,1:0|1:0,0:0:0:0:
230,150,69413,1,0,1:0:0:0:
230,150,69589,2,0,L|240:48,2,90,10|0|0,0:1|1:0|1:0,0:0:0:0:
170,141,70295,2,0,P|115:134|74:130,1,90,4|0,1:2|1:2,0:0:0:0:
26,202,70824,1,0,1:0:0:0:
26,202,71001,2,0,L|39:283,1,60,10|0,0:1|1:0,0:0:0:0:
46,320,71354,2,0,P|95:311|125:308,1,60,8|0,0:0|1:0,0:0:0:0:
164,303,71707,6,0,P|210:299|256:319,1,90,6|0,1:0|1:0,0:0:0:0:
332,351,72236,1,0,1:0:0:0:
332,351,72413,2,0,L|343:221,1,120,8|2,0:0|0:3,0:0:0:0:
348,171,72942,1,0,1:0:0:0:
348,171,73118,2,0,B|301:165|301:165|276:176|276:176|226:171,1,120,4|8,1:0|1:2,0:0:0:0:
116,135,73824,2,0,P|109:96|105:65,1,60,10|8,0:3|0:0,0:0:0:0:
127,19,74177,2,0,P|165:12|197:8,1,60,4|8,0:3|0:0,0:0:0:0:
246,3,74530,6,0,P|297:16|359:24,1,90,6|0,1:0|1:0,0:0:0:0:
412,77,75060,1,0,1:0:0:0:
412,77,75236,2,0,L|518:51,2,90,10|0|0,0:1|1:0|1:0,0:0:0:0:
372,122,75942,2,0,P|367:178|381:219,1,90,4|0,1:2|1:0,0:0:0:0:
448,263,76471,1,0,1:0:0:0:
448,263,76648,2,0,P|444:303|442:339,1,60,10|0,0:1|1:0,0:0:0:0:
397,362,77001,2,0,P|357:358|321:356,1,60,8|0,0:0|1:0,0:0:0:0:
278,345,77354,6,0,B|264:278|264:278|284:245,1,90,6|0,1:0|1:0,0:0:0:0:
335,192,77883,1,0,1:0:0:0:
335,192,78060,1,8,0:0:0:0:
250,107,78413,2,0,L|176:96,1,60,2|0,0:3|1:0,0:0:0:0:
131,88,78766,2,0,P|110:136|122:192,1,90,4|0,1:2|1:0,0:0:0:0:
169,250,79295,1,0,1:0:0:0:
169,250,79471,2,0,L|152:329,1,60,8|0,0:0|1:0,0:0:0:0:
195,354,79824,2,0,P|245:366|266:372,1,60,8|0,0:3|1:0,0:0:0:0:
311,353,80177,6,0,L|402:337,2,90,4|0|0,1:0|1:0|1:0,0:0:0:0:
292,295,80883,1,8,0:0:0:0:
354,192,81236,1,4,0:3:0:0:
468,227,81589,1,4,1:2:0:0:
324,34,82295,2,0,B|175:51|263:113|99:127,1,240,4|12,1:0|1:0,0:0:0:0:
