osu file format v14

[General]
AudioFilename: audio.ogg
AudioLeadIn: 0
PreviewTime: 63060
Countdown: 0
SampleSet: Soft
StackLeniency: 0.7
Mode: 0
LetterboxInBreaks: 0
WidescreenStoryboard: 1

[Editor]
DistanceSpacing: 1.5
BeatDivisor: 4
GridSize: 8
TimelineZoom: 1

[Metadata]
Title:innocent arrogance (TV Size)
TitleUnicode:innocent arrogance (TV Size)
Artist:BiSH
ArtistUnicode:BiSH
Creator:Kanui
Version:hard
Source:天国大魔境
Tags:tengoku daimakyou heavenly delusion anime opening japanese rock jrock j-rock female vocals 松隈ケンタ Kenta Matsukuma JxSxK
BeatmapID:4190776
BeatmapSetID:2013708

[Difficulty]
HPDrainRate:4
CircleSize:3.6
OverallDifficulty:6.5
ApproachRate:8
SliderMultiplier:1.4
SliderTickRate:1

[Events]
//Background and Video events
0,0,"bg.jpg",0,0
Video,450,"video.mp4"
//Break Periods
//Storyboard Layer 0 (Background)
//Storyboard Layer 1 (Fail)
//Storyboard Layer 2 (Pass)
//Storyboard Layer 3 (Foreground)
//Storyboard Layer 4 (Overlay)
//Storyboard Sound Samples

[TimingPoints]
1119,352.941176470588,4,2,1,50,1,0
12060,-125,4,2,1,50,0,0
23001,-125,4,2,1,60,0,0
23707,-125,4,2,1,50,0,0
25118,-111.111111111111,4,2,1,60,0,0
26442,-111.111111111111,4,2,1,5,0,0
26530,-100,4,2,1,70,0,0
40295,-100,4,2,1,30,0,0
40648,-125,4,2,1,50,0,0
51942,-111.111111111111,4,2,1,60,0,0
60413,-111.111111111111,4,2,1,70,0,0
63236,-90.9090909090909,4,2,1,80,0,1
83001,-100,4,2,1,60,0,0

[Colours]
Combo1 : 205,133,133
Combo2 : 228,220,158
Combo3 : 170,208,223
Combo4 : 204,160,113

[HitObjects]
500,298,12413,6,0,P|445:288|365:278,1,112,4|0,1:0|2:0,2:0:0:0:
316,266,12942,1,0,1:0:0:0:
316,266,13118,2,0,P|326:211|336:131,1,112,2|0,0:0|2:0,2:0:0:0:
238,29,13824,6,0,P|174:25|114:62,1,112,2|0,0:0|0:0,0:0:0:0:
67,90,14354,1,2,0:0:0:0:
44,125,14883,6,0,L|63:231,1,84,2|0,0:3|0:0,0:0:0:0:
84,237,15236,6,0,B|142:216|140:258|213:235,1,112,0|0,1:0|0:0,0:0:0:0:
239,176,15766,1,0,1:0:0:0:
239,176,15942,2,0,P|230:240|225:300,1,112,2|0,0:0|0:0,0:0:0:0:
360,368,16648,6,0,P|369:303|374:244,1,112,2|0,0:0|0:0,0:0:0:0:
374,178,17177,1,0,0:0:0:0:
361,149,17707,6,0,L|459:130,1,84,2|0,0:3|0:0,0:0:0:0:
482,125,18060,6,0,P|473:98|470:50,1,56,0|0,1:0|0:0,0:0:0:0:
410,19,18413,2,0,P|383:27|335:30,1,56,2|0,0:0|1:0,0:0:0:0:
287,66,18766,1,2,0:0:0:0:
287,66,18942,2,0,L|164:51,1,112,2|2,0:0|0:0,0:0:0:0:
101,25,19471,6,0,P|93:69|86:99,1,56,2|2,0:0|0:0,0:0:0:0:
24,222,20001,2,0,B|61:206|61:206|86:215|86:215|151:207,1,112,2|2,0:0|0:0,0:0:0:0:
209,202,20530,2,0,L|201:264,1,56,2|2,0:0|0:3,0:0:0:0:
249,320,20883,6,0,P|202:309|122:303,1,112,0|2,1:0|0:0,0:0:0:0:
71,341,21413,1,0,1:0:0:0:
71,341,21589,2,0,P|55:284|30:217,1,112,2|2,0:0|0:0,0:0:0:0:
12,78,22295,6,0,B|96:68|106:126|192:112,1,168,2|2,0:0|0:0,0:0:0:0:
239,71,23001,2,0,L|247:20,3,28,8|8|8|8,0:0|0:0|0:0|0:0,0:0:0:0:
251,4,23354,1,8,0:0:0:0:
348,383,25118,6,0,L|335:307,1,62.9999980773926,8|0,0:0|1:0,0:0:0:0:
296,296,25383,2,0,L|306:221,1,62.9999980773926,8|0,0:0|1:0,0:0:0:0:
319,188,25648,1,8,0:0:0:0:
407,154,25824,1,0,1:2:0:0:
474,235,26001,1,8,0:0:0:0:
474,235,26089,1,8,0:0:0:0:
474,235,26177,1,4,0:3:0:0:
334,77,26530,6,0,B|290:88|290:88|265:104|265:104|212:116,1,105,6|8,1:0|0:0,0:0:0:0:
185,126,26883,1,12,1:2:0:0:
95,92,27060,1,8,0:0:0:0:
95,92,27148,1,8,0:0:0:0:
95,92,27236,1,10,1:0:0:0:
22,168,27413,1,8,0:0:0:0:
85,251,27589,2,0,L|74:286,2,35,8|8|8,1:2|0:0|0:3,0:0:0:0:
187,227,27942,6,0,P|231:218|272:208,1,70,12|0,0:0|0:0,0:0:0:0:
311,205,28207,1,2,1:3:0:0:
311,205,28295,2,0,P|324:269|329:291,1,70,0|8,1:0|0:0,0:0:0:0:
410,334,28648,2,0,L|414:290,3,35,12|8|8|8,1:2|0:0|0:0|0:0,0:0:0:0:
448,259,29001,2,0,L|452:215,3,35,2|8|8|8,1:3|0:0|0:0|0:0,0:0:0:0:
444,171,29354,6,0,P|431:112|425:24,1,140,6|8,1:0|1:2,0:0:0:0:
332,8,29883,1,8,0:2:0:0:
332,8,29971,1,8,0:0:0:0:
332,8,30060,1,10,1:0:0:0:
254,78,30236,1,8,0:0:0:0:
316,163,30413,2,0,L|308:208,3,35,8|8|8|4,1:2|0:0|0:3|0:3,0:0:0:0:
291,247,30766,6,0,P|240:258|204:264,1,70,8|4,0:2|0:3,0:0:0:0:
178,244,31030,1,4,0:3:0:0:
178,244,31118,2,0,P|190:308|207:368,1,105,12|8,0:0|0:0,0:0:0:0:
160,384,31471,2,0,L|119:375,3,35,4|4|4|4,0:3|0:3|0:3|0:3,0:0:0:0:
75,359,31824,1,2,1:2:0:0:
2,161,32177,6,0,P|40:153|85:147,1,70,6|2,1:0|0:3,0:0:0:0:
93,45,32530,2,0,P|127:50|161:57,1,70,8|2,0:0|0:3,0:0:0:0:
217,73,32795,1,8,0:0:0:0:
217,73,32883,1,0,1:0:0:0:
273,161,33060,1,2,0:3:0:0:
191,226,33236,2,0,L|201:272,3,35,0|0|8|8,1:0|0:0|0:0|0:0,0:0:0:0:
214,310,33589,5,8,0:0:0:0:
305,253,33766,1,4,0:3:0:0:
305,253,33854,1,4,0:3:0:0:
305,253,33942,2,0,P|356:262|389:266,1,70,12|0,0:0|0:0,0:0:0:0:
464,318,34295,2,0,P|469:266|476:224,1,70,4|8,1:2|0:0,0:0:0:0:
456,202,34560,1,8,0:0:0:0:
456,202,34648,2,0,L|447:147,3,35,8|8|8|8,1:2|0:0|0:0|0:0,0:0:0:0:
440,115,35001,6,0,B|382:101|365:152|291:139,1,140,6|0,1:0|1:0,0:0:0:0:
220,97,35530,1,8,0:0:0:0:
220,97,35618,1,8,0:0:0:0:
220,97,35707,1,8,0:0:0:0:
150,175,35883,1,8,0:3:0:0:
233,240,36060,1,8,0:0:0:0:
165,320,36236,6,2,P|108:308|16:303,1,140,6|0,1:1|1:0,0:1:0:0:
0,197,36766,2,0,P|13:138|17:99,1,70,12|0,0:0|1:0,0:0:0:0:
28,81,37030,1,0,1:0:0:0:
28,81,37118,2,0,L|70:85,3,35,8|8|8|0,0:0|0:0|0:3|0:0,0:0:0:0:
115,89,37471,2,0,L|149:91,3,35,4|4|8|8,0:3|0:3|0:3|0:3,0:0:0:0:
202,97,37824,5,6,1:0:0:0:
256,192,37913,12,2,40295,0:0:0:0:
221,277,40648,6,0,P|276:267|356:257,1,112,4|0,1:0|0:0,0:0:0:0:
412,243,41177,1,0,1:0:0:0:
412,243,41353,2,0,P|412:176|387:132,1,112,2|0,0:0|0:0,0:0:0:0:
302,7,42059,6,0,B|316:59|283:67|299:122,1,112,2|0,0:0|0:0,0:0:0:0:
250,180,42589,1,2,0:0:0:0:
225,208,43118,6,0,L|121:197,1,84,2|0,0:3|0:0,0:0:0:0:
102,195,43471,6,0,P|98:262|91:322,1,112,0|0,1:0|0:0,0:0:0:0:
161,355,44001,1,0,1:0:0:0:
161,355,44177,2,0,P|225:346|285:341,1,112,2|0,0:0|0:0,0:0:0:0:
426,373,44883,6,0,B|403:336|403:336|437:248,1,112,2|0,0:0|0:0,0:0:0:0:
463,202,45412,1,0,0:0:0:0:
484,169,45942,6,0,L|386:150,1,84,2|0,0:3|0:0,0:0:0:0:
363,143,46295,6,0,P|355:175|347:216,1,56,0|0,1:0|0:0,0:0:0:0:
311,265,46648,2,0,L|239:276,1,56,2|0,0:0|1:0,0:0:0:0:
182,294,47001,1,2,0:0:0:0:
182,294,47177,2,0,L|192:365,2,56,2|2|2,0:0|0:0|0:0,0:0:0:0:
201,217,47706,6,0,L|191:144,1,56,2|2,0:0|0:0,0:0:0:0:
284,33,48236,2,0,P|335:26|395:46,1,112,2|2,0:0|0:0,0:0:0:0:
454,91,48765,2,0,L|446:153,1,56,2|2,0:3|0:0,0:0:0:0:
431,223,49118,6,0,P|382:214|304:206,1,112,0|2,1:0|0:0,0:0:0:0:
246,196,49648,1,0,1:0:0:0:
246,196,49824,2,0,P|237:258|223:326,1,112,2|2,0:0|0:0,0:0:0:0:
85,373,50530,5,2,0:0:0:0:
5,237,50883,1,2,0:0:0:0:
64,91,51236,2,0,P|171:81|307:58,1,224,2|6,0:0|1:0,0:0:0:0:
453,5,52295,6,0,P|445:53|442:81,1,62.9999980773926,0|0,1:0|0:0,0:0:0:0:
431,154,52648,2,0,B|386:146|386:146|352:154|352:154|292:145,1,125.999996154785,2|2,0:0|0:0,0:0:0:0:
147,218,53354,1,2,0:1:0:0:
147,218,53530,2,0,L|159:293,1,62.9999980773926,2|0,0:0|1:0,0:0:0:0:
203,355,53883,2,0,P|257:330|327:336,1,125.999996154785,2|0,0:0|1:0,0:0:0:0:
403,368,54413,1,2,0:0:0:0:
503,222,54766,6,0,L|490:303,2,62.9999980773926,2|0|0,1:0|0:0|1:0,0:0:0:0:
431,169,55295,1,2,0:0:0:0:
431,169,55471,2,0,L|358:181,1,62.9999980773926,2|0,0:0|1:0,0:0:0:0:
298,232,55824,2,0,L|235:221,1,62.9999980773926,2|0,0:0|1:0,0:0:0:0:
151,196,56177,6,0,P|166:127|181:52,1,125.999996154785,2|0,0:1|1:0,0:0:0:0:
11,27,56883,1,2,0:0:0:0:
11,27,57060,2,0,P|20:84|29:163,1,125.999996154785,0|0,1:0|0:0,0:0:0:0:
41,239,57589,5,6,1:0:0:0:
193,328,57942,2,0,P|228:320|270:318,1,62.9999980773926,0|2,1:0|0:0,0:0:0:0:
339,342,58295,2,0,B|354:269|315:288|327:204,1,125.999996154785,2|2,0:0|0:0,0:0:0:0:
426,75,59001,5,2,0:1:0:0:
426,75,59177,2,0,P|433:121|442:155,1,62.9999980773926,2|0,0:0|1:0,0:0:0:0:
485,217,59530,1,2,0:0:0:0:
485,217,59707,2,0,P|497:272|500:299,1,62.9999980773926,2|0,0:0|1:0,0:0:0:0:
473,363,60060,1,2,0:0:0:0:
306,305,60413,5,4,1:0:0:0:
409,162,60765,1,4,1:0:0:0:
306,20,61118,1,4,1:0:0:0:
138,74,61471,1,4,1:0:0:0:
138,250,61824,6,0,L|178:239,3,31.4999990386963,8|8|8|8,0:0|0:0|0:0|0:0,0:0:0:0:
211,231,62177,1,8,0:0:0:0:
91,16,63236,6,0,L|73:105,1,77.0000023498536,6|0,1:0|0:0,0:0:0:0:
43,135,63501,2,0,P|45:199|62:257,1,115.50000352478,0|0,1:0|1:0,0:0:0:0:
133,326,63942,2,0,B|197:315|179:355|273:340,2,115.50000352478,10|0|0,0:1|1:0|1:1,0:0:0:0:
192,236,64648,6,0,P|199:196|203:147,1,77.0000023498536,4|0,1:2|0:0,0:0:0:0:
212,106,64913,2,0,P|274:100|341:86,1,115.50000352478,0|0,1:0|1:0,0:0:0:0:
431,64,65354,1,10,0:1:0:0:
458,167,65530,1,0,1:0:0:0:
353,196,65707,2,0,P|359:238|367:286,1,77.0000023498536,8|0,0:0|0:0,0:0:0:0:
378,328,65971,1,0,1:0:0:0:
378,328,66060,6,0,P|331:333|280:345,1,77.0000023498536,6|0,1:0|0:0,0:0:0:0:
256,367,66324,2,0,P|195:339|122:342,1,115.50000352478,0|0,1:0|1:0,0:0:0:0:
41,362,66766,2,0,L|28:267,1,77.0000023498536,8|0,0:2|0:0,0:0:0:0:
26,235,67031,1,0,1:0:0:0:
26,235,67119,1,2,0:3:0:0:
107,163,67295,1,0,1:0:0:0:
205,205,67471,6,0,P|271:220|348:220,2,115.50000352478,4|0|0,1:2|1:0|1:0,0:0:0:0:
246,105,68177,2,0,P|241:69|239:29,1,77.0000023498536,8|0,0:0|1:0,0:0:0:0:
132,12,68530,1,8,0:0:0:0:
132,12,68618,1,8,0:3:0:0:
132,12,68707,1,4,0:3:0:0:
40,67,68883,6,0,P|51:109|57:147,1,77.0000023498536,6|0,1:0|0:0,0:0:0:0:
71,194,69148,2,0,B|125:181|125:181|144:189|144:189|200:190,1,115.50000352478,0|0,1:0|1:0,0:0:0:0:
289,171,69589,2,0,P|272:236|265:312,2,115.50000352478,10|0|0,0:1|1:0|1:0,0:0:0:0:
369,243,70295,6,0,P|409:233|456:228,1,77.0000023498536,4|0,1:2|0:0,0:0:0:0:
497,219,70560,2,0,P|486:164|481:90,1,115.50000352478,0|0,1:2|1:0,0:0:0:0:
478,50,70913,1,0,0:0:0:0:
478,50,71001,1,10,0:1:0:0:
379,5,71177,1,0,1:0:0:0:
300,79,71354,2,0,P|237:70|213:68,1,77.0000023498536,8|0,0:0|1:0,0:0:0:0:
174,63,71618,1,0,1:0:0:0:
174,63,71707,6,0,B|106:53|123:88|43:73,2,115.50000352478,6|0|0,1:0|1:0|1:0,0:0:0:0:
138,165,72413,2,0,P|148:212|152:255,1,77.0000023498536,8|0,0:0|0:0,0:0:0:0:
226,318,72766,1,2,0:3:0:0:
328,275,72942,5,0,1:0:0:0:
328,275,73030,1,0,1:0:0:0:
328,275,73118,1,4,1:0:0:0:
421,329,73295,1,8,0:0:0:0:
421,329,73383,1,8,0:0:0:0:
421,329,73471,2,0,L|428:285,3,38.5000011749268,8|8|8|8,1:2|0:0|0:0|0:0,0:0:0:0:
441,238,73824,2,0,L|448:194,3,38.5000011749268,10|8|8|8,0:3|0:3|0:0|0:3,0:0:0:0:
459,147,74177,1,4,0:3:0:0:
365,116,74354,5,8,0:0:0:0:
365,116,74442,1,8,0:0:0:0:
365,116,74530,2,0,P|320:122|273:127,1,77.0000023498536,6|0,1:0|0:0,0:0:0:0:
253,166,74795,2,0,P|189:164|119:135,1,115.50000352478,0|0,1:0|1:0,0:0:0:0:
39,108,75236,2,0,L|60:237,2,115.50000352478,10|0|0,0:1|1:0|1:0,0:0:0:0:
114,31,75942,6,0,P|160:21|214:6,1,77.0000023498536,4|0,1:2|0:0,0:0:0:0:
242,6,76207,2,0,B|290:15|290:15|310:28|310:28|381:37,1,115.50000352478,0|0,1:0|1:0,0:0:0:0:
451,76,76648,1,10,0:1:0:0:
394,167,76824,1,0,1:0:0:0:
297,120,77001,2,0,P|243:132|194:145,1,77.0000023498536,8|0,0:0|1:0,0:0:0:0:
172,149,77266,1,0,1:0:0:0:
172,149,77354,6,0,P|156:84|130:16,2,115.50000352478,6|0|0,1:0|1:0|1:0,0:0:0:0:
260,210,78060,2,0,L|247:312,1,77.0000023498536,8|0,0:0|0:0,0:0:0:0:
244,343,78324,1,0,1:0:0:0:
244,343,78413,1,2,0:3:0:0:
350,358,78589,1,0,1:0:0:0:
363,250,78766,6,0,B|424:231|420:263|489:241,2,115.50000352478,4|0|0,1:2|1:0|1:0,0:0:0:0:
275,187,79471,1,8,0:0:0:0:
330,94,79648,1,0,1:0:0:0:
255,15,79824,2,0,P|217:30|179:39,1,77.0000023498536,8|0,0:3|1:0,0:0:0:0:
143,76,80089,1,0,1:0:0:0:
143,76,80177,6,0,P|76:62|16:54,2,115.50000352478,4|0|0,1:0|1:0|1:0,0:0:0:0:
228,142,80883,2,0,P|234:180|237:223,1,77.0000023498536,8|8,0:0|0:3,0:0:0:0:
130,236,81236,2,0,P|124:274|121:312,1,77.0000023498536,4|4,0:3|0:3,0:0:0:0:
29,369,81589,5,4,1:2:0:0:
26,377,82295,6,0,B|232:403|109:303|344:334,1,308.000009399414,4|12,1:0|1:0,0:0:0:0:
