osu file format v14

[General]
AudioFilename: audio.mp3
AudioLeadIn: 0
PreviewTime: 56135
Countdown: 0
SampleSet: Soft
StackLeniency: 0.5
Mode: 0
LetterboxInBreaks: 0
WidescreenStoryboard: 1

[Editor]
DistanceSpacing: 1.2
BeatDivisor: 4
GridSize: 8
TimelineZoom: 2.789998

[Metadata]
Title:TOMORROW (TV Size)
TitleUnicode:TOMORROW (TV Size)
Artist:BiSH
ArtistUnicode:BiSH
Creator:HakuYT
Version:kanocchi's Hard
Source:キングダム
Tags:op j-rock third 3rd series 第3シリーズ jrock rock anime japanese kingdom season 3 opening elcheer kuki1537 bigfrog kanocchi
BeatmapID:2500330
BeatmapSetID:1197817

[Difficulty]
HPDrainRate:4
CircleSize:3.5
OverallDifficulty:6.5
ApproachRate:8
SliderMultiplier:1.4
SliderTickRate:1

[Events]
//Background and Video events
Video,730,"kingdom.mp4"
0,0,"bg.jpg",0,0
//Break Periods
//Storyboard Layer 0 (Background)
//Storyboard Layer 1 (Fail)
//Storyboard Layer 2 (Pass)
//Storyboard Layer 3 (Foreground)
//Storyboard Layer 4 (Overlay)
//Storyboard Sound Samples

[TimingPoints]
3758,307.692307692308,4,2,1,70,1,0
4988,307.692307692308,4,2,1,70,1,0
15911,-133.333333333333,4,2,1,65,0,0
16605,-133.333333333333,4,2,1,5,0,0
16681,-133.333333333333,4,2,1,65,0,0
17296,-111.111111111111,4,2,1,50,0,0
22143,-111.111111111111,4,2,1,5,0,0
22219,-111.111111111111,4,2,1,50,0,0
23682,-111.111111111111,4,2,1,5,0,0
23758,-111.111111111111,4,2,1,50,0,0
25911,-100,4,2,1,70,0,0
31066,-100,4,2,1,5,0,0
31142,-100,4,2,1,70,0,0
31990,-100,4,2,1,5,0,0
32065,-100,4,2,1,70,0,0
32605,-100,4,2,1,5,0,0
32681,-100,4,2,1,70,0,0
36988,-111.111111111111,4,2,1,60,0,0
38143,-111.111111111111,4,2,1,5,0,0
38219,-111.111111111111,4,2,1,60,0,0
39374,-111.111111111111,4,2,1,5,0,0
39450,-111.111111111111,4,2,1,60,0,0
40605,-111.111111111111,4,2,1,5,0,0
40681,-111.111111111111,4,2,1,60,0,0
44297,-111.111111111111,4,2,1,5,0,0
44373,-111.111111111111,4,2,1,60,0,0
45066,-111.111111111111,4,2,1,5,0,0
45142,-111.111111111111,4,2,1,60,0,0
45604,-111.111111111111,4,2,1,65,0,0
46816,309.278350515464,4,2,1,70,1,0
46816,-96.8523002421307,4,2,1,70,0,0
47115,307.692307692308,4,2,1,70,1,0
48038,307.692307692308,4,2,1,70,1,0
50499,327.868852459016,4,2,1,70,1,0
50826,309.278350515464,4,2,1,70,1,0
51444,306.122448979592,4,2,1,70,1,0
51750,309.278350515464,4,2,1,70,1,0
52987,307.692307692308,4,2,1,70,1,0
53602,310.880829015544,4,2,1,70,1,0
54223,312.5,4,2,1,70,1,0
54535,304.568527918782,4,2,1,70,1,0
55294,306.122448979592,4,2,1,70,1,0
56680,307.692307692308,4,2,1,80,1,1
56680,-90.9090909090909,4,2,1,80,0,1
56910,-90.9090909090909,4,2,1,5,0,1
56987,-90.9090909090909,4,2,1,80,0,1
59372,-90.9090909090909,4,2,1,5,0,1
59449,-90.9090909090909,4,2,1,80,0,1
66756,-90.9090909090909,4,2,1,5,0,1
66833,-90.9090909090909,4,2,1,80,0,1
69295,-90.9090909090909,4,2,1,80,0,1
76218,-100,4,2,1,60,0,0
77141,-200,4,2,1,60,0,0
77603,-100,4,2,1,70,0,0
84911,-100,4,2,1,5,0,0
84987,-100,4,2,1,70,0,0
88065,-100,4,2,1,70,0,0
89296,-100,4,2,1,70,0,0

[Colours]
Combo1 : 255,206,60
Combo2 : 255,128,64
Combo3 : 45,150,255
Combo4 : 0,206,223

[HitObjects]
104,232,4988,6,0,L|24:224,2,70,6|0|10,1:2|1:2|0:2,0:0:0:0:
162,310,5450,2,0,P|218:270|306:302,1,140,0|2,0:2|1:2,0:0:0:0:
348,357,5911,2,0,P|380:365|428:357,1,70,10|2,0:2|0:2,0:0:0:0:
476,283,6219,2,0,L|484:203,1,70,2|2,1:2|1:2,0:0:0:0:
464,120,6527,1,10,0:2:0:0:
464,120,6681,2,0,B|424:80|424:80|336:72,1,140,2|2,0:2|1:2,0:0:0:0:
263,135,7142,2,0,L|167:127,1,70,10|2,0:2|0:2,0:0:0:0:
103,87,7450,6,0,P|95:47|111:7,2,70,2|2|8,1:2|1:2|0:2,0:0:0:0:
193,129,7911,2,0,L|177:289,2,140,2|2|2,0:2|1:2|0:2,0:0:0:0:
280,80,8681,2,0,P|344:64|424:120,1,140,0|8,1:2|0:2,0:0:0:0:
449,184,9142,2,0,L|457:232,2,35,0|8|0,0:2|0:2|1:2,0:0:0:0:
352,168,9450,1,2,1:2:0:0:
280,224,9604,2,0,P|240:224|192:208,1,70,10|8,0:2|0:2,0:0:0:0:
112,224,9911,6,0,L|118:313,2,70,6|2|10,1:2|1:2|0:2,0:0:0:0:
16,184,10373,2,0,L|27:345,1,140,2|2,0:2|1:2,0:0:0:0:
112,376,10834,2,0,P|152:368|192:336,1,70,10|2,0:2|0:2,0:0:0:0:
264,312,11142,2,0,P|298:317|328:335,1,70,2|2,1:2|1:2,0:0:0:0:
416,376,11450,1,10,0:2:0:0:
416,376,11604,2,0,P|408:304|440:224,1,140,2|2,0:2|1:2,0:0:0:0:
493,167,12065,2,0,L|485:79,1,70,10|2,0:2|0:2,0:0:0:0:
392,40,12373,6,0,P|336:72|248:32,1,140,6|10,1:2|0:2,0:0:0:0:
176,88,12834,2,0,L|184:136,2,35,2|8|2,0:2|0:2|1:2,0:0:0:0:
84,41,13142,1,0,1:2:0:0:
84,41,13296,2,0,P|73:72|80:128,1,70,10|2,0:2|0:2,0:0:0:0:
112,199,13604,6,0,L|104:279,1,70,2|2,1:2|1:2,0:0:0:0:
202,287,13911,1,10,0:2:0:0:
288,224,14065,1,2,0:2:0:0:
288,224,14219,2,0,P|328:224|368:240,1,70,2|10,1:2|0:3,0:0:0:0:
440,288,14527,1,10,0:3:0:0:
472,192,14681,1,8,0:3:0:0:
384,136,14834,6,0,B|290:122|290:122|240:136,1,140,6|0,1:2|0:0,0:0:0:0:
184,200,15296,2,0,L|136:192,2,35,8|8|2,0:2|0:2|1:2,0:0:0:0:
136,288,15604,1,10,0:3:0:0:
168,376,15758,1,10,0:3:0:0:
264,288,15911,6,0,B|320:264|384:288|344:312|416:336|480:296,1,210.000008010865,6|0,1:2|0:0,0:0:0:0:
416,232,16681,2,0,P|416:200|432:152,2,78.7500030040742,8|8|8,0:2|0:3|0:3,0:0:0:0:
334,204,17296,6,0,B|307:185|278:195|278:195|275:156|238:132,2,125.999996154785,4|2|2,1:2|1:2|1:2,0:0:0:0:
296,350,18219,2,0,P|252:363|223:353,1,62.9999980773926,2|0,1:2|0:2,0:0:0:0:
160,293,18527,2,0,B|109:300|109:300|87:320|87:320|16:333,1,125.999996154785,2|2,1:2|1:2,0:0:0:0:
0,233,18988,2,0,P|-3:188|65:122,1,125.999996154785,2|0,0:2|0:2,0:0:0:0:
139,115,19450,1,2,1:2:0:0:
304,224,19758,6,0,B|295:365,2,125.999996154785,6|0|0,1:2|1:2|1:2,0:0:0:0:
464,105,20681,6,0,P|463:70|431:45,1,62.9999980773926,2|0,1:2|0:2,0:0:0:0:
361,98,20988,2,0,B|312:58|279:104|273:99|236:152|183:107,2,188.999994232178,2|2|2,1:2|0:2|1:2,0:0:0:0:
443,282,22219,1,4,1:2:0:0:
443,282,22527,6,0,P|373:300|348:251,2,125.999996154785,2|2|2,1:2|1:2|1:2,0:0:0:0:
366,164,23450,2,0,B|326:140|326:140|218:155,1,125.999996154785,2|2,1:2|1:2,0:0:0:0:
181,193,23911,1,2,0:2:0:0:
40,154,24219,1,2,0:2:0:0:
40,154,24373,2,0,P|32:125|47:98,1,62.9999980773926,2|0,1:2|0:2,0:0:0:0:
113,36,24681,6,0,P|169:47|244:73,2,125.999996154785,6|0|0,1:2|1:2|1:2,0:0:0:0:
272,160,25604,2,0,P|315:149|350:145,1,62.9999980773926,2|0,1:2|0:2,0:0:0:0:
456,116,25911,6,0,P|445:185|434:280,1,140,14|0,0:2|1:2,0:0:0:0:
332,295,26373,2,0,P|324:229|313:156,1,140,14|0,0:2|1:2,0:0:0:0:
337,63,26834,2,0,L|319:16,3,35,8|8|8|8,0:2|0:2|0:2|0:2,0:0:0:0:
307,3,27142,6,0,P|252:20|231:47,1,70,4|0,1:2|1:2,0:0:0:0:
183,107,27450,1,10,0:2:0:0:
100,53,27604,1,2,0:2:0:0:
20,116,27758,2,0,P|33:158|44:211,1,70,2|2,0:2|1:2,0:0:0:0:
121,246,28065,1,8,0:2:0:0:
121,246,28219,6,0,L|101:402,1,140,2|2,0:2|1:2,0:0:0:0:
200,325,28681,2,0,B|231:313|231:313|276:327,1,70,10|2,0:2|1:2,0:0:0:0:
349,370,28988,2,0,B|384:380|384:380|415:368,1,70,2|2,0:2|1:2,0:0:0:0:
459,278,29296,2,0,P|417:240|395:290,1,105,10|0,0:2|0:0,0:0:0:0:
374,289,29604,6,0,B|358:249|358:249|374:129,1,140,2|8,1:2|0:2,0:0:0:0:
456,80,30065,1,0,0:2:0:0:
368,40,30219,2,0,L|280:32,1,70,0|0,0:2|1:2,0:0:0:0:
224,96,30527,2,0,L|136:88,1,70,10|0,0:2|0:2,0:0:0:0:
80,152,30834,6,0,B|56:192|56:192|64:312,1,140,2|8,0:2|0:2,0:0:0:0:
144,344,31296,2,0,B|168:304|168:304|160:184,1,140,2|0,1:2|1:2,0:0:0:0:
256,224,31758,2,0,L|352:216,1,70,10|0,0:2|0:0,0:0:0:0:
408,160,32065,6,0,P|408:120|392:72,1,70,4|0,1:2|1:2,0:0:0:0:
312,48,32373,1,10,0:2:0:0:
312,48,32527,1,0,0:0:0:0:
224,96,32681,2,0,L|136:88,1,70,2|2,0:2|1:2,0:0:0:0:
96,168,32988,1,8,0:2:0:0:
96,168,33142,2,0,B|78:251|127:232|113:323,1,140,2|2,0:2|1:2,0:0:0:0:
208,352,33604,6,0,P|248:336|288:336,1,70,10|2,0:2|1:2,0:0:0:0:
336,256,33911,2,0,P|296:237|256:235,1,70,2|2,0:2|1:2,0:0:0:0:
204,165,34219,1,10,0:2:0:0:
251,76,34373,1,0,0:2:0:0:
251,76,34527,6,0,L|419:68,1,140,6|8,1:2|0:2,0:0:0:0:
471,133,34988,1,0,0:2:0:0:
440,232,35142,2,0,L|448:320,1,70,0|0,0:2|1:2,0:0:0:0:
352,336,35450,2,0,L|345:266,1,70,10|0,0:2|0:2,0:0:0:0:
248,232,35758,2,0,P|176:232|120:288,1,140,2|8,1:2|0:2,0:0:0:0:
80,344,36219,1,10,0:2:0:0:
80,344,36373,2,0,L|72:176,1,140,10|8,0:2|0:3,0:0:0:0:
160,88,36988,6,0,P|192:88|240:64,1,62.9999980773926,6|0,1:2|0:0,0:0:0:0:
296,24,37296,1,0,0:2:0:0:
368,96,37450,2,0,L|360:240,1,125.999996154785,2|0,1:2|1:2,0:0:0:0:
408,312,37911,1,8,0:2:0:0:
248,360,38219,6,0,L|168:352,1,62.9999980773926,2|0,1:2|1:2,0:0:0:0:
80,368,38527,1,2,0:2:0:0:
80,368,38681,2,0,P|92:302|157:251,1,125.999996154785,8|0,0:2|1:2,0:0:0:0:
232,264,39142,1,10,0:2:0:0:
392,192,39450,6,0,L|384:40,1,125.999996154785,6|0,1:2|0:2,0:0:0:0:
296,32,39911,2,0,B|248:36|248:36|225:54|225:54|161:59,1,125.999996154785,0|0,1:2|1:2,0:0:0:0:
80,32,40373,1,8,0:2:0:0:
24,192,40681,6,0,L|32:272,2,62.9999980773926,2|0|2,1:2|1:2|0:2,0:0:0:0:
118,213,41142,2,0,P|185:205|242:249,1,125.999996154785,8|8,0:2|0:3,0:0:0:0:
160,303,41604,1,10,0:3:0:0:
320,352,41911,6,0,L|472:344,1,125.999996154785,6|0,1:2|0:2,0:0:0:0:
512,248,42373,2,0,L|360:256,1,125.999996154785,0|0,1:2|1:2,0:0:0:0:
440,164,42834,1,10,0:2:0:0:
288,80,43142,6,0,L|296:8,2,62.9999980773926,2|0|2,1:2|1:2|0:2,0:0:0:0:
200,134,43604,2,0,P|137:154|67:107,1,125.999996154785,8|0,0:2|1:2,0:0:0:0:
144,64,44065,1,8,0:2:0:0:
280,168,44373,6,0,L|296:368,1,188.999994232178,6|0,1:2|1:2,0:0:0:0:
160,256,45142,5,2,1:2:0:0:
80,208,45296,2,0,P|76:176|84:146,1,62.9999980773926,10|2,0:2|0:2,0:0:0:0:
176,104,45604,6,0,L|248:96,1,62.9999980773926,0|8,1:2|0:2,0:0:0:0:
309,27,45911,2,0,L|371:33,1,62.9999980773926,0|8,1:2|0:2,0:0:0:0:
396,36,46142,1,8,0:2:0:0:
420,39,46219,1,8,0:2:0:0:
477,125,46373,1,8,0:2:0:0:
477,125,46527,2,0,L|461:205,1,62.9999980773926,8|8,0:2|0:2,0:0:0:0:
379,263,46816,6,0,P|323:295|242:272,1,140,4|8,1:2|0:2,0:0:0:0:
160,320,47268,1,0,0:2:0:0:
160,320,47422,2,0,P|152:272|160:240,1,70,2|0,1:2|1:2,0:0:0:0:
60,219,47730,2,0,P|88:179|116:162,1,70,10|0,0:2|0:2,0:0:0:0:
188,114,48038,6,0,L|180:26,1,70,6|0,1:2|0:2,0:0:0:0:
280,69,48345,1,10,0:2:0:0:
280,69,48499,1,0,0:2:0:0:
332,156,48653,2,0,P|364:148|412:156,2,70,2|0|10,1:2|1:2|0:2,0:0:0:0:
372,242,49115,1,0,0:2:0:0:
292,300,49268,6,0,B|244:324|244:324|140:316,1,140,6|8,1:2|0:2,0:0:0:0:
102,376,49730,1,2,0:2:0:0:
102,376,49884,2,0,L|110:208,1,140,2|8,1:2|0:2,0:0:0:0:
240,128,50499,6,0,P|280:120|320:128,1,70,6|0,1:2|0:2,0:0:0:0:
392,176,50826,2,0,P|426:179|460:172,1,70,10|0,0:2|0:2,0:0:0:0:
424,88,51135,1,2,1:2:0:0:
424,88,51289,1,0,1:2:0:0:
336,48,51444,2,0,L|329:82,3,35,10|8|8|8,0:2|0:2|0:2|0:2,0:0:0:0:
308,124,51750,6,0,P|248:152|160:112,1,140,6|8,1:2|0:2,0:0:0:0:
112,64,52213,1,0,0:2:0:0:
48,136,52368,2,0,L|40:232,1,70,0|0,1:2|1:2,0:0:0:0:
136,224,52677,2,0,L|144:319,1,70,8|0,0:2|0:2,0:0:0:0:
264,344,52987,6,0,P|328:328|408:376,1,140,2|8,1:2|0:2,0:0:0:0:
464,288,53448,1,0,0:2:0:0:
464,288,53602,2,0,P|472:256|464:200,1,70,0|0,1:2|1:2,0:0:0:0:
400,152,53912,2,0,P|397:117|405:83,1,70,8|0,0:2|0:0,0:0:0:0:
280,40,54223,6,0,L|112:32,1,140,6|8,1:2|0:2,0:0:0:0:
80,104,54687,1,8,0:2:0:0:
88,200,54839,2,0,L|80:288,1,70,8|8,0:2|0:2,0:0:0:0:
184,280,55144,1,8,0:2:0:0:
184,280,55294,2,0,B|216:264|253:283|253:283|288:304|344:272,1,140,6|8,1:2|0:3,0:0:0:0:
416,248,55753,5,8,0:2:0:0:
416,248,55829,1,8,0:2:0:0:
416,248,55906,2,0,L|418:181,2,35,8|8|8,0:2|0:2|0:2,0:0:0:0:
319,284,56680,6,0,P|259:328|195:317,1,115.50000352478,6|0,1:2|0:2,0:0:0:0:
180,305,56987,1,10,0:0:0:0:
75,257,57141,2,0,L|79:357,1,77.0000023498536,2|0,0:2|1:2,0:0:0:0:
158,217,57449,2,0,L|154:117,1,77.0000023498536,2|8,0:2|0:2,0:0:0:0:
247,82,57756,6,0,B|291:66|323:87|323:87|360:109|425:77,1,154.000004699707,2|0,0:2|0:2,0:0:0:0:
464,176,58218,2,0,P|483:142|518:117,2,77.0000023498536,8|0|0,0:2|0:2|1:2,0:0:0:0:
383,247,58680,1,2,0:2:0:0:
262,226,58833,2,0,L|273:315,1,77.0000023498536,10|2,0:2|0:2,0:0:0:0:
163,353,59141,6,0,L|150:210,1,115.50000352478,2|0,1:2|0:2,0:0:0:0:
133,198,59449,1,10,0:0:0:0:
200,112,59603,2,0,L|288:101,1,77.0000023498536,2|0,0:2|1:2,0:0:0:0:
321,202,59910,1,2,0:2:0:0:
424,170,60064,1,8,0:2:0:0:
405,293,60218,6,0,B|373:329|373:329|233:321,1,154.000004699707,2|0,0:2|0:0,0:0:0:0:
164,292,60680,2,0,L|156:208,1,77.0000023498536,8|0,0:2|0:2,0:0:0:0:
64,264,60987,1,0,1:2:0:0:
16,176,61141,1,0,1:2:0:0:
72,92,61295,2,0,P|84:48|76:8,1,77.0000023498536,10|0,0:2|0:2,0:0:0:0:
189,74,61603,6,0,P|253:94|341:46,1,154.000004699707,6|8,1:2|0:2,0:0:0:0:
433,28,62064,1,0,0:2:0:0:
487,127,62218,1,2,1:2:0:0:
487,127,62372,2,0,L|480:203,1,77.0000023498536,2|8,0:2|0:2,0:0:0:0:
447,309,62680,2,0,B|399:293|359:309|379:325|340:350|271:317,1,154.000004699707,2|0,0:2|0:2,0:0:0:0:
225,246,63141,5,10,0:2:0:0:
121,278,63295,1,0,0:2:0:0:
13,310,63449,2,0,P|10:263|23:224,1,77.0000023498536,2|0,1:2|0:2,0:0:0:0:
109,178,63756,2,0,P|117:140|113:102,1,77.0000023498536,10|0,0:2|0:2,0:0:0:0:
12,30,64064,6,0,L|200:22,1,154.000004699707,6|8,1:2|0:0,0:0:0:0:
256,84,64526,1,0,0:2:0:0:
360,56,64680,2,0,P|368:96|360:144,1,77.0000023498536,2|2,1:2|0:2,0:0:0:0:
295,213,64987,2,0,P|287:253|295:301,1,77.0000023498536,10|2,0:2|0:2,0:0:0:0:
248,374,65295,5,8,0:2:0:0:
139,325,65449,2,0,L|132:288,2,38.5000011749268,8|8|8,0:2|0:2|0:2,0:0:0:0:
41,264,65756,2,0,L|49:304,2,38.5000011749268,8|8|8,0:2|0:2|0:2,0:0:0:0:
102,166,66064,1,10,0:2:0:0:
107,143,66141,1,8,0:2:0:0:
110,118,66218,2,0,L|102:62,3,38.5000011749268,10|8|8|8,0:2|0:2|0:2|0:2,0:0:0:0:
78,38,66526,6,0,L|230:27,1,115.50000352478,6|0,1:2|0:2,0:0:0:0:
241,25,66833,1,10,0:0:0:0:
334,73,66987,2,0,P|334:113|326:153,1,77.0000023498536,2|0,0:2|1:2,0:0:0:0:
400,236,67295,1,2,0:2:0:0:
400,236,67449,1,8,0:2:0:0:
272,281,67603,6,0,B|216:276|216:276|175:289|175:289|119:284,1,154.000004699707,2|0,0:2|0:2,0:0:0:0:
24,240,68064,2,0,P|25:199|16:144,1,77.0000023498536,8|0,0:2|0:2,0:0:0:0:
111,96,68372,2,0,P|120:129|128:176,1,77.0000023498536,0|2,1:2|0:2,0:0:0:0:
224,115,68680,1,10,0:2:0:0:
299,193,68833,1,2,0:2:0:0:
415,152,68987,6,0,P|437:190|407:302,1,154.000004699707,6|10,1:2|0:2,0:0:0:0:
312,328,69449,2,0,L|152:320,2,154.000004699707,2|2|2,0:2|0:2|0:2,0:0:0:0:
394,252,70218,2,0,P|396:213|378:164,1,77.0000023498536,2|0,1:2|0:0,0:0:0:0:
288,120,70526,1,8,0:0:0:0:
208,192,70680,1,0,0:0:0:0:
136,104,70833,2,0,L|144:48,2,38.5000011749268,2|8|0,1:2|0:2|1:2,0:0:0:0:
64,184,71141,2,0,L|72:272,1,77.0000023498536,10|0,1:2|0:2,0:0:0:0:
165,342,71449,6,0,P|234:302|317:334,1,154.000004699707,6|8,1:2|0:2,0:0:0:0:
397,370,71910,1,0,0:2:0:0:
480,304,72064,2,0,B|475:256|475:256|487:206|487:206|480:127,1,154.000004699707,2|8,1:2|0:2,0:0:0:0:
400,80,72526,1,0,0:2:0:0:
296,112,72680,6,0,P|264:120|208:112,1,77.0000023498536,6|0,1:2|0:2,0:0:0:0:
136,48,72987,2,0,P|104:40|48:48,1,77.0000023498536,10|0,0:2|0:2,0:0:0:0:
16,144,73295,1,2,1:2:0:0:
72,240,73449,2,0,L|64:288,2,38.5000011749268,10|8|8,0:2|0:2|0:2,0:0:0:0:
184,280,73756,1,10,0:2:0:0:
184,280,73833,1,8,0:2:0:0:
184,280,73910,6,0,B|288:264|232:328|352:304,1,154.000004699707,12|0,0:2|1:2,0:0:0:0:
416,240,74372,2,0,P|432:160|376:96,1,154.000004699707,12|0,0:2|1:2,0:0:0:0:
278,120,74833,2,0,L|190:112,1,77.0000023498536,10|8,0:2|0:2,0:0:0:0:
91,77,75141,5,8,0:2:0:0:
53,187,75295,2,0,P|62:231|78:274,1,77.0000023498536,10|10,0:2|0:2,0:0:0:0:
163,332,75603,2,0,L|251:324,1,77.0000023498536,10|8,0:2|0:2,0:0:0:0:
273,197,75910,1,10,0:2:0:0:
402,226,76064,1,8,0:2:0:0:
373,343,76218,1,8,0:2:0:0:
367,335,77141,6,0,L|361:369,2,35
440,265,77603,6,0,L|432:177,1,70,6|0,1:2|1:2,0:0:0:0:
354,137,77910,1,10,0:2:0:0:
260,168,78064,2,0,P|196:184|124:136,1,140,0|2,0:2|1:2,0:0:0:0:
47,103,78526,6,0,P|34:136|33:181,1,70,10|2,0:0|0:0,0:0:0:0:
96,248,78833,2,0,P|109:281|110:326,1,70,2|2,1:2|1:2,0:0:0:0:
32,368,79141,1,10,0:0:0:0:
32,368,79295,2,0,L|184:360,1,140,2|2,0:0|1:2,0:0:0:0:
264,320,79756,2,0,L|272:240,1,70,10|2,0:0|0:0,0:0:0:0:
352,192,80064,6,0,P|384:184|432:192,2,70,6|2|8,1:2|1:2|0:0,0:0:0:0:
271,250,80526,2,0,L|111:242,2,140,2|2|2,0:0|1:2|0:0,0:0:0:0:
264,152,81295,2,0,B|216:98|278:81|226:12,1,140,0|8,1:2|0:0,0:0:0:0:
136,72,81756,2,0,L|133:37,2,35,0|8|0,0:0|0:0|1:0,0:0:0:0:
80,156,82064,1,2,1:2:0:0:
136,248,82218,2,0,L|144:336,1,70,10|10,0:0|0:0,0:0:0:0:
232,352,82526,6,0,P|272:344|320:352,1,70,6|2,1:2|1:2,0:0:0:0:
392,368,82833,1,10,0:0:0:0:
392,368,82987,2,0,P|368:304|384:232,1,140,2|2,0:0|1:2,0:0:0:0:
440,152,83449,6,0,L|432:72,1,70,10|2,0:0|0:2,0:0:0:0:
336,40,83756,2,0,L|329:109,1,70,2|2,1:2|1:2,0:0:0:0:
240,152,84064,1,10,0:0:0:0:
240,152,84218,2,0,B|192:176|192:176|80:168,1,140,2|2,0:0|1:2,0:0:0:0:
128,264,84680,2,0,L|135:352,1,70,10|0,0:0|0:0,0:0:0:0:
24,320,84987,6,0,L|16:168,1,140,6|10,1:2|0:0,0:0:0:0:
64,88,85449,1,2,0:0:0:0:
64,88,85526,1,8,0:0:0:0:
64,88,85603,2,0,L|144:80,1,70,2|2,1:2|1:2,0:0:0:0:
232,104,85910,2,0,L|312:96,1,70,10|2,0:2|0:0,0:0:0:0:
392,168,86218,6,0,P|400:208|400:240,1,70,2|2,1:2|0:2,0:0:0:0:
320,312,86526,2,0,P|312:272|312:240,1,70,10|10,0:0|0:0,0:0:0:0:
232,168,86833,1,10,0:2:0:0:
155,240,86987,1,10,0:0:0:0:
64,188,87141,2,0,L|75:150,3,35,10|8|8|8,0:0|0:0|0:0|0:0,0:0:0:0:
82,131,87449,5,6,1:2:0:0:
256,192,87603,12,8,89910,0:0:0:0:
