osu file format v14

[General]
AudioFilename: audio.mp3
AudioLeadIn: 0
PreviewTime: 56135
Countdown: 0
SampleSet: Soft
StackLeniency: 0.5
Mode: 0
LetterboxInBreaks: 0
WidescreenStoryboard: 1

[Editor]
Bookmarks: 43759
DistanceSpacing: 1.1
BeatDivisor: 4
GridSize: 16
TimelineZoom: 3.289998

[Metadata]
Title:TOMORROW (TV Size)
TitleUnicode:TOMORROW (TV Size)
Artist:BiSH
ArtistUnicode:BiSH
Creator:HakuYT
Version:bigfrog's Normal
Source:キングダム
Tags:op j-rock third 3rd series 第3シリーズ jrock rock anime japanese kingdom season 3 opening elcheer kuki1537 bigfrog kanocchi
BeatmapID:2498811
BeatmapSetID:1197817

[Difficulty]
HPDrainRate:3
CircleSize:3
OverallDifficulty:4
ApproachRate:5.5
SliderMultiplier:1
SliderTickRate:1

[Events]
//Background and Video events
Video,730,"kingdom.mp4"
0,0,"bg.jpg",0,0
//Break Periods
//Storyboard Layer 0 (Background)
//Storyboard Layer 1 (Fail)
//Storyboard Layer 2 (Pass)
//Storyboard Layer 3 (Foreground)
//Storyboard Layer 4 (Overlay)
//Storyboard Sound Samples

[TimingPoints]
3758,307.692307692308,4,2,1,70,1,0
3758,-100,4,2,1,70,0,0
4988,307.692307692308,4,2,1,70,1,0
14834,-100,4,2,1,70,0,0
15911,-100,4,2,1,65,0,0
16605,-100,4,2,1,5,0,0
16681,-100,4,2,1,65,0,0
17296,-111.111111111111,4,2,1,50,0,0
22143,-111.111111111111,4,2,1,5,0,0
22219,-111.111111111111,4,2,1,50,0,0
23682,-111.111111111111,4,2,1,5,0,0
23758,-111.111111111111,4,2,1,50,0,0
25911,-100,4,2,1,70,0,0
27142,-100,4,2,1,70,0,0
31066,-100,4,2,1,5,0,0
31143,-100,4,2,1,70,0,0
31990,-100,4,2,1,5,0,0
32065,-100,4,2,1,70,0,0
32605,-100,4,2,1,5,0,0
32681,-100,4,2,1,70,0,0
36988,-100,4,2,1,60,0,0
38143,-100,4,2,1,5,0,0
38219,-100,4,2,1,60,0,0
39374,-100,4,2,1,5,0,0
39450,-100,4,2,1,60,0,0
40605,-100,4,2,1,5,0,0
40681,-100,4,2,1,60,0,0
44297,-100,4,2,1,5,0,0
44373,-100,4,2,1,60,0,0
45066,-100,4,2,1,5,0,0
45142,-100,4,2,1,60,0,0
45604,-100,4,2,1,65,0,0
46816,309.278350515464,4,2,1,70,1,0
46816,-96.8523002421307,4,2,1,70,0,0
47115,307.692307692308,4,2,1,70,1,0
48038,307.692307692308,4,2,1,70,1,0
50499,327.868852459016,4,2,1,70,1,0
50826,309.278350515464,4,2,1,70,1,0
51444,306.122448979592,4,2,1,70,1,0
51750,309.278350515464,4,2,1,70,1,0
52987,307.692307692308,4,2,1,70,1,0
53602,310.880829015544,4,2,1,70,1,0
54223,312.5,4,2,1,70,1,0
54223,-100,4,2,1,70,0,0
54531,-100,4,2,1,70,0,0
54535,304.568527918782,4,2,1,70,1,0
55294,306.122448979592,4,2,1,70,1,0
56064,-100,4,2,1,70,0,0
56680,307.692307692308,4,2,1,80,1,1
56680,-90.9090909090909,4,2,1,80,0,1
56987,-90.9090909090909,4,2,1,80,0,1
59449,-90.9090909090909,4,2,1,80,0,1
66833,-90.9090909090909,4,2,1,80,0,1
69295,-90.9090909090909,4,2,1,80,0,1
76218,-100,4,2,1,60,0,0
77527,-100,4,2,1,5,0,0
77603,-100,4,2,1,70,0,0
84911,-100,4,2,1,5,0,0
84987,-100,4,2,1,70,0,0
88065,-100,4,2,1,70,0,0
89296,-100,4,2,1,70,0,0

[Colours]
Combo1 : 255,206,60
Combo2 : 255,128,64
Combo3 : 45,150,255
Combo4 : 0,206,223

[HitObjects]
95,56,4988,6,0,L|111:161,1,100,6|10,1:2|0:2,0:0:0:0:
172,245,5604,2,0,L|165:295,2,50,2|2|10,1:2|1:2|0:2,0:0:0:0:
256,174,6219,2,0,P|302:168|355:175,1,100,2|10,1:2|0:2,0:0:0:0:
405,196,6681,1,2,0:2:0:0:
452,295,6988,2,0,L|522:290,2,50,2|10|2,1:2|0:2|0:2,0:0:0:0:
409,329,7450,6,0,P|356:335|307:328,1,100,2|8,1:2|0:2,0:0:0:0:
260,304,7911,1,2,0:2:0:0:
162,353,8219,1,2,1:2:0:0:
79,279,8527,2,0,B|64:180|64:180|89:132,1,150,2|8,0:2|0:2,0:0:0:0:
161,54,9296,1,0,1:2:0:0:
242,128,9604,2,0,L|242:192,1,50,10|8,0:2|0:2,0:0:0:0:
281,217,9911,6,0,P|321:225|393:207,1,100,6|10,1:2|0:2,0:0:0:0:
445,126,10527,2,0,L|503:126,2,50,0|2|10,1:2|1:2|0:2,0:0:0:0:
382,35,11142,2,0,P|333:24|284:32,1,100,2|10,1:2|0:2,0:0:0:0:
242,68,11604,1,2,0:2:0:0:
134,46,11911,2,0,L|83:28,2,50,2|10|2,1:2|0:2|0:2,0:0:0:0:
140,100,12373,6,0,P|119:143|66:180,1,100,6|10,1:2|0:2,0:0:0:0:
75,285,12988,2,0,P|97:329|136:359,1,100,2|10,1:2|0:2,0:0:0:0:
245,346,13604,2,0,L|297:341,2,50,2|2|10,1:2|1:2|0:2,0:0:0:0:
188,251,14219,1,2,1:2:0:0:
291,214,14527,2,0,L|354:223,1,50,10|8,0:3|0:3,0:0:0:0:
385,253,14834,5,6,1:2:0:0:
457,105,15296,2,0,B|346:88,1,100,8|10,0:2|0:3,0:0:0:0:
325,45,15758,1,10,0:3:0:0:
325,45,15911,2,0,P|257:39|176:54,1,150,6|0,1:2|0:0,0:0:0:0:
89,119,16681,2,0,L|44:55,2,75,8|8|8,0:2|0:3|0:3,0:0:0:0:
116,165,17296,5,4,1:2:0:0:
93,261,17604,1,2,1:2:0:0:
156,337,17911,2,0,P|199:344|243:334,1,89.9999972534181,2|2,1:2|1:2,0:0:0:0:
319,269,18527,2,0,P|367:259|415:270,2,89.9999972534181,2|2|0,1:2|1:2|1:2,0:0:0:0:
256,192,19450,1,2,1:2:0:0:
197,271,19758,6,0,P|164:196|205:103,1,179.999994506836,6|0,1:2|1:2,0:0:0:0:
278,50,20681,1,2,1:2:0:0:
355,113,20988,2,0,B|444:107|444:107|492:63,2,134.999995880127,2|2|2,1:2|0:2|1:2,0:0:0:0:
270,163,22219,5,4,1:2:0:0:
221,76,22527,1,2,1:2:0:0:
131,118,22834,2,0,P|95:165|86:204,1,89.9999972534181,2|2,1:2|1:2,0:0:0:0:
127,284,23450,2,0,P|113:331|83:365,2,89.9999972534181,2|2|0,1:2|1:2|1:2,0:0:0:0:
87,194,24373,1,2,1:2:0:0:
185,182,24681,6,0,B|274:172|274:172|372:192,1,179.999994506836,6|0,1:2|1:2,0:0:0:0:
442,248,25604,1,2,1:2:0:0:
495,152,25911,2,0,P|445:99|366:76,1,150,14|14,0:2|0:2,0:0:0:0:
323,99,26527,2,0,P|271:102|214:72,1,100,2|8,1:2|0:2,0:0:0:0:
141,15,27142,5,4,1:2:0:0:
57,86,27450,1,10,0:2:0:0:
125,172,27758,2,0,L|118:229,1,50,2|2,0:2|1:2,0:0:0:0:
63,316,28219,2,0,P|114:313|167:325,1,100,2|2,0:2|1:2,0:0:0:0:
211,347,28681,2,0,L|273:349,1,50,10|2,0:2|1:2,0:0:0:0:
303,314,28988,2,0,L|362:315,2,50,2|2|10,0:2|1:2|0:2,0:0:0:0:
226,234,29604,6,0,P|215:185|222:133,1,100,2|8,1:2|0:2,0:0:0:0:
288,49,30219,1,0,0:2:0:0:
368,120,30527,1,10,0:2:0:0:
440,36,30834,2,0,B|475:70|486:121|486:121|459:180,2,150,2|2|10,0:2|1:2|0:2,0:0:0:0:
333,9,32065,5,4,1:2:0:0:
236,60,32373,1,10,0:2:0:0:
240,170,32681,2,0,L|309:157,1,50,2|2,0:2|1:2,0:0:0:0:
339,258,33142,2,0,L|225:278,1,100,2|2,0:2|1:2,0:0:0:0:
197,309,33604,2,0,L|136:307,1,50,10|2,0:2|1:2,0:0:0:0:
102,274,33911,2,0,L|40:284,2,50,2|2|10,0:2|1:2|0:2,0:0:0:0:
152,178,34527,6,0,P|160:126|147:76,1,100,6|8,1:2|0:2,0:0:0:0:
52,28,35142,1,0,0:2:0:0:
52,137,35450,1,10,0:2:0:0:
152,178,35758,2,0,P|202:174|250:157,1,100,2|8,1:2|0:2,0:0:0:0:
286,117,36219,1,10,0:2:0:0:
286,117,36373,2,0,P|323:140|384:158,1,100,10|8,0:2|0:3,0:0:0:0:
485,185,36988,6,0,B|458:279|458:279|419:322,1,150,6|2,1:2|1:2,0:0:0:0:
321,273,37758,2,0,L|260:280,1,50,0|8,1:2|0:2,0:0:0:0:
171,325,38219,2,0,L|61:336,1,100,2|2,1:2|0:2,0:0:0:0:
5,247,38834,1,2,0:2:0:0:
34,141,39142,1,10,0:2:0:0:
135,94,39450,6,0,B|185:92|238:111|238:111|284:90,1,150,6|0,1:2|1:2,0:0:0:0:
369,29,40219,2,0,L|392:79,1,50,0|8,1:2|0:2,0:0:0:0:
422,179,40681,2,0,L|315:183,1,100,2|2,1:2|0:2,0:0:0:0:
217,217,41296,1,2,0:2:0:0:
157,309,41604,1,10,0:3:0:0:
65,248,41911,6,0,B|44:201|52:151|52:151|93:122,1,150,6|0,1:2|1:2,0:0:0:0:
176,49,42681,2,0,L|229:57,1,50,0|10,1:2|0:2,0:0:0:0:
295,141,43142,2,0,P|298:201|279:245,1,100,2|2,1:2|0:2,0:0:0:0:
185,287,43758,1,2,0:2:0:0:
190,177,44065,1,8,0:2:0:0:
295,141,44373,6,0,B|335:168|389:180|389:180|372:235,1,150,6|0,1:2|1:2,0:0:0:0:
349,332,45142,2,0,L|408:333,1,50,2|10,1:2|0:2,0:0:0:0:
479,256,45604,2,0,L|498:198,2,50,0|8|8,1:2|0:2|0:3,0:0:0:0:
374,225,46219,2,0,L|395:161,2,50,8|8|8,0:2|0:2|0:2,0:0:0:0:
344,323,46816,6,0,P|284:335|230:323,1,100,4|8,1:2|0:2,0:0:0:0:
142,293,47422,2,0,L|137:241,1,50,2|0,1:2|1:2,0:0:0:0:
132,188,47730,1,10,0:2:0:0:
162,82,48038,2,0,P|210:70|259:75,1,100,6|10,1:2|0:2,0:0:0:0:
344,145,48653,2,0,L|350:205,2,50,2|0|10,1:2|1:2|0:2,0:0:0:0:
446,104,49268,6,0,L|458:217,1,100,6|8,1:2|0:2,0:0:0:0:
427,309,49884,2,0,P|395:307|368:310,1,50,2|0,1:2|1:2,0:0:0:0:
334,343,50191,1,8,0:2:0:0:
236,290,50499,2,0,L|248:181,1,100,6|10,1:2|0:2,0:0:0:0:
348,148,51135,2,0,L|342:95,1,50,2|0,1:2|1:2,0:0:0:0:
315,51,51444,2,0,L|270:31,1,50,10|8,0:2|0:2,0:0:0:0:
214,29,51750,6,0,L|102:28,1,100,6|8,1:2|0:2,0:0:0:0:
18,83,52368,1,0,1:2:0:0:
55,186,52677,1,8,0:2:0:0:
153,137,52987,2,0,L|265:136,1,100,2|8,1:2|0:2,0:0:0:0:
346,194,53602,2,0,L|403:192,2,50,0|0|8,1:2|1:2|0:2,0:0:0:0:
248,245,54223,6,0,P|239:293|256:355,1,100,6|8,1:2|0:2,0:0:0:0:
139,340,54839,2,0,P|128:291|137:242,1,100,8|8,0:2|0:2,0:0:0:0:
152,189,55294,2,0,B|177:145|153:89|153:89|196:74,1,150,6|8,1:2|0:2,0:0:0:0:
303,98,56059,1,8,0:2:0:0:
449,290,56680,6,0,L|336:280,1,110.000003356934,6|10,1:2|0:2,0:0:0:0:
293,240,57141,2,0,B|183:250|183:250|130:288,1,165.000005035401,2|8,0:2|0:2,0:0:0:0:
49,360,57910,2,0,P|25:311|29:247,1,110.000003356934,2|8,1:2|0:2,0:0:0:0:
89,152,58526,1,0,1:2:0:0:
208,167,58833,2,0,L|274:168,1,55.0000016784668,10|2,0:0|0:0,0:0:0:0:
288,113,59141,6,0,L|399:116,1,110.000003356934,2|10,1:2|0:2,0:0:0:0:
440,158,59603,2,0,B|483:132|507:81|507:81|488:13,1,165.000005035401,2|8,0:2|0:2,0:0:0:0:
369,14,60372,2,0,B|255:12,1,110.000003356934,2|8,1:2|0:0,0:0:0:0:
138,27,60987,1,0,1:2:0:0:
170,143,61295,2,0,L|111:145,1,55.0000016784668,10|0,0:2|0:2,0:0:0:0:
54,146,61603,6,0,P|40:197|55:268,1,110.000003356934,6|8,1:2|0:2,0:0:0:0:
103,360,62218,2,0,L|33:373,2,55.0000016784668,2|2|8,1:2|0:0|0:0,0:0:0:0:
146,318,62680,2,0,B|253:301|253:301|317:320,1,165.000005035401,2|10,0:2|0:2,0:0:0:0:
424,348,63449,1,2,1:2:0:0:
477,241,63756,2,0,L|472:178,1,55.0000016784668,10|0,0:2|0:2,0:0:0:0:
435,146,64064,6,0,P|381:157|323:146,1,110.000003356934,6|8,1:2|0:0,0:0:0:0:
239,64,64680,2,0,L|241:3,2,55.0000016784668,2|2|10,1:2|0:2|0:2,0:0:0:0:
205,115,65141,2,0,B|146:131|146:131|104:97|48:104,1,165.000005035401,2|8,0:2|0:2,0:0:0:0:
65,223,65910,1,8,0:2:0:0:
186,241,66218,2,0,L|248:224,1,55.0000016784668,10|8,0:2|0:2,0:0:0:0:
298,212,66526,6,0,P|311:256|310:324,1,110.000003356934,6|10,1:2|0:2,0:0:0:0:
360,346,66987,2,0,B|410:322|448:283|448:283|506:300,1,165.000005035401,2|8,0:2|0:2,0:0:0:0:
506,177,67756,2,0,B|458:158|424:103,1,110.000003356934,0|8,1:2|0:2,0:0:0:0:
333,25,68372,1,0,1:2:0:0:
224,80,68680,2,0,L|171:38,1,55.0000016784668,10|2,0:2|0:2,0:0:0:0:
120,49,68987,6,0,P|104:80|114:175,1,110.000003356934,6|10,1:2|0:2,0:0:0:0:
58,194,69449,2,0,P|72:251|162:296,1,165.000005035401,2|8,0:2|0:2,0:0:0:0:
268,239,70218,2,0,L|390:249,1,110.000003356934,2|8,1:2|0:0,0:0:0:0:
489,295,70833,1,2,1:2:0:0:
501,174,71141,1,10,1:2:0:0:
411,92,71449,6,0,B|350:80|305:118,1,110.000003356934,6|8,1:2|0:0,0:0:0:0:
250,137,71910,1,0,0:0:0:0:
250,137,72064,2,0,P|190:135|132:101,1,110.000003356934,2|8,1:2|0:2,0:0:0:0:
60,199,72680,2,0,L|77:315,1,110.000003356934,6|10,1:2|0:2,0:0:0:0:
195,284,73295,2,0,L|187:222,2,55.0000016784668,2|10|8,1:2|0:2|0:2,0:0:0:0:
236,328,73756,6,0,B|294:338|341:313|341:313|397:337,1,165.000005035401,10|0,0:2|1:2,0:0:0:0:
454,337,74372,1,12,0:2:0:0:
491,160,74833,2,0,L|467:52,1,110.000003356934,10|10,0:2|0:2,0:0:0:0:
413,24,75295,1,10,0:2:0:0:
333,115,75603,2,0,B|278:112|278:112|230:83,1,110.000003356934,10|10,0:2|0:2,0:0:0:0:
189,48,76064,1,8,0:2:0:0:
189,48,76218,1,8,0:2:0:0:
67,326,77603,6,0,L|176:347,1,100,6|10,1:2|0:2,0:0:0:0:
269,307,78218,2,0,L|280:366,2,50,2|2|10,1:2|1:2|0:0,0:0:0:0:
244,199,78833,2,0,L|345:170,1,100,2|10,1:2|0:0,0:0:0:0:
387,199,79295,1,2,0:0:0:0:
470,128,79603,2,0,L|467:74,1,50,2|10,1:2|0:0,0:0:0:0:
365,34,80064,6,0,P|319:31|266:49,1,100,6|8,1:2|0:0,0:0:0:0:
229,86,80526,1,2,0:0:0:0:
129,39,80833,1,2,1:2:0:0:
54,119,81141,2,0,B|69:219|69:219|117:236,1,150,2|8,0:0|0:0,0:0:0:0:
180,323,81910,1,0,1:0:0:0:
280,277,82218,2,0,L|327:311,1,50,10|10,0:0|0:0,0:0:0:0:
363,341,82526,6,0,P|409:350|467:342,1,100,6|10,1:2|0:0,0:0:0:0:
501,241,83141,2,0,L|508:185,2,50,0|2|10,1:0|1:2|0:0,0:0:0:0:
404,187,83756,2,0,P|358:178|300:186,1,100,2|10,1:2|0:0,0:0:0:0:
259,215,84218,1,2,0:0:0:0:
198,123,84526,2,0,L|195:68,1,50,2|10,1:2|0:0,0:0:0:0:
88,47,84987,6,0,L|65:145,1,100,6|10,1:2|0:0,0:0:0:0:
143,221,85603,2,0,L|167:328,1,100,2|10,1:2|0:2,0:0:0:0:
275,312,86218,2,0,L|317:353,2,50,2|2|10,1:2|0:2|0:0,0:0:0:0:
317,210,86833,2,0,L|385:205,1,50,10|10,0:0|0:0,0:0:0:0:
414,234,87141,1,10,0:0:0:0:
507,175,87449,5,6,1:2:0:0:
256,192,87526,12,8,89910,0:2:0:0:
