osu file format v14

[General]
AudioFilename: audio.mp3
AudioLeadIn: 0
PreviewTime: 56135
Countdown: 0
SampleSet: Soft
StackLeniency: 0.5
Mode: 0
LetterboxInBreaks: 0
WidescreenStoryboard: 0

[Editor]
DistanceSpacing: 1.1
BeatDivisor: 4
GridSize: 4
TimelineZoom: 2.189999

[Metadata]
Title:TOMORROW (TV Size)
TitleUnicode:TOMORROW (TV Size)
Artist:BiSH
ArtistUnicode:BiSH
Creator:HakuYT
Version:Extra
Source:キングダム
Tags:op j-rock third 3rd series 第3シリーズ jrock rock anime japanese kingdom season 3 opening elcheer kuki1537 bigfrog kanocchi
BeatmapID:2494946
BeatmapSetID:1197817

[Difficulty]
HPDrainRate:6
CircleSize:4
OverallDifficulty:8.7
ApproachRate:9.3
SliderMultiplier:1.9
SliderTickRate:1

[Events]
//Background and Video events
Video,730,"kingdom.mp4"
0,0,"bg.jpg",0,0
//Break Periods
//Storyboard Layer 0 (Background)
//Storyboard Layer 1 (Fail)
//Storyboard Layer 2 (Pass)
//Storyboard Layer 3 (Foreground)
//Storyboard Layer 4 (Overlay)
//Storyboard Sound Samples

[TimingPoints]
3758,307.692307692308,4,2,1,60,1,0
4988,307.692307692308,4,2,1,70,1,0
14834,-133.333333333333,4,2,1,70,0,0
15911,-285.714285714284,4,2,1,65,0,0
16604,-285.714285714284,4,2,1,5,0,0
16681,-285.714285714284,4,2,1,65,0,0
17296,-133.333333333333,4,2,1,50,0,0
22142,-285.714285714284,4,2,1,5,0,0
22219,-133.333333333333,4,2,1,50,0,0
23682,-285.714285714284,4,2,1,5,0,0
23759,-133.333333333333,4,2,1,50,0,0
25911,-100,4,2,1,70,0,0
27142,-117.647058823529,4,2,1,70,0,0
31065,-117.647058823529,4,2,1,5,0,0
31142,-117.647058823529,4,2,1,70,0,0
31988,-117.647058823529,4,2,1,5,0,0
32065,-117.647058823529,4,2,1,70,0,0
32604,-117.647058823529,4,2,1,5,0,0
32681,-117.647058823529,4,2,1,70,0,0
36988,-133.333333333333,4,2,1,60,0,0
38142,-133.333333333333,4,2,1,5,0,0
38219,-133.333333333333,4,2,1,60,0,0
39373,-133.333333333333,4,2,1,5,0,0
39450,-133.333333333333,4,2,1,60,0,0
40604,-133.333333333333,4,2,1,5,0,0
40681,-133.333333333333,4,2,1,60,0,0
44296,-133.333333333333,4,2,1,5,0,0
44373,-133.333333333333,4,2,1,60,0,0
45065,-133.333333333333,4,2,1,5,0,0
45142,-133.333333333333,4,2,1,60,0,0
45604,-100,4,2,1,65,0,0
46816,309.278350515464,4,2,1,70,1,0
46816,-117.647058823529,4,2,1,70,0,0
47115,307.692307692308,4,2,1,70,1,0
47115,-117.647058823529,4,2,1,70,0,0
48038,307.692307692308,4,2,1,60,1,0
48038,-117.647058823529,4,2,1,70,0,0
50499,327.868852459016,4,2,1,70,1,0
50499,-117.647058823529,4,2,1,70,0,0
50826,309.278350515464,4,2,1,70,1,0
50826,-117.647058823529,4,2,1,70,0,0
51444,306.122448979592,4,2,1,70,1,0
51444,-117.647058823529,4,2,1,70,0,0
51750,309.278350515464,4,2,1,70,1,0
51750,-111.111111111111,4,2,1,70,0,0
52987,307.692307692308,4,2,1,70,1,0
52987,-111.111111111111,4,2,1,70,0,0
53602,310.880829015544,4,2,1,70,1,0
53602,-111.111111111111,4,2,1,70,0,0
54146,-111.111111111111,4,2,1,5,0,0
54223,312.5,4,2,1,70,1,0
54223,-100,4,2,1,70,0,0
54454,-100,4,2,1,5,0,0
54535,304.568527918782,4,2,1,70,1,0
54535,-100,4,2,1,70,0,0
55294,306.122448979592,4,2,1,70,1,0
55294,-100,4,2,1,70,0,0
56059,-200,4,2,1,70,0,0
56680,307.692307692308,4,2,1,80,1,1
56680,-90.9090909090909,4,2,1,80,0,1
56910,-90.9090909090909,4,2,1,5,0,1
56988,-90.9090909090909,4,2,1,80,0,1
59372,-90.9090909090909,4,2,1,5,0,1
59449,-90.9090909090909,4,2,1,80,0,1
66526,-90.9090909090909,4,2,1,80,0,1
66756,-90.9090909090909,4,2,1,5,0,1
66833,-90.9090909090909,4,2,1,80,0,1
69218,-90.9090909090909,4,2,1,5,0,1
69295,-90.9090909090909,4,2,1,80,0,1
73910,-90.9090909090909,4,2,1,80,0,1
76218,-250,4,2,1,60,0,0
77526,-250,4,2,1,5,0,0
77603,-100,4,2,1,70,0,0
84910,-100,4,2,1,5,0,0
84987,-100,4,2,1,70,0,0

[Colours]
Combo1 : 255,206,60
Combo2 : 255,128,64
Combo3 : 45,150,255
Combo4 : 0,206,223

[HitObjects]
333,86,4527,5,2,0:0:0:0:
238,149,4681,1,2,0:0:0:0:
230,37,4834,1,2,0:0:0:0:
424,228,4988,6,0,L|326:213,1,95,6|0,1:2|1:2,0:2:0:0:
72,341,5296,2,0,L|170:326,1,95,10|0,0:2|1:2,0:2:0:0:
165,326,5527,1,8,0:2:0:0:
165,326,5604,1,2,1:2:0:0:
238,149,5758,1,2,1:2:0:0:
31,220,5911,1,10,0:2:0:0:
251,288,6065,1,2,0:2:0:0:
112,118,6219,5,2,1:2:0:0:
333,89,6373,1,2,1:2:0:0:
171,242,6527,1,10,0:2:0:0:
221,55,6681,2,0,L|239:155,1,95,2|0,0:2|1:2,0:2:0:0:
341,347,6988,1,2,1:2:0:0:
426,154,7142,1,10,0:2:0:0:
251,288,7296,1,2,0:2:0:0:
480,217,7450,6,0,P|430:234|386:226,1,95,2|2,1:2|1:2,0:2:0:0:
333,89,7758,1,8,0:2:0:0:
251,288,7911,2,0,L|233:190,1,95,2|0,0:2|1:2,0:2:0:0:
443,60,8219,2,0,L|425:158,1,95,2|8,1:2|0:2,0:2:0:0:
150,106,8527,6,0,B|226:89|226:89|265:106|265:106|344:86,1,190,2|0,0:2|1:2,0:2:0:0:
103,177,8988,2,0,P|65:121|67:82,1,95,8|0,0:2|0:2,0:2:0:0:
64,95,9219,1,8,0:2:0:0:
64,95,9296,1,0,1:2:0:0:
205,181,9450,1,2,1:2:0:0:
38,263,9604,1,10,0:2:0:0:
210,346,9758,1,8,0:2:0:0:
210,346,9834,1,8,0:2:0:0:
210,346,9911,6,0,L|317:331,1,95,6|2,1:2|1:2,0:2:0:0:
420,204,10219,1,10,0:2:0:0:
238,95,10373,2,0,P|207:145|208:199,1,95,2|0,0:2|1:2,0:2:0:0:
388,323,10681,2,0,P|360:271|312:245,1,95,2|10,1:2|0:2,0:2:0:0:
138,248,10988,1,2,0:2:0:0:
304,332,11142,5,2,1:2:0:0:
292,162,11296,1,2,1:2:0:0:
171,344,11450,1,10,0:2:0:0:
113,163,11604,1,2,0:2:0:0:
113,163,11681,1,8,0:2:0:0:
113,163,11758,1,0,1:2:0:0:
229,289,11911,1,2,1:2:0:0:
16,226,12065,1,10,0:2:0:0:
209,118,12219,1,2,0:2:0:0:
171,344,12373,6,0,P|152:296|174:231,1,95,6|2,1:2|1:2,0:2:0:0:
321,129,12681,2,0,L|302:243,1,95,10|2,0:2|0:2,0:2:0:0:
305,222,12911,1,8,0:2:0:0:
305,222,12988,1,2,1:2:0:0:
129,143,13142,1,0,1:2:0:0:
306,46,13296,1,10,0:2:0:0:
80,13,13450,1,2,0:2:0:0:
228,148,13604,6,0,L|333:126,1,95,2|2,1:2|1:2,0:2:0:0:
486,282,13911,2,0,L|393:262,1,95,10|2,0:2|0:2,0:2:0:0:
145,321,14219,1,2,1:2:0:0:
377,349,14373,1,10,0:3:0:0:
214,222,14527,1,10,0:3:0:0:
346,337,14681,1,8,0:3:0:0:
313,153,14834,5,6,1:2:0:0:
145,321,15296,5,8,0:2:0:0:
145,321,15373,1,8,0:2:0:0:
145,321,15450,1,2,1:2:0:0:
127,170,15604,1,10,0:3:0:0:
248,321,15758,1,10,0:3:0:0:
75,230,15911,6,0,P|52:148|97:97,1,149.624995433808,6|0,1:2|0:2,0:2:0:0:
120,84,16681,6,0,L|172:90,2,49.8749984779358,8|8|8,0:2|0:3|0:3,0:2:0:0:
225,35,17296,6,0,P|242:66|246:113,1,71.2500027179719,4|0,1:2|0:2,0:2:0:0:
305,201,17604,2,0,P|310:165|327:134,1,71.2500027179719,2|0,1:2|0:2,0:2:0:0:
413,78,17911,2,0,L|488:88,1,71.2500027179719,2|0,1:2|0:2,0:2:0:0:
387,192,18219,2,0,L|457:182,1,71.2500027179719,2|0,1:2|0:2,0:2:0:0:
502,271,18527,6,0,P|488:320|487:355,1,71.2500027179719,2|0,1:2|0:2,0:2:0:0:
396,377,18834,1,2,1:2:0:0:
342,279,18988,2,0,L|248:267,1,71.2500027179719,2|0,0:2|1:2,0:2:0:0:
199,355,19296,1,0,0:2:0:0:
110,281,19450,2,0,L|16:269,1,71.2500027179719,2|0,1:2|0:2,0:2:0:0:
19,165,19758,6,0,B|78:158|78:158|100:169|100:169|172:159,1,142.500005435944,6|0,1:2|1:2,0:2:0:0:
238,100,20219,1,0,0:2:0:0:
116,85,20373,2,0,L|101:8,1,71.2500027179719,0|0,1:2|0:2,0:2:0:0:
238,100,20681,2,0,L|251:30,1,71.2500027179719,2|0,1:2|0:2,0:2:0:0:
372,16,20988,6,0,P|434:31|452:118,1,142.500005435944,2|0,1:2|1:2,0:2:0:0:
361,214,21450,2,0,P|335:150|373:94,1,142.500005435944,2|0,0:2|0:2,0:2:0:0:
466,310,21911,2,0,L|344:323,1,106.875004076958,2|0,1:2|0:2,0:2:0:0:
298,369,22219,6,0,P|282:324|287:293,1,71.2500027179719,4|0,1:2|0:2,0:2:0:0:
199,182,22527,2,0,P|199:217|185:249,1,71.2500027179719,2|0,1:2|0:2,0:2:0:0:
28,276,22834,2,0,L|108:266,1,71.2500027179719,2|0,1:2|0:2,0:2:0:0:
211,362,23142,2,0,L|131:352,1,71.2500027179719,2|0,1:2|0:2,0:2:0:0:
286,222,23450,6,0,L|402:206,1,106.875004076958,2|0,1:2|0:2,0:2:0:0:
466,196,23758,1,2,1:2:0:0:
358,124,23911,2,0,P|341:85|341:42,1,71.2500027179719,2|0,0:2|1:2,0:2:0:0:
230,18,24219,1,2,0:2:0:0:
193,134,24373,2,0,L|111:145,1,71.2500027179719,2|0,1:2|0:2,0:2:0:0:
21,41,24681,6,0,B|-1:88|-1:88|27:201,1,142.500005435944,6|0,1:2|1:2,0:2:0:0:
69,266,25142,1,0,0:2:0:0:
122,143,25296,1,0,1:2:0:0:
196,243,25450,1,0,0:2:0:0:
238,132,25604,2,0,L|327:120,1,71.2500027179719,2|0,1:2|0:2,0:2:0:0:
405,268,25911,5,14,0:2:0:0:
287,37,26065,1,0,1:2:0:0:
496,158,26219,1,0,1:2:0:0:
309,267,26373,5,14,0:2:0:0:
380,25,26527,1,2,1:2:0:0:
496,237,26681,1,0,1:2:0:0:
308,122,26834,1,8,0:2:0:0:
261,115,26911,1,8,0:2:0:0:
216,130,26988,1,8,0:2:0:0:
184,165,27065,1,8,0:2:0:0:
171,210,27142,6,0,L|164:303,1,80.750001540184,4|0,1:2|1:2,0:2:0:0:
90,166,27450,1,10,0:2:0:0:
254,236,27604,1,2,0:2:0:0:
83,313,27758,1,2,0:2:0:0:
237,346,27911,2,0,P|285:350|332:336,1,80.750001540184,2|8,1:2|0:2,0:2:0:0:
412,137,28219,6,0,P|384:176|373:224,1,80.750001540184,2|0,0:2|0:2,0:2:0:0:
413,378,28527,1,2,1:2:0:0:
454,208,28681,1,10,0:2:0:0:
316,342,28834,1,2,1:2:0:0:
304,159,28988,1,2,0:2:0:0:
435,296,29142,1,2,1:2:0:0:
256,231,29296,2,0,L|158:246,1,80.750001540184,10|0,0:2|0:2,0:2:0:0:
57,376,29604,6,0,B|61:311|61:311|42:282|42:282|47:215,1,161.500003080368,2|8,1:2|0:2,0:2:0:0:
152,92,30065,1,0,0:2:0:0:
119,183,30219,1,0,0:2:0:0:
66,54,30373,1,0,1:2:0:0:
212,34,30527,2,0,P|231:75|229:127,1,80.750001540184,10|0,0:2|0:2,0:2:0:0:
258,234,30834,6,0,B|335:220|303:273|386:262,1,121.125002310276,2|0,0:2|0:2,0:2:0:0:
448,254,31142,1,8,0:2:0:0:
357,71,31296,2,0,L|369:167,1,80.750001540184,2|0,1:2|0:2,0:2:0:0:
283,319,31604,1,0,1:2:0:0:
201,157,31758,2,0,B|153:146|153:146|59:173,1,121.125002310276,10|0,0:2|0:2,0:2:0:0:
19,215,32065,6,0,L|31:305,1,80.750001540184,4|0,1:2|1:2,0:2:0:0:
165,324,32373,2,0,B|214:315|214:315|239:326|239:326|311:314,1,121.125002310276,10|0,0:2|0:2,0:2:0:0:
364,304,32681,1,2,0:2:0:0:
156,249,32834,2,0,L|261:226,1,80.750001540184,2|8,1:2|0:2,0:2:0:0:
464,198,33142,6,0,L|359:175,1,80.750001540184,2|0,0:2|0:2,0:2:0:0:
216,147,33450,1,2,1:2:0:0:
330,23,33604,1,10,0:2:0:0:
306,181,33758,1,2,1:2:0:0:
231,41,33911,1,2,0:2:0:0:
397,100,34065,1,2,1:2:0:0:
216,147,34219,2,0,P|201:188|197:229,1,80.750001540184,10|0,0:2|0:2,0:2:0:0:
319,311,34527,6,0,B|366:315|386:267|386:267|422:311|478:285,1,161.500003080368,6|8,1:2|0:2,0:2:0:0:
311,230,34988,1,0,0:2:0:0:
413,183,35142,1,0,0:2:0:0:
319,113,35296,1,0,1:2:0:0:
446,82,35450,2,0,L|457:2,1,80.750001540184,10|0,0:2|0:2,0:2:0:0:
263,40,35758,6,0,P|302:21|359:22,1,80.750001540184,2|0,1:2|0:2,0:2:0:0:
338,18,35988,1,8,0:2:0:0:
338,18,36065,1,8,0:2:0:0:
409,228,36219,1,10,0:2:0:0:
202,165,36373,1,10,0:2:0:0:
408,81,36527,1,8,0:3:0:0:
365,156,36681,1,8,0:3:0:0:
280,132,36834,1,8,0:3:0:0:
207,74,36988,6,0,B|146:55|146:55|47:85,1,142.500005435944,6|0,1:2|0:2,0:2:0:0:
0,144,37450,2,0,L|21:299,1,142.500005435944,2|0,1:2|1:2,0:2:0:0:
90,354,37911,2,0,B|129:346|129:346|150:355|150:355|214:347,1,106.875004076958,8|0,0:2|0:2,0:2:0:0:
253,306,38219,6,0,L|336:319,1,71.2500027179719,2|0,1:2|1:2,0:2:0:0:
416,364,38527,2,0,L|499:351,1,71.2500027179719,2|8,0:2|0:2,0:2:0:0:
512,246,38834,2,0,L|500:161,1,71.2500027179719,2|0,0:2|1:2,0:2:0:0:
397,87,39142,2,0,P|346:62|273:79,1,106.875004076958,10|0,0:2|0:2,0:2:0:0:
251,133,39450,6,0,B|231:118|223:98|223:98|248:200,1,142.500005435944,6|0,1:2|0:2,0:2:0:0:
289,292,39911,2,0,B|242:317|194:289|194:289|131:310,1,142.500005435944,0|0,1:2|1:2,0:2:0:0:
75,379,40373,2,0,P|45:328|52:266,1,106.875004076958,8|0,0:2|0:2,0:2:0:0:
99,223,40681,6,0,L|172:199,1,71.2500027179719,2|0,1:2|1:2,0:2:0:0:
20,119,40988,2,0,L|95:134,1,71.2500027179719,2|8,0:2|0:2,0:2:0:0:
260,62,41296,2,0,P|224:50|171:64,1,71.2500027179719,2|8,0:2|0:3,0:2:0:0:
257,213,41604,2,0,P|285:187|299:134,1,71.2500027179719,10|8,0:3|0:3,0:2:0:0:
418,23,41911,6,0,B|425:81|425:81|410:109|410:109|421:180,1,142.500005435944,6|0,1:2|0:2,0:2:0:0:
488,224,42373,2,0,P|442:260|361:237,1,142.500005435944,0|0,1:2|1:2,0:2:0:0:
287,364,42834,2,0,L|296:282,1,71.2500027179719,10|0,0:2|0:2,0:2:0:0:
179,243,43142,6,0,L|188:325,1,71.2500027179719,2|0,1:2|1:2,0:2:0:0:
43,370,43450,2,0,P|89:371|118:360,1,71.2500027179719,2|8,0:2|0:2,0:2:0:0:
17,239,43758,2,0,P|45:274|72:290,1,71.2500027179719,2|0,0:2|1:2,0:2:0:0:
119,186,44065,2,0,L|101:56,1,106.875004076958,8|0,0:2|0:2,0:2:0:0:
169,39,44373,6,0,B|212:16|212:16|313:49,1,142.500005435944,6|0,1:2|0:2,0:2:0:0:
374,139,44834,2,0,L|356:271,1,106.875004076958,0|0,1:2|0:2,0:2:0:0:
347,317,45142,1,2,1:2:0:0:
255,217,45296,1,10,0:2:0:0:
209,348,45450,1,2,0:2:0:0:
77,192,45604,5,0,1:2:0:0:
268,294,45758,1,8,0:2:0:0:
48,384,45911,2,0,L|37:286,1,95,8|0,0:3|0:2,0:2:0:0:
37,289,46142,1,8,0:2:0:0:
37,289,46219,1,8,0:2:0:0:
255,217,46373,1,8,0:2:0:0:
132,375,46527,1,8,0:2:0:0:
170,144,46681,1,8,0:2:0:0:
342,300,46816,6,0,L|445:281,1,80.750001540184,4|0,1:2|0:2,0:2:0:0:
426,118,47115,1,8,0:2:0:0:
255,217,47268,1,0,0:2:0:0:
281,21,47422,2,0,P|305:58|314:97,1,80.750001540184,2|0,1:2|1:2,0:2:0:0:
138,217,47730,2,0,P|148:178|170:144,1,80.750001540184,10|0,0:2|0:2,0:2:0:0:
342,300,48038,6,0,L|251:313,1,80.750001540184,6|0,1:2|0:2,0:2:0:0:
46,338,48345,2,0,L|137:351,1,80.750001540184,10|0,0:2|0:2,0:2:0:0:
234,232,48653,2,0,L|248:136,1,80.750001540184,2|0,1:2|1:2,0:2:0:0:
50,66,48961,2,0,L|64:162,1,80.750001540184,10|0,0:2|0:2,0:2:0:0:
198,76,49268,6,0,B|264:67|264:67|297:85|297:85|364:75,1,161.500003080368,6|8,1:2|0:2,0:2:0:0:
427,212,49730,1,2,0:2:0:0:
245,152,49884,1,2,1:2:0:0:
423,119,50038,1,0,1:2:0:0:
326,259,50191,2,0,L|319:350,1,80.750001540184,8|0,0:2|0:2,0:2:0:0:
172,183,50499,6,0,P|200:218|252:230,1,80.750001540184,6|0,1:2|0:2,0:2:0:0:
106,369,50826,2,0,P|82:337|45:321,1,80.750001540184,10|0,0:2|0:2,0:2:0:0:
78,217,51135,1,2,1:2:0:0:
210,339,51289,1,0,1:2:0:0:
172,183,51444,1,10,0:2:0:0:
171,143,51520,1,8,0:2:0:0:
190,107,51597,1,8,0:2:0:0:
223,84,51673,1,8,0:2:0:0:
262,79,51750,6,0,L|356:72,1,85.4999973907472,6|0,1:2|1:2,0:2:0:0:
494,219,52059,2,0,L|400:211,1,85.4999973907472,8|0,0:2|0:2,0:2:0:0:
259,256,52368,1,0,1:2:0:0:
406,332,52523,1,0,1:2:0:0:
341,176,52677,2,0,P|369:146|414:134,1,85.4999973907472,8|0,0:2|0:2,0:2:0:0:
312,338,52987,5,2,1:2:0:0:
258,179,53140,1,0,1:2:0:0:
177,316,53294,2,0,L|90:327,1,85.4999973907472,8|0,0:2|0:2,0:2:0:0:
25,230,53602,1,0,1:2:0:0:
171,203,53757,1,0,1:2:0:0:
46,90,53912,2,0,L|190:74,1,128.249996086121,8|0,0:2|0:2,0:2:0:0:
259,34,54223,6,0,B|269:94|269:94|251:123|251:123|263:199,1,142.5,6|0,1:2|0:2,0:2:0:0:
269,251,54535,1,8,0:2:0:0:
425,81,54687,1,8,0:2:0:0:
159,153,54839,1,8,0:2:0:0:
423,283,54991,1,8,0:2:0:0:
346,41,55144,1,8,0:2:0:0:
258,351,55294,6,0,B|137:376|201:283|69:318,1,190,6|8,1:2|1:3,0:2:0:0:
49,181,55753,1,8,0:2:0:0:
38,135,55829,1,8,0:2:0:0:
57,92,55906,1,8,0:2:0:0:
97,68,55982,1,8,0:2:0:0:
144,73,56059,1,8,0:2:0:0:
459,289,56680,6,0,B|394:281|394:281|373:292|373:292|277:278,1,156.750004783631,6|0,1:2|0:2,0:2:0:0:
234,270,56987,1,10,0:2:0:0:
328,69,57141,2,0,L|344:188,1,104.500003189087,2|0,0:2|1:2,0:2:0:0:
135,345,57449,2,0,L|121:241,1,104.500003189087,2|8,0:2|0:2,0:2:0:0:
29,96,57756,1,2,0:0:0:0:
205,157,57910,5,2,1:2:0:0:
33,222,58064,1,0,0:0:0:0:
55,12,58218,2,0,P|92:44|112:110,1,104.500003189087,8|0,0:2|0:2,0:2:0:0:
206,246,58526,1,0,1:2:0:0:
245,82,58680,1,2,0:0:0:0:
317,304,58833,1,10,0:0:0:0:
294,149,58987,1,2,0:0:0:0:
199,332,59141,6,0,P|134:281|139:203,1,156.750004783631,2|0,1:2|0:2,0:2:0:0:
163,128,59449,1,10,0:2:0:0:
370,234,59603,2,0,L|475:221,1,104.500003189087,2|0,0:2|1:2,0:2:0:0:
199,332,59910,2,0,L|94:345,1,104.500003189087,2|8,0:2|0:2,0:2:0:0:
277,253,60218,1,2,0:2:0:0:
422,384,60372,6,0,B|501:272|356:285|449:168,1,209.000006378174,2|8,1:2|0:0,0:0:0:0:
335,52,60833,1,0,0:2:0:0:
277,250,60987,1,0,1:2:0:0:
277,250,61064,1,0,1:2:0:0:
277,250,61141,1,0,1:2:0:0:
501,152,61295,2,0,P|453:118|371:133,1,104.500003189087,10|0,0:2|0:2,0:2:0:0:
134,47,61603,6,0,B|211:38|211:38|255:63|255:63|343:52,1,209.000006378174,6|8,1:2|0:2,0:2:0:0:
261,151,62064,1,0,0:0:0:0:
408,38,62218,1,2,1:2:0:0:
328,199,62372,2,0,B|291:236|291:236|225:229,1,104.500003189087,2|8,0:0|0:0,0:0:0:0:
108,349,62680,6,0,B|76:300|76:300|104:145,1,209.000006378174,2|0,0:2|0:2,0:2:0:0:
348,324,63141,2,0,P|308:349|244:348,1,104.500003189087,10|0,0:2|0:2,0:2:0:0:
377,128,63449,2,0,P|428:128|473:154,1,104.500003189087,2|0,1:2|0:2,0:2:0:0:
212,213,63756,2,0,P|187:173|188:109,1,104.500003189087,10|0,0:2|0:2,0:2:0:0:
430,44,64064,6,0,B|383:-3|331:13|331:13|312:79|212:63,1,209.000006378174,6|8,1:2|0:0,0:0:0:0:
106,41,64526,1,0,0:2:0:0:
259,142,64680,1,2,1:2:0:0:
62,201,64833,1,2,0:2:0:0:
188,22,64987,1,10,0:2:0:0:
188,228,65141,1,2,0:2:0:0:
42,110,65295,5,4,1:2:0:0:
268,274,65449,1,8,0:2:0:0:
313,299,65526,1,8,0:2:0:0:
364,303,65603,1,8,0:2:0:0:
413,285,65680,1,8,0:2:0:0:
450,248,65756,1,8,0:2:0:0:
467,199,65833,1,8,0:2:0:0:
463,148,65910,1,8,0:2:0:0:
438,103,65987,1,8,0:2:0:0:
391,81,66064,6,0,L|327:62,1,52.2500015945435,10|8,0:2|0:2,0:2:0:0:
143,189,66218,2,0,L|206:208,1,52.2500015945435,10|8,0:2|0:2,0:2:0:0:
370,157,66372,1,8,0:2:0:0:
370,157,66449,1,8,0:2:0:0:
370,157,66526,6,0,B|395:203|395:203|361:312,1,156.750004783631,6|0,1:2|0:2,0:2:0:0:
345,377,66833,1,10,0:2:0:0:
67,236,66987,2,0,L|190:215,1,104.500003189087,2|0,0:2|1:2,0:2:0:0:
340,66,67295,2,0,L|220:45,1,104.500003189087,2|8,0:2|0:2,0:2:0:0:
60,77,67603,1,2,0:2:0:0:
272,137,67756,5,0,1:2:0:0:
159,24,67910,1,0,0:2:0:0:
170,218,68064,2,0,B|195:167|195:167|178:95,1,104.500003189087,8|0,0:2|0:2,0:2:0:0:
111,303,68372,1,0,1:2:0:0:
285,249,68526,1,2,0:2:0:0:
108,155,68680,1,10,0:2:0:0:
193,336,68833,1,2,0:2:0:0:
252,176,68987,6,0,B|315:165|315:165|350:182|350:182|433:168,1,156.750004783631,6|0,1:2|0:2,0:2:0:0:
479,157,69295,1,10,0:2:0:0:
334,335,69449,2,0,P|292:289|287:232,1,104.500003189087,2|0,0:2|1:2,0:2:0:0:
221,40,69756,2,0,P|212:95|171:134,1,104.500003189087,2|8,0:2|0:2,0:2:0:0:
51,189,70064,1,2,0:2:0:0:
169,382,70218,6,0,B|216:335|200:283|200:283|138:263|139:181,1,209.000006378174,2|8,1:2|0:0,0:0:0:0:
142,61,70680,1,0,0:0:0:0:
223,203,70833,1,2,1:2:0:0:
223,203,70910,1,8,0:2:0:0:
223,203,70987,1,0,1:2:0:0:
46,85,71141,1,10,1:2:0:0:
55,268,71295,1,0,0:2:0:0:
142,61,71449,6,0,B|268:9|223:147|358:83,1,209.000006378174,6|8,1:2|0:0,0:0:0:0:
475,253,71910,1,0,0:0:0:0:
475,253,72064,2,0,B|419:237|387:266|387:266|353:253|353:253|319:290|248:284,1,209.000006378174,2|8,1:2|0:2,0:2:0:0:
128,218,72526,1,0,0:2:0:0:
82,381,72680,6,0,L|54:256,1,104.500003189087,6|0,1:2|0:2,0:2:0:0:
312,102,72987,2,0,L|285:226,1,104.500003189087,10|0,0:2|0:2,0:2:0:0:
68,140,73295,1,2,1:2:0:0:
221,290,73449,1,10,0:2:0:0:
267,311,73526,1,8,0:2:0:0:
319,310,73603,1,8,0:2:0:0:
365,285,73680,1,8,0:2:0:0:
394,243,73756,1,10,0:2:0:0:
402,192,73833,1,8,0:2:0:0:
385,143,73910,5,12,0:2:0:0:
267,311,74064,1,0,1:2:0:0:
483,251,74218,1,0,1:2:0:0:
255,213,74372,5,12,0:2:0:0:
375,384,74526,1,0,1:2:0:0:
143,336,74680,1,0,1:2:0:0:
143,336,74756,1,0,1:2:0:0:
143,336,74833,1,10,0:2:0:0:
306,143,74987,1,8,0:2:0:0:
56,165,75141,5,10,0:2:0:0:
262,291,75295,1,10,0:2:0:0:
203,96,75449,1,8,0:2:0:0:
15,283,75603,1,10,0:2:0:0:
333,224,75756,1,8,0:2:0:0:
96,53,75910,1,10,0:2:0:0:
123,354,76064,1,8,0:2:0:0:
267,90,76218,6,0,B|236:78|202:97|202:97|263:36|329:89|329:89|381:131|448:101,1,323,8|0,0:2|0:2,0:2:0:0:
499,154,77603,6,0,L|479:262,1,95,6|0,1:2|1:2,0:2:0:0:
278,378,77910,2,0,L|258:270,1,95,10|0,0:2|0:2,0:2:0:0:
260,284,78141,1,8,0:2:0:0:
260,284,78218,1,2,1:2:0:0:
485,331,78372,1,2,1:2:0:0:
315,183,78526,1,10,0:0:0:0:
385,384,78680,1,2,0:0:0:0:
512,213,78833,5,2,1:2:0:0:
352,292,78987,1,2,1:2:0:0:
364,107,79141,1,10,0:0:0:0:
208,230,79295,2,0,P|159:245|103:245,1,95,2|0,0:0|1:0,0:0:0:0:
4,87,79603,1,2,1:2:0:0:
206,124,79756,1,10,0:0:0:0:
8,239,79910,1,2,0:0:0:0:
97,23,80064,6,0,L|112:129,1,95,6|2,1:2|1:2,0:0:0:0:
208,230,80372,1,8,0:0:0:0:
292,73,80526,2,0,P|340:55|398:53,1,95,2|0,0:0|1:0,0:0:0:0:
509,235,80833,2,0,P|461:230|417:213,1,95,2|8,1:2|0:0,0:0:0:0:
165,321,81141,6,0,B|237:327|237:327|273:306|273:306|353:316,1,190,2|0,0:0|1:2,0:0:0:0:
195,135,81603,2,0,L|208:235,1,95,8|0,0:0|0:0,0:0:0:0:
207,229,81833,1,8,0:0:0:0:
207,229,81910,1,0,1:0:0:0:
292,73,82064,1,2,1:2:0:0:
95,191,82218,1,10,0:0:0:0:
37,24,82372,1,10,0:0:0:0:
37,24,82449,1,8,0:0:0:0:
37,24,82526,6,0,L|156:42,1,95,6|2,1:2|1:2,0:0:0:0:
228,156,82833,1,10,0:0:0:0:
25,117,82987,2,0,P|5:169|4:215,1,95,2|0,0:0|1:0,0:0:0:0:
162,255,83295,2,0,P|126:211|87:187,1,95,2|10,1:2|0:0,0:0:0:0:
90,370,83603,1,2,0:2:0:0:
273,275,83756,5,2,1:2:0:0:
66,269,83910,1,2,1:2:0:0:
238,366,84064,1,10,0:0:0:0:
214,169,84218,1,2,0:0:0:0:
214,169,84295,1,8,0:0:0:0:
214,169,84372,1,0,1:0:0:0:
164,329,84526,1,2,1:2:0:0:
308,182,84680,2,0,B|357:174|357:174|398:191|398:191|455:183,1,142.5,10|0,0:0|0:0,0:0:0:0:
492,114,84987,6,0,P|509:47|499:16,1,95,6|2,1:2|1:2,0:0:0:0:
267,29,85295,2,0,L|374:47,1,95,10|2,0:0|0:0,0:0:0:0:
360,45,85526,1,8,0:0:0:0:
360,45,85603,1,2,1:2:0:0:
214,169,85756,1,2,1:2:0:0:
183,0,85910,1,10,0:2:0:0:
308,182,86064,1,2,0:0:0:0:
131,90,86218,6,0,P|81:88|28:118,1,95,2|2,1:2|0:2,0:0:0:0:
10,285,86526,1,10,0:0:0:0:
214,169,86680,1,10,0:0:0:0:
67,384,86833,1,10,0:0:0:0:
101,165,86987,1,10,0:0:0:0:
254,345,87141,1,10,0:0:0:0:
291,315,87218,1,8,0:0:0:0:
314,274,87295,1,8,0:0:0:0:
320,227,87372,1,8,0:0:0:0:
308,182,87449,5,6,1:2:0:0:
256,192,87526,12,8,89910,0:2:0:0:
