osu file format v14

[General]
AudioFilename: audio.mp3
AudioLeadIn: 0
PreviewTime: 56135
Countdown: 0
SampleSet: Soft
StackLeniency: 0.5
Mode: 0
LetterboxInBreaks: 0
WidescreenStoryboard: 1

[Editor]
DistanceSpacing: 0.8
BeatDivisor: 4
GridSize: 4
TimelineZoom: 2.189999

[Metadata]
Title:TOMORROW (TV Size)
TitleUnicode:TOMORROW (TV Size)
Artist:BiSH
ArtistUnicode:BiSH
Creator:HakuYT
Version:Kuki's Expert
Source:キングダム
Tags:op j-rock third 3rd series 第3シリーズ jrock rock anime japanese kingdom season 3 opening elcheer kuki1537 bigfrog kanocchi
BeatmapID:2506060
BeatmapSetID:1197817

[Difficulty]
HPDrainRate:5.2
CircleSize:3.8
OverallDifficulty:8.5
ApproachRate:9.2
SliderMultiplier:1.8
SliderTickRate:1

[Events]
//Background and Video events
Video,730,"kingdom.mp4"
0,0,"bg.jpg",0,0
//Break Periods
//Storyboard Layer 0 (Background)
//Storyboard Layer 1 (Fail)
//Storyboard Layer 2 (Pass)
//Storyboard Layer 3 (Foreground)
//Storyboard Layer 4 (Overlay)
//Storyboard Sound Samples

[TimingPoints]
3758,307.692307692308,4,2,1,60,1,0
3758,-111.111111111111,4,2,1,60,0,0
4988,307.692307692308,4,2,1,70,1,0
4988,-111.111111111111,4,2,1,70,0,0
14834,-142.857142857143,4,2,1,70,0,0
15911,-200,4,2,1,65,0,0
16604,-200,4,2,1,5,0,0
16681,-200,4,2,1,65,0,0
17296,-142.857142857143,4,2,1,50,0,0
22142,-142.857142857143,4,2,1,5,0,0
22219,-142.857142857143,4,2,1,50,0,0
23681,-142.857142857143,4,2,1,5,0,0
23758,-142.857142857143,4,2,1,50,0,0
25911,-111.111111111111,4,2,1,70,0,0
31065,-111.111111111111,4,2,1,5,0,0
31142,-111.111111111111,4,2,1,70,0,0
31989,-111.111111111111,4,2,1,5,0,0
32066,-111.111111111111,4,2,1,70,0,0
32604,-111.111111111111,4,2,1,5,0,0
32681,-111.111111111111,4,2,1,70,0,0
36988,-166.666666666666,4,2,1,60,0,0
38142,-166.666666666666,4,2,1,5,0,0
38219,-166.666666666666,4,2,1,60,0,0
39373,-166.666666666666,4,2,1,5,0,0
39450,-166.666666666666,4,2,1,60,0,0
40604,-166.666666666666,4,2,1,5,0,0
40681,-166.666666666666,4,2,1,60,0,0
44296,-166.666666666666,4,2,1,5,0,0
44373,-166.666666666666,4,2,1,60,0,0
45065,-166.666666666666,4,2,1,5,0,0
45142,-166.666666666666,4,2,1,60,0,0
45604,-166.666666666666,4,2,1,65,0,0
46816,309.278350515464,4,2,1,70,1,0
46816,-125,4,2,1,70,0,0
47115,307.692307692308,4,2,1,70,1,0
47115,-125,4,2,1,70,0,0
48038,307.692307692308,4,2,1,60,1,0
48038,-125,4,2,1,70,0,0
50499,327.868852459016,4,2,1,70,1,0
50499,-125,4,2,1,70,0,0
50826,309.278350515464,4,2,1,70,1,0
50826,-125,4,2,1,70,0,0
51444,306.122448979592,4,2,1,70,1,0
51444,-125,4,2,1,70,0,0
51750,309.278350515464,4,2,1,70,1,0
51750,-125,4,2,1,70,0,0
52987,307.692307692308,4,2,1,70,1,0
52987,-125,4,2,1,70,0,0
53602,310.880829015544,4,2,1,70,1,0
53602,-125,4,2,1,70,0,0
54223,312.5,4,2,1,70,1,0
54223,-111.111111111111,4,2,1,70,0,0
54535,304.568527918782,4,2,1,70,1,0
54535,-111.111111111111,4,2,1,70,0,0
55294,306.122448979592,4,2,1,70,1,0
55294,-111.111111111111,4,2,1,70,0,0
56057,-111.111111111111,4,2,1,70,0,0
56680,307.692307692308,4,2,1,80,1,1
56680,-100,4,2,1,80,0,0
56911,-100,4,2,1,5,0,0
56987,-100,4,2,1,80,0,0
59373,-100,4,2,1,5,0,0
59449,-100,4,2,1,80,0,0
66757,-100,4,2,1,5,0,0
66833,-100,4,2,1,80,0,0
69219,-100,4,2,1,5,0,0
69295,-100,4,2,1,80,0,0
76218,-100,4,2,1,60,0,0
77527,-100,4,2,1,5,0,0
77603,-111.111111111111,4,2,1,70,0,0
84911,-111.111111111111,4,2,1,5,0,0
84987,-111.111111111111,4,2,1,70,0,0
88065,-100,4,2,1,60,0,0
89296,-100,4,2,1,55,0,0

[Colours]
Combo1 : 255,206,60
Combo2 : 255,128,64
Combo3 : 45,150,255
Combo4 : 0,206,223

[HitObjects]
193,139,4527,5,2,0:0:0:0:
99,276,4681,1,2,0:0:0:0:
239,234,4834,1,2,0:0:0:0:
68,202,4988,6,0,B|156:170|137:247|228:215,1,161.999995056153,6|10,1:2|0:2,0:0:0:0:
320,88,5450,1,0,0:2:0:0:
320,88,5527,1,8,0:2:0:0:
320,88,5604,1,2,1:2:0:0:
420,227,5758,1,2,1:2:0:0:
235,130,5911,1,10,0:2:0:0:
438,83,6065,1,2,0:2:0:0:
322,219,6219,6,0,L|315:305,1,80.9999975280763,2|2,1:2|1:2,0:0:0:0:
183,384,6527,2,0,L|176:303,1,80.9999975280763,10|2,0:2|0:2,0:0:0:0:
191,271,6758,1,8,0:0:0:0:
191,271,6834,1,0,1:2:0:0:
90,321,6988,1,2,1:2:0:0:
135,152,7142,1,10,0:2:0:0:
81,346,7296,1,2,0:2:0:0:
41,131,7450,5,2,1:2:0:0:
191,271,7604,2,0,P|239:277|277:265,1,80.9999975280763,2|8,1:2|0:0,0:0:0:0:
196,82,7911,1,2,0:0:0:0:
196,82,7988,1,8,0:0:0:0:
196,82,8065,1,0,1:2:0:0:
84,226,8219,2,0,L|-3:234,1,80.9999975280763,2|8,1:2|0:0,0:0:0:0:
361,254,8527,6,0,B|303:260|303:260|265:242|265:242|196:250,1,161.999995056153,2|0,0:2|1:2,0:0:0:0:
277,76,8988,1,8,0:2:0:0:
425,187,9142,1,0,0:2:0:0:
425,187,9219,1,8,0:2:0:0:
425,187,9296,1,0,1:2:0:0:
225,155,9450,1,2,1:2:0:0:
402,50,9604,1,10,0:2:0:0:
290,229,9758,1,8,0:2:0:0:
290,229,9834,1,8,0:2:0:0:
290,229,9911,6,0,P|235:254|143:214,1,161.999995056153,6|10,1:2|0:2,0:0:0:0:
152,42,10373,1,2,0:2:0:0:
152,42,10450,1,8,0:0:0:0:
152,42,10527,1,0,1:2:0:0:
59,186,10681,1,2,1:2:0:0:
212,125,10834,1,10,0:2:0:0:
54,78,10988,1,2,0:2:0:0:
153,200,11142,6,0,P|193:219|242:214,1,80.9999975280763,2|2,1:2|1:2,0:0:0:0:
318,61,11450,2,0,L|309:154,1,80.9999975280763,10|2,0:2|0:2,0:0:0:0:
319,170,11681,1,8,0:2:0:0:
319,170,11758,1,0,1:2:0:0:
477,125,11911,1,2,1:2:0:0:
371,244,12065,2,0,P|334:261|284:256,1,80.9999975280763,10|2,0:2|0:2,0:0:0:0:
134,190,12373,5,6,1:2:0:0:
200,348,12527,1,2,1:2:0:0:
230,166,12681,2,0,P|211:124|168:102,1,80.9999975280763,10|2,0:2|0:2,0:0:0:0:
147,101,12911,1,8,0:2:0:0:
147,101,12988,1,2,1:2:0:0:
48,237,13142,1,0,1:2:0:0:
52,53,13296,2,0,L|63:142,1,80.9999975280763,10|2,0:2|0:2,0:0:0:0:
215,240,13604,5,2,1:2:0:0:
284,42,13758,1,2,1:2:0:0:
134,190,13911,1,10,0:2:0:0:
353,210,14065,1,2,0:2:0:0:
194,22,14219,2,0,P|196:73|217:105,1,80.9999975280763,2|10,1:2|0:3,0:0:0:0:
437,109,14527,2,0,L|324:120,1,80.9999975280763,10|8,0:3|0:3,0:0:0:0:
148,207,14834,6,0,P|196:191|273:242,1,125.999996154785,6|0,1:2|0:0,0:0:0:0:
296,321,15296,1,8,0:2:0:0:
296,321,15373,1,8,0:2:0:0:
296,321,15450,2,0,L|358:328,1,62.9999980773926,2|10,1:2|0:3,0:0:0:0:
475,293,15758,1,10,0:3:0:0:
375,226,15911,6,0,B|330:178|330:178|356:56,1,180,6|0,1:2|0:0,0:0:0:0:
431,147,16681,2,0,P|469:160|500:153,2,67.5,8|8|8,0:2|0:3|0:3,0:0:0:0:
353,66,17296,6,0,L|275:77,1,62.9999980773926,4|0,1:2|0:2,0:0:0:0:
227,137,17604,2,0,P|207:109|203:63,1,62.9999980773926,2|0,1:2|0:2,0:0:0:0:
141,0,17911,2,0,P|126:31|88:57,1,62.9999980773926,2|0,1:2|0:2,0:0:0:0:
65,142,18219,2,0,P|99:138|141:158,1,62.9999980773926,2|0,1:2|0:2,0:0:0:0:
189,269,18527,6,0,L|126:277,1,62.9999980773926,2|0,1:2|0:2,0:0:0:0:
249,363,18834,1,2,1:2:0:0:
281,257,18988,2,0,P|314:229|402:242,1,125.999996154785,2|0,0:2|0:2,0:0:0:0:
474,343,19450,2,0,L|482:268,1,62.9999980773926,2|0,1:2|0:2,0:0:0:0:
512,155,19758,6,0,P|471:171|391:114,2,125.999996154785,6|0|0,1:2|1:2|1:2,0:0:0:0:
288,15,20681,2,0,L|281:82,1,62.9999980773926,2|0,1:2|0:2,0:0:0:0:
230,172,20988,6,0,B|163:154|177:206|104:191,1,125.999996154785,2|0,1:2|1:2,0:0:0:0:
10,95,21450,2,0,P|47:79|135:124,1,125.999996154785,2|0,0:2|0:2,0:0:0:0:
150,244,21911,1,2,1:2:0:0:
59,162,22065,1,0,0:0:0:0:
87,301,22219,6,0,P|122:327|164:326,1,62.9999980773926,4|0,1:2|0:2,0:0:0:0:
238,214,22527,2,0,L|232:288,1,62.9999980773926,2|0,1:2|0:2,0:0:0:0:
336,366,22834,2,0,L|262:372,1,62.9999980773926,2|0,1:2|0:2,0:0:0:0:
327,259,23142,2,0,L|389:264,1,62.9999980773926,2|0,1:2|0:2,0:0:0:0:
493,162,23450,6,0,P|460:177|416:169,1,62.9999980773926,2|0,1:2|0:0,0:0:0:0:
376,66,23758,1,2,1:2:0:0:
325,174,23911,2,0,B|276:181|276:181|247:171|247:171|199:178,1,125.999996154785,2|2,0:2|0:2,0:0:0:0:
69,130,24373,1,2,1:2:0:0:
129,236,24527,1,0,0:2:0:0:
156,102,24681,6,0,P|141:73|94:47,1,62.9999980773926,6|0,1:2|0:0,0:0:0:0:
6,138,24988,2,0,L|75:129,1,62.9999980773926,0|0,1:2|0:2,0:0:0:0:
201,194,25296,2,0,L|138:185,1,62.9999980773926,0|0,1:2|0:2,0:0:0:0:
26,228,25604,2,0,P|47:261|51:294,1,62.9999980773926,2|0,1:2|0:2,0:0:0:0:
163,370,25911,6,0,L|172:284,1,80.9999975280763,14|0,0:2|1:2,0:0:0:0:
156,102,26219,1,0,1:2:0:0:
51,284,26373,1,14,0:2:0:0:
234,167,26527,2,0,P|282:152|329:170,1,80.9999975280763,2|0,1:2|1:2,0:0:0:0:
440,292,26834,1,8,0:2:0:0:
408,298,26911,1,8,0:2:0:0:
376,304,26988,1,8,0:2:0:0:
344,310,27065,1,8,0:2:0:0:
312,316,27142,6,0,P|284:279|282:240,1,80.9999975280763,4|0,1:2|1:2,0:0:0:0:
417,73,27450,1,10,0:2:0:0:
367,217,27604,1,2,0:2:0:0:
313,45,27758,1,2,0:2:0:0:
427,156,27911,2,0,P|467:166|510:153,1,80.9999975280763,2|8,1:2|0:2,0:0:0:0:
328,28,28219,6,0,L|340:142,1,80.9999975280763,2|0,0:2|0:2,0:0:0:0:
275,248,28527,1,2,1:2:0:0:
250,118,28681,1,10,0:2:0:0:
349,203,28834,1,2,1:2:0:0:
216,190,28988,1,2,0:2:0:0:
333,124,29142,1,2,1:2:0:0:
206,194,29296,2,0,L|101:181,1,80.9999975280763,10|0,0:2|0:2,0:0:0:0:
44,302,29604,6,0,B|51:236|51:236|35:206|35:206|40:131,1,161.999995056153,2|8,1:2|0:2,0:0:0:0:
141,75,30065,1,0,0:2:0:0:
220,180,30219,2,0,L|228:94,1,80.9999975280763,0|0,0:2|1:2,0:0:0:0:
152,240,30527,2,0,P|193:267|251:264,1,80.9999975280763,10|0,0:2|0:2,0:0:0:0:
390,164,30834,6,0,L|287:176,1,80.9999975280763,2|0,0:2|0:0,0:0:0:0:
319,310,31142,1,8,0:2:0:0:
447,243,31296,2,0,B|484:197|484:197|469:79,1,161.999995056153,2|0,1:2|1:2,0:0:0:0:
339,0,31758,2,0,P|325:39|332:77,1,80.9999975280763,10|0,0:2|0:0,0:0:0:0:
360,229,32065,6,0,L|268:219,1,80.9999975280763,4|0,1:2|1:2,0:0:0:0:
192,72,32373,2,0,P|209:116|202:157,1,80.9999975280763,10|0,0:2|0:0,0:0:0:0:
85,280,32681,1,2,0:2:0:0:
45,136,32834,2,0,P|88:117|132:126,1,80.9999975280763,2|8,1:2|0:2,0:0:0:0:
152,216,33142,6,0,P|187:233|228:232,1,80.9999975280763,2|0,0:2|0:2,0:0:0:0:
287,156,33450,1,2,1:2:0:0:
314,272,33604,1,10,0:2:0:0:
296,147,33758,1,2,1:2:0:0:
322,265,33911,1,2,0:2:0:0:
390,183,34065,1,2,1:2:0:0:
227,232,34219,2,0,P|187:233|152:216,1,80.9999975280763,10|0,0:2|0:2,0:0:0:0:
213,19,34527,6,0,B|270:22|270:22|294:14|294:14|316:26|316:26|379:30,1,161.999995056153,6|8,1:2|0:2,0:0:0:0:
458,93,34988,1,0,0:2:0:0:
452,0,35142,2,0,P|457:49|441:84,1,80.9999975280763,0|0,0:2|1:2,0:0:0:0:
294,148,35450,2,0,L|385:138,1,80.9999975280763,10|0,0:2|0:2,0:0:0:0:
507,264,35758,6,0,L|416:254,1,80.9999975280763,2|0,1:2|0:2,0:0:0:0:
396,232,35988,1,8,0:2:0:0:
396,232,36065,1,8,0:2:0:0:
169,267,36219,1,10,0:2:0:0:
293,176,36373,5,8,0:2:0:0:
269,317,36527,1,8,0:3:0:0:
290,189,36681,1,10,0:3:0:0:
271,305,36834,1,8,0:3:0:0:
178,102,36988,6,0,P|131:83|64:112,1,107.999996704102,6|0,1:2|0:2,0:0:0:0:
110,266,37450,2,0,B|133:236|133:236|125:161,1,107.999996704102,2|0,1:2|1:2,0:0:0:0:
43,211,37911,1,8,0:2:0:0:
186,365,38219,5,2,1:2:0:0:
186,365,38373,2,0,L|247:357,1,53.9999983520508,0|2,1:2|0:2,0:0:0:0:
318,248,38681,2,0,P|308:282|321:320,1,53.9999983520508,8|2,0:2|0:2,0:0:0:0:
398,384,38988,1,0,1:2:0:0:
398,384,39142,2,0,P|408:350|395:312,1,53.9999983520508,10|0,0:2|0:0,0:0:0:0:
354,179,39450,6,0,P|314:206|239:191,1,107.999996704102,6|0,1:2|0:2,0:0:0:0:
178,91,39911,2,0,L|167:212,1,107.999996704102,0|0,1:2|1:2,0:0:0:0:
99,265,40373,1,8,0:2:0:0:
6,113,40681,5,2,1:2:0:0:
6,113,40834,2,0,L|67:120,1,53.9999983520508,0|2,1:2|0:2,0:0:0:0:
196,112,41142,1,8,0:2:0:0:
133,187,41296,2,0,P|125:221|136:254,1,53.9999983520508,2|8,0:2|0:3,0:0:0:0:
248,245,41604,2,0,P|255:210|244:177,1,53.9999983520508,10|8,0:3|0:3,0:0:0:0:
189,317,41911,6,0,P|233:338|309:313,1,107.999996704102,6|0,1:2|0:2,0:0:0:0:
397,248,42373,2,0,B|366:281|366:281|380:368,1,107.999996704102,0|0,1:2|1:2,0:0:0:0:
459,313,42834,1,10,0:2:0:0:
489,139,43142,5,2,1:2:0:0:
489,139,43296,2,0,P|455:153|417:147,1,53.9999983520508,0|2,1:2|0:2,0:0:0:0:
439,17,43604,2,0,L|447:74,1,53.9999983520508,8|2,0:2|0:2,0:0:0:0:
358,166,43911,1,0,1:2:0:0:
358,166,44065,2,0,L|365:112,1,53.9999983520508,8|0,0:2|0:0,0:0:0:0:
251,0,44373,6,0,P|210:31|211:103,1,107.999996704102,6|0,1:2|0:2,0:0:0:0:
273,170,44834,2,0,L|159:181,1,107.999996704102,0|2,1:2|1:2,0:0:0:0:
77,106,45296,1,10,0:2:0:0:
0,268,45604,5,0,1:2:0:0:
66,325,45758,1,8,0:0:0:0:
139,275,45911,2,0,P|146:320|148:347,1,53.9999983520508,8|0,0:3|0:0,0:0:0:0:
153,364,46142,1,8,0:2:0:0:
153,364,46219,1,8,0:2:0:0:
104,200,46373,1,8,0:2:0:0:
242,342,46527,1,8,0:2:0:0:
265,171,46681,1,8,0:2:0:0:
331,303,46816,6,0,L|416:295,1,72,4|0,1:2|0:2,0:0:0:0:
512,192,47115,2,0,L|440:185,1,72,8|0,0:2|0:2,0:0:0:0:
283,87,47422,1,2,1:2:0:0:
354,206,47576,1,0,1:2:0:0:
365,39,47730,2,0,P|332:8|278:0,1,72,10|0,0:2|0:2,0:0:0:0:
190,99,48038,6,0,L|268:106,1,72,6|0,1:2|0:2,0:0:0:0:
114,42,48345,2,0,P|94:84|100:126,1,72,10|0,0:2|0:2,0:0:0:0:
171,239,48653,1,2,1:2:0:0:
190,99,48807,1,0,1:2:0:0:
80,199,48961,2,0,L|-2:207,1,72,10|0,0:2|0:2,0:0:0:0:
145,329,49268,6,0,L|297:313,1,144,6|8,1:2|0:2,0:0:0:0:
417,185,49730,1,2,0:2:0:0:
372,354,49884,1,2,1:2:0:0:
300,214,50038,1,0,1:2:0:0:
444,303,50191,2,0,P|493:307|530:280,1,72,8|0,0:2|0:2,0:0:0:0:
422,113,50499,6,0,L|415:199,1,72,6|0,1:2|0:2,0:0:0:0:
288,307,50826,2,0,L|282:235,1,72,10|0,0:2|0:2,0:0:0:0:
234,72,51135,1,2,1:2:0:0:
176,225,51289,1,0,1:2:0:0:
309,117,51444,1,10,0:2:0:0:
322,91,51520,1,8,0:2:0:0:
324,62,51597,1,8,0:2:0:0:
316,34,51673,1,8,0:2:0:0:
297,11,51750,6,0,B|217:-17|230:48|136:22,1,144,6|8,1:2|0:2,0:0:0:0:
3,94,52213,1,0,0:2:0:0:
172,141,52368,1,0,1:2:0:0:
62,2,52523,1,0,1:2:0:0:
91,176,52677,2,0,P|93:216|78:251,1,72,8|0,0:2|0:2,0:0:0:0:
6,345,52987,6,0,B|59:337|59:337|101:357|101:357|160:347,1,144,2|8,1:2|0:2,0:0:0:0:
294,248,53448,1,0,0:2:0:0:
251,379,53602,1,0,1:2:0:0:
203,204,53757,1,0,1:2:0:0:
345,360,53912,1,8,0:2:0:0:
382,154,54068,1,0,0:0:0:0:
188,299,54223,6,0,L|103:310,1,80.9999975280763,6|0,1:2|0:0,0:0:0:0:
62,136,54535,1,8,0:2:0:0:
294,248,54687,1,8,0:2:0:0:
41,126,54839,1,8,0:2:0:0:
287,144,54991,1,8,0:2:0:0:
12,225,55144,1,8,0:2:0:0:
288,363,55294,6,0,P|347:351|457:342,1,161.999995056153,4|8,1:2|1:3,0:0:0:0:
396,120,55753,1,8,0:2:0:0:
188,299,55906,1,8,0:2:0:0:
188,299,55982,1,8,0:2:0:0:
188,299,56059,1,8,0:2:0:0:
246,172,56680,6,0,B|319:165|319:165|354:187|354:187|426:180,1,180,6|10,1:2|0:2,0:0:0:0:
159,130,57141,2,0,P|147:179|164:226,1,90,2|0,0:2|1:2,0:0:0:0:
339,298,57449,2,0,L|225:289,1,90,2|8,0:2|0:2,0:0:0:0:
76,318,57756,1,2,0:2:0:0:
246,172,57910,6,0,P|255:121|171:33,2,180,0|8|0,1:2|0:2|1:2,0:0:0:0:
95,280,58680,1,2,0:2:0:0:
159,130,58833,1,10,0:2:0:0:
213,288,58987,1,2,0:2:0:0:
78,176,59141,6,0,P|65:130|79:80,1,90,2|0,1:2|0:0,0:0:0:0:
153,2,59449,1,10,0:2:0:0:
267,202,59603,2,0,L|174:210,1,90,2|0,0:2|1:2,0:0:0:0:
322,11,59910,2,0,L|411:18,1,90,2|8,0:2|0:2,0:0:0:0:
508,191,60218,1,2,0:2:0:0:
391,328,60372,6,0,B|351:275|351:275|370:159,2,180,0|8|0,1:2|0:2|1:2,0:0:0:0:
508,191,61141,1,0,1:2:0:0:
497,83,61295,2,0,P|454:70|410:80,1,90,10|0,0:2|0:2,0:0:0:0:
245,247,61603,6,0,P|279:205|285:162,1,90,6|0,1:2|0:0,0:0:0:0:
227,1,61910,2,0,L|220:98,1,90,8|0,0:2|0:2,0:0:0:0:
158,278,62218,1,2,1:2:0:0:
40,114,62372,2,0,P|84:93|145:109,1,90,2|8,0:2|0:2,0:0:0:0:
70,350,62680,5,2,0:2:0:0:
69,333,62833,2,0,L|60:241,1,90,0|0,1:2|0:2,0:0:0:0:
233,167,63141,2,0,P|195:193|148:195,1,90,10|0,0:2|0:2,0:0:0:0:
261,68,63449,2,0,P|302:87|327:127,1,90,2|0,1:2|0:2,0:0:0:0:
299,317,63756,2,0,P|295:271|317:229,1,90,10|0,0:2|0:2,0:0:0:0:
498,104,64064,6,0,B|401:71|422:148|314:120,1,180,6|8,1:2|0:0,0:0:0:0:
190,173,64526,1,0,0:2:0:0:
276,45,64680,1,2,1:2:0:0:
84,126,64833,1,2,0:2:0:0:
292,214,64987,1,10,0:2:0:0:
192,0,65141,6,0,P|180:44|196:91,1,90,2|4,0:2|1:2,0:0:0:0:
372,157,65449,1,8,0:2:0:0:
372,157,65526,1,8,0:2:0:0:
372,157,65603,2,0,L|423:162,3,45,8|8|8|8,0:2|0:2|0:2|0:2,0:0:0:0:
376,339,65910,1,8,0:2:0:0:
376,339,65987,1,8,0:2:0:0:
376,339,66064,2,0,L|372:292,1,45,10|8,0:2|0:2,0:0:0:0:
277,205,66218,2,0,L|280:249,1,45,10|8,0:2|0:2,0:0:0:0:
235,355,66372,1,8,0:2:0:0:
235,355,66449,1,8,0:2:0:0:
235,355,66526,6,0,P|188:377|136:366,1,90,6|0,1:2|0:0,0:0:0:0:
8,283,66833,1,10,0:2:0:0:
192,203,66987,2,0,L|182:296,1,90,2|0,0:2|1:2,0:0:0:0:
18,195,67295,2,0,L|27:105,1,90,2|8,0:2|0:2,0:0:0:0:
137,0,67603,1,2,0:2:0:0:
215,182,67756,6,0,P|264:209|371:148,2,180,0|8|0,1:2|0:2|1:2,0:0:0:0:
186,89,68526,1,2,0:2:0:0:
125,232,68680,1,10,0:2:0:0:
282,117,68833,1,2,0:2:0:0:
185,306,68987,6,0,P|139:330|98:328,1,90,6|0,1:2|0:0,0:0:0:0:
29,265,69295,1,10,0:2:0:0:
317,296,69449,2,0,P|309:345|302:394,1,90,2|0,0:0|1:2,0:0:0:0:
125,232,69756,2,0,P|117:187|111:143,1,90,2|8,0:0|0:0,0:0:0:0:
224,0,70064,1,2,0:2:0:0:
291,146,70218,6,0,L|188:158,1,90,0|0,1:2|0:2,0:0:0:0:
352,0,70526,2,0,P|373:43|362:103,1,90,8|0,0:2|0:2,0:0:0:0:
257,249,70833,1,2,1:2:0:0:
257,249,70910,1,8,0:2:0:0:
257,249,70987,1,0,1:2:0:0:
470,204,71141,2,0,L|354:192,1,90,10|0,1:2|0:2,0:0:0:0:
181,312,71449,6,0,B|236:349|236:349|375:320,1,180,6|8,1:2|0:2,0:0:0:0:
279,231,71910,1,0,0:2:0:0:
105,186,72064,2,0,B|113:256|113:256|96:298|96:298|107:379,1,180,2|8,1:2|0:2,0:0:0:0:
207,336,72526,1,0,0:2:0:0:
158,106,72680,6,0,P|111:90|57:104,1,90,6|0,1:2|0:2,0:0:0:0:
0,261,72987,2,0,P|47:277|101:263,1,90,10|0,0:2|0:2,0:0:0:0:
257,145,73295,1,2,1:2:0:0:
207,336,73449,1,10,0:2:0:0:
207,336,73526,1,8,0:2:0:0:
207,336,73603,2,0,L|273:329,1,45,8|8,0:2|0:2,0:0:0:0:
380,218,73756,1,10,0:2:0:0:
380,218,73833,1,8,0:2:0:0:
380,218,73910,6,0,P|406:155|350:62,1,180,12|0,0:2|1:2,0:0:0:0:
258,55,74295,1,0,1:0:0:0:
258,55,74372,2,0,B|186:46|186:46|152:64|152:64|56:54,1,180,12|0,0:2|1:2,0:0:0:0:
13,137,74756,1,0,1:2:0:0:
13,137,74833,2,0,L|105:147,1,90,10|8,0:2|0:2,0:0:0:0:
291,263,75141,5,10,0:2:0:0:
55,330,75295,1,10,0:2:0:0:
308,259,75449,1,8,0:2:0:0:
102,146,75603,1,10,0:2:0:0:
264,366,75756,5,8,0:2:0:0:
315,102,75910,1,10,0:2:0:0:
263,383,76064,1,8,0:2:0:0:
195,70,76218,1,8,0:2:0:0:
256,192,76295,12,0,77449,0:0:0:0:
420,154,77603,6,0,B|332:122|351:199|260:167,1,161.999995056153,6|10,1:2|0:2,0:0:0:0:
116,79,78064,1,0,0:2:0:0:
116,79,78141,1,8,0:2:0:0:
116,79,78218,1,2,1:2:0:0:
189,248,78372,1,2,1:2:0:0:
210,40,78526,1,10,0:0:0:0:
92,196,78680,1,2,0:0:0:0:
44,19,78833,6,0,P|23:74|33:116,1,80.9999975280763,2|2,1:2|1:2,0:0:0:0:
172,161,79141,2,0,L|261:152,1,80.9999975280763,10|2,0:0|0:0,0:0:0:0:
280,127,79372,1,8,0:0:0:0:
280,127,79449,1,0,1:0:0:0:
370,299,79603,1,2,1:2:0:0:
407,103,79756,1,10,0:0:0:0:
272,244,79910,1,2,0:0:0:0:
480,178,80064,5,6,1:2:0:0:
318,35,80218,2,0,P|271:26|239:34,1,80.9999975280763,0|8,1:2|0:0,0:0:0:0:
354,208,80526,1,2,0:0:0:0:
354,208,80603,1,8,0:0:0:0:
354,208,80680,1,0,1:0:0:0:
506,82,80833,2,0,L|497:-8,1,80.9999975280763,2|8,1:2|0:0,0:0:0:0:
226,149,81141,6,0,P|283:140|355:236,1,161.999995056153,2|0,0:0|1:2,0:0:0:0:
340,384,81603,1,8,0:0:0:0:
268,229,81756,1,0,0:0:0:0:
268,229,81833,1,8,0:0:0:0:
268,229,81910,1,0,1:0:0:0:
440,327,82064,1,0,1:0:0:0:
243,339,82218,1,10,0:0:0:0:
384,197,82372,1,10,0:0:0:0:
384,197,82449,1,8,0:0:0:0:
384,197,82526,6,0,B|389:133|389:133|372:102|372:102|377:38,1,161.999995056153,6|10,1:2|0:0,0:0:0:0:
482,179,82987,1,2,0:0:0:0:
482,179,83064,1,8,0:0:0:0:
482,179,83141,1,0,1:0:0:0:
287,142,83295,1,2,1:2:0:0:
470,76,83449,1,10,0:0:0:0:
431,265,83603,1,2,0:2:0:0:
350,81,83756,6,0,P|302:55|249:61,1,80.9999975280763,2|2,1:2|1:2,0:0:0:0:
104,163,84064,2,0,P|143:157|177:135,1,80.9999975280763,10|2,0:0|0:0,0:0:0:0:
198,109,84295,1,8,0:0:0:0:
198,109,84372,1,0,1:0:0:0:
88,0,84526,1,2,1:2:0:0:
7,144,84680,2,0,L|20:243,1,80.9999975280763,10|0,0:0|0:0,0:0:0:0:
189,228,84987,5,6,1:2:0:0:
113,81,85141,1,2,1:2:0:0:
104,247,85295,2,0,P|121:289|170:314,1,80.9999975280763,10|2,0:0|0:0,0:0:0:0:
188,313,85526,1,8,0:0:0:0:
188,313,85603,1,2,1:2:0:0:
326,242,85756,1,2,1:2:0:0:
195,147,85910,2,0,L|188:240,1,80.9999975280763,10|2,0:2|0:0,0:0:0:0:
393,316,86218,6,0,P|417:276|409:192,1,121.499996292114,2|0,1:2|0:0,0:0:0:0:
391,169,86526,1,10,0:0:0:0:
279,326,86680,1,10,0:0:0:0:
326,94,86833,1,10,0:0:0:0:
465,270,86987,1,10,0:0:0:0:
228,151,87141,5,10,0:0:0:0:
195,147,87218,1,8,0:0:0:0:
163,154,87295,1,8,0:0:0:0:
136,172,87372,1,8,0:0:0:0:
118,199,87449,1,6,1:2:0:0:
256,192,87526,12,8,89910,0:0:0:0:
