osu file format v14

[General]
AudioFilename: audio.mp3
AudioLeadIn: 0
PreviewTime: 56135
Countdown: 0
SampleSet: Soft
StackLeniency: 0.5
Mode: 0
LetterboxInBreaks: 0
WidescreenStoryboard: 1

[Editor]
Bookmarks: 87450
DistanceSpacing: 1.2
BeatDivisor: 4
GridSize: 4
TimelineZoom: 2.789998

[Metadata]
Title:TOMORROW (TV Size)
TitleUnicode:TOMORROW (TV Size)
Artist:BiSH
ArtistUnicode:BiSH
Creator:HakuYT
Version:Elcheer's Insane
Source:キングダム
Tags:op j-rock third 3rd series 第3シリーズ jrock rock anime japanese kingdom season 3 opening elcheer kuki1537 bigfrog kanocchi
BeatmapID:2496334
BeatmapSetID:1197817

[Difficulty]
HPDrainRate:5
CircleSize:3.7
OverallDifficulty:8
ApproachRate:9
SliderMultiplier:1.5
SliderTickRate:1

[Events]
//Background and Video events
0,0,"bg.jpg",0,0
Video,730,"kingdom.mp4"
//Break Periods
//Storyboard Layer 0 (Background)
//Storyboard Layer 1 (Fail)
//Storyboard Layer 2 (Pass)
//Storyboard Layer 3 (Foreground)
//Storyboard Layer 4 (Overlay)
//Storyboard Sound Samples

[TimingPoints]
3758,307.692307692308,4,2,1,60,1,0
4988,307.692307692308,4,2,1,70,1,0
14834,-125,4,2,1,70,0,0
15911,-125,4,2,1,65,0,0
16988,-125,4,2,1,70,0,0
17296,-125,4,2,1,50,0,0
25911,-125,4,2,1,70,0,0
26834,-100,4,2,1,70,0,0
36988,-125,4,2,1,60,0,0
45604,-125,4,2,1,65,0,0
46816,309.278350515464,4,2,1,70,1,0
46816,-96.8523002421307,4,2,1,70,0,0
47115,307.692307692308,4,2,1,70,1,0
48038,307.692307692308,4,2,1,60,1,0
50499,327.868852459016,4,2,1,70,1,0
50826,309.278350515464,4,2,1,70,1,0
51444,306.122448979592,4,2,1,70,1,0
51750,309.278350515464,4,2,1,70,1,0
52987,307.692307692308,4,2,1,70,1,0
53602,310.880829015544,4,2,1,70,1,0
54223,312.5,4,2,1,70,1,0
54535,304.568527918782,4,2,1,70,1,0
55294,306.122448979592,4,2,1,70,1,0
56065,-100,4,2,1,70,0,0
56680,307.692307692308,4,2,1,80,1,1
56680,-90.9090909090909,4,2,1,80,0,1
76218,-333.333333333333,4,2,1,60,0,0
77449,-333.333333333333,4,2,1,70,0,0
77603,-100,4,2,1,70,0,0
89911,-100,4,2,1,40,0,0

[Colours]
Combo1 : 255,206,60
Combo2 : 255,128,64
Combo3 : 45,150,255
Combo4 : 0,206,223

[HitObjects]
269,21,4527,5,2,2:0:0:0:
269,21,4681,1,2,2:0:0:0:
269,21,4834,1,2,2:0:0:0:
387,86,4988,6,0,L|372:173,1,75,6|0,1:2|1:2,2:0:0:0:
297,224,5296,2,0,L|284:150,1,75,10|0,2:0|2:0,2:0:0:0:
281,123,5527,1,8,2:0:0:0:
277,96,5604,1,2,1:2:0:0:
202,161,5758,1,2,1:2:0:0:
151,55,5911,1,10,2:0:0:0:
151,55,6065,1,2,2:0:0:0:
43,136,6219,6,0,P|33:178|40:223,1,75,2|2,1:2|1:2,2:0:0:0:
103,306,6527,2,0,L|231:285,1,112.5,10|8,2:0|2:0,2:0:0:0:
239,281,6834,1,0,1:2:0:0:
209,197,6988,1,2,1:2:0:0:
356,145,7142,2,0,L|348:227,1,75,10|2,2:0|2:0,2:0:0:0:
469,298,7450,5,2,1:2:0:0:
447,210,7604,1,2,1:2:0:0:
371,370,7758,2,0,L|296:362,1,75,8|2,2:0|2:0,2:0:0:0:
270,358,7988,1,8,2:0:0:0:
244,355,8065,1,0,1:2:0:0:
348,219,8219,2,0,P|367:270|359:308,1,75,2|8,1:2|2:0,2:0:0:0:
225,217,8527,6,0,L|238:129,2,75,2|0|0,2:0|1:2|1:2,2:0:0:0:
147,264,8988,1,8,2:0:0:0:
99,188,9142,1,0,2:0:0:0:
99,188,9219,1,8,2:0:0:0:
99,188,9296,1,0,1:2:0:0:
50,324,9450,1,2,1:2:0:0:
141,292,9604,1,10,2:0:0:0:
17,224,9758,1,8,2:0:0:0:
17,224,9834,1,8,2:0:0:0:
17,224,9911,6,0,P|6:173|21:136,1,75,6|2,1:2|1:2,2:0:0:0:
106,88,10219,2,0,L|216:117,1,112.5,10|8,2:0|2:0,2:0:0:0:
240,123,10527,1,0,1:2:0:0:
195,195,10681,1,2,1:2:0:0:
294,288,10834,2,0,L|305:201,1,75,10|2,2:0|2:0,2:0:0:0:
417,129,11142,5,2,1:2:0:0:
386,213,11296,1,2,1:2:0:0:
293,90,11450,2,0,P|239:78|203:92,1,75,10|2,2:0|2:0,2:0:0:0:
196,93,11681,1,8,2:0:0:0:
177,112,11758,1,0,1:2:0:0:
140,27,11911,1,2,1:2:0:0:
110,171,12065,1,10,2:0:0:0:
110,171,12219,1,2,2:0:0:0:
15,52,12373,5,6,1:2:0:0:
101,25,12527,1,2,1:2:0:0:
26,152,12681,2,0,B|2:202|2:202|19:266,1,112.5,10|8,2:0|2:0,2:0:0:0:
25,282,12988,1,2,1:2:0:0:
101,240,13142,1,0,1:2:0:0:
148,355,13296,2,0,L|227:365,1,75,10|2,2:0|2:0,2:0:0:0:
342,275,13604,5,2,1:2:0:0:
261,235,13758,1,2,1:2:0:0:
379,128,13911,2,0,B|422:120|422:120|464:135,1,75,10|2,2:0|2:0,2:0:0:0:
409,210,14219,1,2,1:2:0:0:
292,132,14373,1,10,2:3:0:0:
385,53,14527,2,0,L|377:145,1,75,10|8,2:3|2:3,2:0:0:0:
213,173,14834,6,0,P|202:136|256:51,1,120,6|0,1:2|2:0,2:0:0:0:
307,213,15296,2,0,L|314:255,2,30,8|8|2,2:0|2:0|1:2,2:0:0:0:
292,132,15604,1,10,2:3:0:0:
213,173,15758,1,10,2:3:0:0:
389,239,15911,1,6,1:2:0:0:
256,192,15988,12,0,16988,2:0:0:0:
405,218,17296,6,0,B|430:259|430:259|412:340,2,120,4|2|2,1:2|1:2|1:2,2:0:0:0:
319,102,18219,1,2,1:2:0:0:
319,102,18527,6,0,B|286:88|256:95|270:108|236:125|200:110,1,120,2|2,1:2|1:2,2:0:0:0:
143,53,18988,2,0,B|177:83|177:83|161:176,1,120,2|0,2:0|2:0,2:0:0:0:
139,236,19450,2,0,L|127:308,1,60,2|0,1:2|2:0,2:0:0:0:
66,180,19758,5,6,1:2:0:0:
229,215,20065,1,0,1:2:0:0:
118,341,20373,1,0,1:2:0:0:
281,376,20681,1,2,1:2:0:0:
281,376,20988,6,0,L|306:255,1,120,2|0,1:2|1:2,2:0:0:0:
401,168,21450,2,0,L|416:239,2,60,2|0|0,2:0|2:0|2:0,2:0:0:0:
327,91,21911,2,0,L|312:162,1,60,2|0,1:2|2:0,2:0:0:0:
246,63,22219,5,4,1:2:0:0:
215,227,22527,1,2,1:2:0:0:
63,153,22834,1,2,1:2:0:0:
32,317,23142,1,2,1:2:0:0:
215,227,23450,6,0,B|266:217|266:217|282:226|282:226|345:212,1,120,2|2,1:2|1:2,2:0:0:0:
393,159,23911,2,0,P|412:197|392:273,1,120,2|2,2:0|2:0,2:0:0:0:
279,178,24373,2,0,L|291:104,1,60,2|0,1:2|2:0,2:0:0:0:
211,21,24681,5,6,1:2:0:0:
158,180,24988,1,0,1:2:0:0:
53,21,25296,1,0,1:2:0:0:
0,180,25604,1,2,1:2:0:0:
266,54,25911,5,14,2:0:0:0:
248,142,26065,1,0,1:2:0:0:
175,87,26219,1,0,1:2:0:0:
96,281,26373,1,14,2:0:0:0:
165,223,26527,1,2,1:2:0:0:
236,278,26681,1,0,1:2:0:0:
322,197,26834,6,0,L|333:153,3,37.5,8|8|8|8,2:0|2:0|2:0|2:0,2:0:0:0:
343,120,27142,6,0,P|376:113|424:124,1,75,4|0,1:2|1:2,2:0:0:0:
512,155,27450,1,10,2:0:0:0:
482,69,27604,1,2,2:0:0:0:
408,214,27758,1,2,2:0:0:0:
486,258,27911,2,0,P|503:295|500:333,1,75,2|8,1:2|2:0,2:0:0:0:
280,297,28219,6,0,B|321:280|358:296|352:310|383:326|427:305,1,150,2|2,2:0|1:2,2:0:0:0:
230,226,28681,1,10,2:0:0:0:
197,309,28834,1,2,1:2:0:0:
115,185,28988,1,2,2:0:0:0:
82,268,29142,1,2,1:2:0:0:
7,147,29296,2,0,P|1:90|10:67,1,75,10|0,2:0|2:0,2:0:0:0:
120,17,29604,5,2,1:2:0:0:
162,96,29758,1,0,2:0:0:0:
258,24,29911,2,0,P|302:15|336:29,1,75,8|0,2:0|2:0,2:0:0:0:
416,139,30219,1,0,2:0:0:0:
328,118,30373,1,0,1:2:0:0:
276,225,30527,2,0,P|265:271|272:315,1,75,10|0,2:0|2:0,2:0:0:0:
356,384,30834,5,2,2:0:0:0:
383,297,30988,1,0,1:2:0:0:
237,375,31142,1,8,2:0:0:0:
237,375,31296,2,0,B|198:389|162:377|170:360|132:346|91:364,1,150,2|0,1:2|1:2,2:0:0:0:
206,299,31758,2,0,P|219:250|212:216,1,75,10|0,2:0|2:0,2:0:0:0:
116,128,32065,5,4,1:2:0:0:
116,128,32373,2,0,P|106:177|115:209,1,75,10|0,2:0|2:0,2:0:0:0:
279,118,32681,1,2,2:0:0:0:
279,118,32834,2,0,P|240:101|201:106,1,75,2|8,1:2|2:0,2:0:0:0:
314,238,33142,6,0,B|364:257|398:244|388:229|428:216|465:235,1,150,2|2,2:0|1:2,2:0:0:0:
349,163,33604,1,10,2:0:0:0:
431,126,33758,1,2,1:2:0:0:
389,289,33911,1,2,2:0:0:0:
314,238,34065,1,2,1:2:0:0:
195,344,34219,2,0,L|273:362,1,75,10|0,2:0|2:0,2:0:0:0:
208,214,34527,5,6,1:2:0:0:
133,265,34681,1,0,2:0:0:0:
66,130,34834,2,0,L|153:151,1,75,8|0,2:0|2:0,2:0:0:0:
280,58,35142,1,0,2:0:0:0:
196,23,35296,1,0,1:2:0:0:
284,165,35450,2,0,L|371:144,1,75,10|0,2:0|2:0,2:0:0:0:
486,83,35758,6,0,P|498:125|495:160,1,75,2|0,1:2|2:0,2:0:0:0:
487,183,35988,1,8,2:0:0:0:
475,205,36065,1,8,2:0:0:0:
399,142,36219,1,10,2:0:0:0:
342,287,36373,5,10,2:0:0:0:
284,165,36527,1,8,2:3:0:0:
406,218,36681,1,8,2:3:0:0:
263,257,36834,1,8,2:3:0:0:
439,365,36988,6,0,B|407:352|373:364|382:376|349:389|314:370,1,120,6|0,1:2|2:0,2:0:0:0:
188,327,37450,2,0,P|199:281|273:260,1,120,2|0,1:2|1:2,2:0:0:0:
342,287,37911,1,8,2:0:0:0:
342,287,38219,5,2,1:2:0:0:
413,242,38373,2,0,P|420:190|412:165,1,60,0|2,1:2|2:0,2:0:0:0:
333,63,38681,1,8,2:0:0:0:
262,108,38834,2,0,P|255:160|263:185,1,60,2|0,2:0|1:2,2:0:0:0:
422,104,39142,1,10,2:0:0:0:
422,104,39450,6,0,P|387:56|321:73,1,120,6|0,1:2|2:0,2:0:0:0:
262,108,39911,2,0,P|247:47|279:-5,1,120,0|0,1:2|1:2,2:0:0:0:
359,157,40373,1,8,2:0:0:0:
359,157,40681,6,0,L|346:232,2,60,2|0|2,1:2|1:2|2:0,2:0:0:0:
430,201,41142,1,8,2:0:0:0:
320,290,41296,2,0,L|250:268,1,60,2|8,2:0|2:3,2:0:0:0:
169,334,41604,1,10,2:3:0:0:
169,334,41758,1,8,2:3:0:0:
80,256,41911,6,0,P|70:214|134:168,1,120,6|0,1:2|2:0,2:0:0:0:
193,212,42373,2,0,L|213:81,1,120,0|0,1:2|1:2,2:0:0:0:
292,165,42834,2,0,L|362:152,1,60,10|0,2:0|2:0,2:0:0:0:
211,93,43142,5,2,1:2:0:0:
211,93,43296,2,0,L|141:80,1,60,0|2,1:2|2:0,2:0:0:0:
193,212,43604,2,0,L|213:81,1,120,8|0,2:0|1:2,2:0:0:0:
81,153,44065,1,8,2:0:0:0:
81,153,44373,6,0,B|53:200|53:200|73:284,1,120,6|0,1:2|2:0,2:0:0:0:
138,334,44834,2,0,B|168:317|170:284|170:284|168:317|197:341,1,120,0|2,1:2|1:2,2:0:0:0:
266,384,45296,1,10,2:0:0:0:
266,384,45450,1,2,2:0:0:0:
319,264,45604,5,0,1:2:0:0:
368,331,45758,1,8,2:0:0:0:
432,220,45911,2,0,P|454:160|438:118,1,90,8|8,2:3|2:0,2:0:0:0:
425,104,46219,5,8,2:0:0:0:
339,235,46373,1,8,2:0:0:0:
304,118,46527,1,8,2:0:0:0:
432,220,46681,1,8,2:0:0:0:
352,47,46816,6,0,P|291:35|221:91,1,150,4|8,1:2|2:0,2:0:0:0:
110,261,47422,1,2,1:2:0:0:
78,176,47576,1,0,1:2:0:0:
207,230,47730,2,0,L|190:322,1,75,10|0,2:0|2:0,2:0:0:0:
301,357,48038,6,0,P|268:299|181:315,1,150,6|10,1:2|2:0,2:0:0:0:
311,229,48499,1,0,2:0:0:0:
366,299,48653,1,2,1:2:0:0:
406,169,48807,1,0,1:2:0:0:
512,245,48961,2,0,P|462:254|429:246,1,75,10|0,2:0|2:0,2:0:0:0:
302,149,49268,6,0,B|257:131|227:145|234:160|189:177|150:154,1,150,6|8,1:2|2:0,2:0:0:0:
192,74,49730,1,2,2:0:0:0:
276,225,49884,1,2,1:2:0:0:
276,225,50038,1,0,1:2:0:0:
158,158,50191,2,0,P|128:198|125:235,1,75,8|0,2:0|2:0,2:0:0:0:
242,311,50499,6,0,P|192:293|166:299,1,75,6|0,1:2|2:0,2:0:0:0:
276,225,50826,2,0,P|326:207|352:213,1,75,10|0,2:0|2:0,2:0:0:0:
234,137,51135,1,2,1:2:0:0:
312,93,51289,1,0,1:2:0:0:
193,34,51444,2,0,L|151:23,3,37.5,10|8|8|8,2:0|2:0|2:0|2:0,2:0:0:0:
122,15,51750,6,0,P|65:60|86:142,2,150,6|8|0,1:2|2:0|1:2,2:0:0:0:
168,143,52523,1,0,1:2:0:0:
234,82,52677,2,0,P|279:76|312:93,1,75,8|0,2:0|2:0,2:0:0:0:
378,206,52987,1,2,1:2:0:0:
293,177,53140,1,0,1:2:0:0:
223,278,53294,2,0,P|188:290|151:283,1,75,8|0,2:0|2:0,2:0:0:0:
70,242,53602,5,0,1:2:0:0:
143,191,53757,1,0,1:2:0:0:
49,89,53912,2,0,L|35:168,1,75,8|0,2:0|2:0,2:0:0:0:
152,104,54223,5,6,1:2:0:0:
152,104,54535,5,8,2:0:0:0:
274,6,54687,1,8,2:0:0:0:
232,169,54839,1,8,2:0:0:0:
163,19,54991,1,8,2:0:0:0:
35,162,55144,1,8,2:0:0:0:
35,162,55294,6,0,P|91:159|109:250,1,150,6|8,1:2|1:3,2:0:0:0:
38,315,55753,1,8,2:0:0:0:
38,315,55829,1,8,2:0:0:0:
38,315,55906,1,8,2:0:0:0:
38,315,55982,1,8,2:0:0:0:
38,315,56059,1,8,2:0:0:0:
38,315,56680,6,0,B|82:292|124:311|111:334|156:346|198:327,1,165,6|10,1:2|2:0,2:0:0:0:
264,258,57141,2,0,P|275:211|267:171,1,82.5,2|0,2:0|1:2,2:0:0:0:
183,127,57449,2,0,P|172:174|180:214,1,82.5,2|8,2:0|2:0,2:0:0:0:
345,109,57756,6,0,L|256:94,2,82.5,2|0|0,2:0|1:2|2:0,2:0:0:0:
437,145,58218,2,0,P|450:195|443:230,1,82.5,8|0,2:0|2:0,2:0:0:0:
396,311,58526,1,0,1:2:0:0:
314,254,58680,1,2,2:0:0:0:
231,361,58833,2,0,L|318:373,1,82.5,10|2,2:0|2:0,2:0:0:0:
214,242,59141,6,0,P|152:232|93:314,1,165,2|10,1:2|2:0,2:0:0:0:
140,192,59603,2,0,L|150:101,1,82.5,2|0,2:0|1:2,2:0:0:0:
31,46,59910,2,0,L|40:128,1,82.5,2|8,2:0|2:0,2:0:0:0:
217,78,60218,6,0,P|187:45|138:37,2,82.5,2|2|0,2:0|1:2|2:0,2:0:0:0:
250,171,60680,2,0,P|291:192|330:189,1,82.5,8|0,2:0|2:0,2:0:0:0:
440,98,60987,1,0,1:2:0:0:
346,66,61141,1,0,1:2:0:0:
421,186,61295,2,0,P|433:234|425:271,1,82.5,10|0,2:0|2:0,2:0:0:0:
323,356,61603,6,0,B|253:343|253:343|232:328|232:328|152:315,1,165,6|8,1:2|2:0,2:0:0:0:
68,295,62064,1,0,2:0:0:0:
168,162,62218,1,2,1:2:0:0:
168,162,62372,2,0,L|186:246,1,82.5,2|8,2:0|2:0,2:0:0:0:
348,153,62680,6,0,P|298:129|258:138,2,82.5,2|0|0,2:0|1:2|2:0,2:0:0:0:
301,296,63141,2,0,L|290:205,1,82.5,10|0,2:0|2:0,2:0:0:0:
422,316,63449,2,0,L|433:225,1,82.5,2|0,1:2|2:0,2:0:0:0:
347,371,63756,2,0,P|297:382|250:366,1,82.5,10|0,2:0|2:0,2:0:0:0:
97,257,64064,6,0,B|138:210|207:249|207:249|193:278|198:309,2,165,6|8|2,1:2|2:0|1:2,2:0:0:0:
22,323,64833,1,2,2:0:0:0:
106,374,64987,1,10,2:0:0:0:
97,257,65141,2,0,P|107:198|173:150,1,123.75,2|0,2:0|2:0,2:0:0:0:
179,145,65449,1,8,2:0:0:0:
207,151,65526,1,8,2:0:0:0:
233,160,65603,6,0,L|281:174,3,41.25,8|8|8|8,2:0|2:0|2:0|2:0,2:0:0:0:
294,191,65910,2,0,L|333:179,3,41.25,8|8|10|8,2:0|2:0|2:0|2:0,2:0:0:0:
355,159,66218,1,10,2:0:0:0:
360,189,66295,1,8,2:0:0:0:
366,219,66372,1,8,2:0:0:0:
371,250,66449,1,8,2:0:0:0:
377,280,66526,6,0,P|421:261|492:347,1,165,6|10,1:2|2:0,2:0:0:0:
407,381,66987,2,0,L|321:370,1,82.5,2|0,2:0|1:2,2:0:0:0:
201,288,67295,2,0,L|283:278,1,82.5,2|8,2:0|2:0,2:0:0:0:
150,147,67603,6,0,P|129:209|136:247,2,82.5,2|0|0,2:0|1:2|2:0,2:0:0:0:
212,70,68064,2,0,L|297:91,1,82.5,8|0,2:0|2:0,2:0:0:0:
150,147,68372,1,0,1:2:0:0:
119,52,68526,1,2,2:0:0:0:
292,89,68680,2,0,L|274:185,1,82.5,10|2,2:0|2:0,2:0:0:0:
143,260,68987,6,0,B|192:239|228:259|220:276|265:291|306:267,1,165,6|10,1:2|2:0,2:0:0:0:
351,187,69449,2,0,P|283:167|267:175,1,82.5,2|0,2:0|1:2,2:0:0:0:
391,262,69756,2,0,P|459:282|475:274,1,82.5,2|8,2:0|2:0,2:0:0:0:
455,116,70064,6,0,L|435:207,2,82.5,2|2|0,2:0|1:2|2:0,2:0:0:0:
397,34,70526,2,0,P|352:10|305:19,1,82.5,8|0,2:0|2:0,2:0:0:0:
209,77,70833,1,2,1:2:0:0:
209,77,70910,1,8,2:0:0:0:
209,77,70987,1,0,1:2:0:0:
285,138,71141,2,0,P|296:200|286:238,1,82.5,10|0,1:2|2:0,2:0:0:0:
177,277,71449,6,0,P|230:255|304:338,1,165,6|8,1:2|2:0,2:0:0:0:
104,325,71910,1,0,2:0:0:0:
104,325,72064,2,0,P|88:276|100:243,1,82.5,2|0,1:2|2:0,2:0:0:0:
202,145,72372,2,0,P|217:182|209:222,1,82.5,8|0,2:0|2:0,2:0:0:0:
105,119,72680,6,0,P|91:44|172:49,2,165,6|10|2,1:2|2:0|1:2,2:0:0:0:
202,145,73449,1,10,2:0:0:0:
202,145,73526,1,8,2:0:0:0:
202,145,73603,2,0,L|245:133,3,41.25,8|8|10|8,2:0|2:0|2:0|2:0,2:0:0:0:
263,88,73910,6,0,B|333:64|333:64|351:69|351:69|435:45,1,165,12|0,2:0|1:2,2:0:0:0:
456,33,74295,1,0,1:2:0:0:
456,33,74372,2,0,P|414:82|448:171,1,165,12|0,2:0|1:2,2:0:0:0:
472,189,74756,1,0,1:2:0:0:
472,189,74833,2,0,P|421:177|380:199,1,82.5,10|8,2:0|2:0,2:0:0:0:
316,248,75141,5,10,2:0:0:0:
406,288,75295,1,10,2:0:0:0:
322,161,75449,5,8,2:0:0:0:
310,335,75603,1,10,2:0:0:0:
185,190,75756,5,8,2:0:0:0:
316,248,75910,1,10,2:0:0:0:
245,110,76064,5,8,2:0:0:0:
127,270,76218,2,0,P|97:216|187:193,1,180,8|0,2:0|2:0,2:0:0:0:
302,271,77603,6,0,L|287:363,1,75,6|0,1:2|1:2,2:0:0:0:
409,267,77910,2,0,L|396:192,1,75,10|0,2:0|2:0,2:0:0:0:
389,167,78141,1,8,2:0:0:0:
383,141,78218,1,2,1:2:0:0:
304,188,78372,1,2,1:2:0:0:
319,48,78526,2,0,L|402:62,1,75,10|2,2:0|2:0,2:0:0:0:
256,118,78833,5,2,1:2:0:0:
225,33,78987,1,2,1:2:0:0:
109,107,79141,2,0,B|78:146|78:146|92:233,1,112.5,10|8,2:0|2:0,2:0:0:0:
94,233,79449,1,0,1:0:0:0:
182,215,79603,1,2,1:2:0:0:
234,331,79756,2,0,L|150:306,1,75,10|2,2:0|2:0,2:0:0:0:
272,208,80064,5,6,1:2:0:0:
320,283,80218,1,2,1:2:0:0:
413,186,80372,2,0,P|430:133|410:90,1,75,8|2,2:0|2:0,2:0:0:0:
412,92,80603,1,8,2:0:0:0:
399,69,80680,1,0,1:0:0:0:
309,113,80833,2,0,L|221:100,1,75,2|8,1:2|2:0,2:0:0:0:
147,25,81141,6,0,L|235:12,2,75,2|0|0,2:0|1:2|1:2,2:0:0:0:
23,53,81603,2,0,P|68:92|60:164,1,112.5,8|8,2:0|2:0,2:0:0:0:
60,166,81910,1,0,1:0:0:0:
144,170,82064,1,2,1:2:0:0:
79,303,82218,1,10,2:0:0:0:
167,289,82372,1,10,2:0:0:0:
167,289,82449,1,8,2:0:0:0:
167,289,82526,5,6,1:2:0:0:
141,375,82680,1,2,1:2:0:0:
261,309,82833,2,0,P|308:295|378:324,1,112.5,10|8,2:0|2:0,2:0:0:0:
383,334,83141,1,0,1:0:0:0:
461,270,83295,1,2,1:2:0:0:
352,186,83449,2,0,P|339:232|347:270,1,75,10|2,2:0|2:0,2:0:0:0:
475,167,83756,5,2,1:2:0:0:
401,114,83910,1,2,1:2:0:0:
501,14,84064,2,0,P|449:37|409:27,1,75,10|2,2:0|2:0,2:0:0:0:
407,26,84295,1,8,2:0:0:0:
383,15,84372,1,0,1:0:0:0:
315,77,84526,1,2,1:2:0:0:
222,14,84680,2,0,P|177:1|129:12,1,75,10|0,2:0|2:0,2:0:0:0:
58,100,84987,5,6,1:2:0:0:
137,140,85141,1,2,1:2:0:0:
26,307,85295,2,0,P|11:262|47:202,1,112.5,10|8,2:0|2:0,2:0:0:0:
60,191,85603,1,2,1:2:0:0:
126,253,85756,1,2,1:2:0:0:
226,166,85910,2,0,L|242:241,1,75,10|2,2:0|2:0,2:0:0:0:
275,349,86218,6,0,L|187:336,1,75,2|2,1:2|2:0,2:0:0:0:
328,277,86526,2,0,L|405:261,1,75,10|10,2:0|2:0,2:0:0:0:
505,251,86833,1,10,2:0:0:0:
345,174,86987,1,10,2:0:0:0:
507,98,87141,1,10,2:0:0:0:
509,61,87218,1,8,2:0:0:0:
494,27,87295,1,8,2:0:0:0:
463,6,87372,1,8,2:0:0:0:
426,4,87449,1,6,1:2:0:0:
256,192,87526,12,8,89910,2:0:0:0:
