osu file format v14

[General]
AudioFilename: audio.mp3
AudioLeadIn: 0
PreviewTime: 97978
Countdown: 0
SampleSet: Soft
StackLeniency: 0.7
Mode: 0
LetterboxInBreaks: 0
WidescreenStoryboard: 0

[Editor]
DistanceSpacing: 0.4
BeatDivisor: 4
GridSize: 16
TimelineZoom: 2.6

[Metadata]
Title:Stereo Future (Short Ver.)
TitleUnicode:Stereo Future (Short Ver.)
Artist:BiSH
ArtistUnicode:BiSH
Creator:termi330
Version:Proving Our Love
Source:
Tags:fate grand order god eater 3 opening theme action rpg punk rock jrock
BeatmapID:2113866
BeatmapSetID:1009782

[Difficulty]
HPDrainRate:6
CircleSize:4
OverallDifficulty:9.2
ApproachRate:9.3
SliderMultiplier:1.4
SliderTickRate:1

[Events]
//Background and Video events
0,0,"thumb-1920-755563.jpg",0,0
//Break Periods
2,88548,95979
//Storyboard Layer 0 (Background)
//Storyboard Layer 1 (Fail)
//Storyboard Layer 2 (Pass)
//Storyboard Layer 3 (Foreground)
//Storyboard Layer 4 (Overlay)
//Storyboard Sound Samples

[TimingPoints]
48,344.827586206897,4,2,0,65,1,0
5565,-83.3333333333333,4,2,0,50,0,0
16254,-111.111111111111,4,2,0,50,0,0
16599,-83.3333333333333,4,2,0,50,0,0
27639,344.827586206897,4,2,0,65,1,0
27639,-90.9090909090909,4,2,0,50,0,0
29358,-166.666666666667,4,2,0,50,0,0
29703,-90.9090909090909,4,2,0,50,0,0
38668,-90.9090909090909,4,2,0,50,0,0
44190,-83.3333333333333,4,2,0,50,0,0
49703,-83.3333333333333,4,2,0,54,0,0
53841,-83.3333333333333,4,2,0,58,0,0
55225,-66.6666666666667,4,2,0,65,0,1
82821,344.827586206897,4,2,0,65,1,0
82821,-66.6666666666667,4,2,0,65,0,1
84210,344.827586206897,4,2,0,65,1,0
84210,-66.6666666666667,4,2,0,65,0,1
86968,-111.111111111111,4,2,0,65,0,0
87634,-111.111111111111,4,2,0,40,0,0
88347,-111.111111111111,4,2,0,30,0,0
97289,344.827586206897,4,2,0,65,1,0
97289,-111.111111111111,4,2,0,15,0,0
97375,-111.111111111111,4,2,0,20,0,0
97461,-111.111111111111,4,2,0,25,0,0
97548,-111.111111111111,4,2,0,30,0,0
97634,-111.111111111111,4,2,0,35,0,0
97720,-111.111111111111,4,2,0,40,0,0
97806,-111.111111111111,4,2,0,45,0,0
97892,-111.111111111111,4,2,0,50,0,0
97979,-111.111111111111,4,2,0,55,0,0
99389,344.827586206897,4,2,0,68,1,0
99389,-66.6666666666667,4,2,0,65,0,1
121457,-166.666666666667,4,2,0,68,0,0
124546,-370.37037037037,4,2,0,55,0,0
124891,-370.37037037037,4,2,0,50,0,0
125236,-370.37037037037,4,2,0,45,0,0
125580,-370.37037037037,4,2,0,40,0,0
125925,-370.37037037037,4,2,0,35,0,0
126270,-370.37037037037,4,2,0,30,0,0
126615,-370.37037037037,4,2,0,25,0,0
126960,-370.37037037037,4,2,0,20,0,0
127305,-370.37037037037,4,2,0,15,0,0
128339,-370.37037037037,4,2,0,10,0,0
129632,-370.37037037037,4,2,0,5,0,0

[Colours]
Combo1 : 255,21,21
Combo2 : 251,82,0
Combo3 : 255,255,45

[HitObjects]
53,50,5565,6,0,P|104:127|183:130,1,167.999994873047
334,76,6082,1,0,0:0:0:0:
334,76,6254,2,0,L|334:172,1,83.9999974365235
306,327,6599,2,0,P|269:304|240:258,1,83.9999974365235
173,133,6944,1,0,0:0:0:0:
156,259,7116,1,0,0:0:0:0:
173,133,7289,6,0,L|267:133,1,83.9999974365235
473,216,7634,2,0,P|434:221|384:215,1,83.9999974365235
291,91,7979,2,0,P|285:129|291:179,1,83.9999974365235
379,62,8323,2,0,P|311:9|234:20,1,167.999994873047
92,53,8841,5,0,0:0:0:0:
78,202,9013,1,0,0:0:0:0:
210,93,9185,1,0,0:0:0:0:
15,127,9358,1,0,0:0:0:0:
132,124,9530,1,0,0:0:0:0:
0,246,9703,1,0,0:0:0:0:
37,109,9875,1,0,0:0:0:0:
0,246,10048,6,0,P|29:281|64:297,1,83.9999974365235
229,228,10392,2,0,P|182:229|140:246,1,83.9999974365235
223,326,10737,1,0,0:0:0:0:
289,174,10910,1,0,0:0:0:0:
223,326,11082,2,0,B|303:369|384:327,1,167.999994873047
492,216,11599,1,0,0:0:0:0:
492,216,11772,2,0,P|501:272|488:317,1,83.9999974365235
395,195,12116,2,0,P|415:142|448:109,2,83.9999974365235
371,333,12634,5,0,0:0:0:0:
308,190,12806,1,0,0:0:0:0:
223,326,12979,1,0,0:0:0:0:
89,196,13151,2,0,L|170:230,1,83.9999974365235
132,124,13496,2,0,L|43:86,1,83.9999974365235
211,154,13841,6,0,P|270:96|273:13,1,167.999994873047
190,61,14358,1,0,0:0:0:0:
359,113,14530,2,0,P|398:98|428:70,1,83.9999974365235
452,164,14875,2,0,L|479:251,2,83.9999974365235
359,199,15392,5,0,0:0:0:0:
422,74,15565,1,0,0:0:0:0:
476,244,15737,1,0,0:0:0:0:
260,168,15910,2,0,P|259:213|276:259,1,83.9999974365235
307,338,16254,2,0,L|218:326,1,62.9999980773926
17,253,16599,6,0,B|193:270,1,167.999994873047
303,201,17116,1,0,0:0:0:0:
255,126,17289,2,0,P|221:161|211:210,1,83.9999974365235
271,280,17634,1,0,0:0:0:0:
315,355,17806,2,0,P|345:326|361:287,1,83.9999974365235
341,129,18151,5,0,0:0:0:0:
185,271,18323,1,0,0:0:0:0:
360,287,18496,1,0,0:0:0:0:
255,126,18668,1,0,0:0:0:0:
271,280,18841,1,0,0:0:0:0:
202,60,19013,2,0,P|169:107|168:142,1,83.9999974365235
302,200,19358,2,0,P|379:203|425:134,1,167.999994873047
307,54,19875,5,0,0:0:0:0:
166,132,20048,2,0,P|122:89|108:49,1,83.9999974365235
202,60,20392,1,0,0:0:0:0:
127,206,20565,2,0,P|163:224|205:231,1,83.9999974365235
389,213,20910,5,0,0:0:0:0:
253,164,21082,1,0,0:0:0:0:
425,133,21254,1,0,0:0:0:0:
230,247,21427,2,0,P|226:297|249:346,1,83.9999974365235
350,260,21772,2,0,P|354:210|331:161,1,83.9999974365235
128,73,22116,6,0,P|174:141|253:164,1,167.999994873047
286,18,22634,2,0,L|215:72,2,83.9999974365235
322,100,23151,2,0,P|406:88|463:30,1,167.999994873047
363,19,23668,5,0,0:0:0:0:
455,180,23841,1,0,0:0:0:0:
462,30,24013,1,0,0:0:0:0:
386,233,24185,2,0,P|418:259|467:269,1,83.9999974365235
385,338,24530,2,0,L|302:354,1,83.9999974365235
276,257,24875,6,0,P|289:174|353:119,1,167.999994873047
442,104,25392,2,0,L|459:208,2,83.9999974365235
280,20,25910,2,0,B|211:5|154:32|97:18,1,167.999994873047
30,57,26427,5,0,0:0:0:0:
158,98,26599,1,0,0:0:0:0:
22,168,26772,1,0,0:0:0:0:
112,21,26944,1,0,0:0:0:0:
194,183,27116,1,0,0:0:0:0:
47,74,27289,1,0,0:0:0:0:
237,114,27461,1,0,0:0:0:0:
61,240,27639,5,0,0:0:0:0:
74,257,27811,2,0,P|114:266|154:259,1,77.0000023498536
275,154,28156,1,0,0:0:0:0:
223,77,28328,2,0,P|195:121|195:190,1,115.50000352478
216,208,28673,1,0,0:0:0:0:
312,79,28846,2,0,L|387:129,1,77.0000023498536
357,196,29190,1,0,0:0:0:0:
305,61,29363,2,0,L|337:4,1,62.9999980773926
405,29,29708,6,0,P|444:57|466:97,1,77.0000023498536
357,196,30053,2,0,P|361:148|385:109,1,77.0000023498536
459,193,30397,1,0,0:0:0:0:
462,221,30570,2,0,P|434:260|361:297,1,115.50000352478
347,285,30915,1,0,0:0:0:0:
275,154,31087,2,0,L|269:247,1,77.0000023498536
212,340,31432,5,0,0:0:0:0:
193,182,31604,1,0,0:0:0:0:
347,285,31777,1,0,0:0:0:0:
176,265,31949,1,0,0:0:0:0:
357,196,32121,1,0,0:0:0:0:
270,230,32294,1,0,0:0:0:0:
388,94,32466,6,0,P|339:78|279:81,1,77.0000023498536
261,125,32811,2,0,P|299:120|335:107,1,77.0000023498536
196,51,33156,1,0,0:0:0:0:
178,71,33328,2,0,P|168:126|188:203,1,115.50000352478
203,199,33673,1,0,0:0:0:0:
309,142,33846,2,0,L|326:230,1,77.0000023498536
329,363,34190,5,0,0:0:0:0:
203,199,34363,1,0,0:0:0:0:
211,297,34535,2,0,P|163:285|126:257,1,77.0000023498536
79,347,34880,2,0,P|116:339|149:320,1,77.0000023498536
45,186,35225,2,0,L|45:281,1,77.0000023498536
138,185,35570,2,0,P|115:117|61:81,1,115.50000352478
51,95,35915,5,0,0:0:0:0:
210,95,36087,2,0,P|258:79|292:51,1,77.0000023498536
191,9,36432,1,0,0:0:0:0:
309,142,36604,2,0,P|371:170|438:178,1,115.50000352478
447,158,36949,1,0,0:0:0:0:
485,304,37121,5,0,0:0:0:0:
405,273,37294,1,0,0:0:0:0:
330,289,37466,1,0,0:0:0:0:
269,323,37639,1,0,0:0:0:0:
211,344,37811,1,0,0:0:0:0:
157,337,37984,1,0,0:0:0:0:
119,309,38156,1,0,0:0:0:0:
105,272,38328,1,0,0:0:0:0:
109,241,38501,1,0,0:0:0:0:
209,176,38673,6,0,P|206:241|190:282,2,77.0000023498536
110,135,39190,1,0,0:0:0:0:
266,106,39363,2,0,P|318:102|358:109,1,77.0000023498536
447,158,39708,1,0,0:0:0:0:
318,264,39880,2,0,P|305:203|310:177,2,77.0000023498536
405,273,40397,2,0,L|434:358,1,77.0000023498536
512,194,40742,6,0,P|513:142|505:103,1,77.0000023498536
342,105,41087,2,0,P|386:131|424:144,1,77.0000023498536
408,31,41432,1,0,0:0:0:0:
388,15,41604,2,0,P|349:12|270:45,1,115.50000352478
266,69,41949,1,0,0:0:0:0:
209,253,42121,2,0,L|209:175,1,77.0000023498536
70,136,42466,1,0,0:0:0:0:
49,212,42639,2,0,P|93:221|142:210,1,77.0000023498536
238,158,42984,5,0,0:0:0:0:
70,136,43156,1,0,0:0:0:0:
266,69,43328,1,0,0:0:0:0:
209,253,43501,1,0,0:0:0:0:
133,69,43673,1,0,0:0:0:0:
49,212,43846,1,0,0:0:0:0:
53,56,44018,1,0,0:0:0:0:
11,263,44190,6,0,P|75:250|141:195,1,125.999996154785
130,185,44535,1,0,0:0:0:0:
214,337,44708,1,0,0:0:0:0:
88,332,44880,1,0,0:0:0:0:
285,282,45053,2,0,P|238:257|195:253,1,83.9999974365235
295,360,45397,5,0,0:0:0:0:
485,321,45570,1,0,0:0:0:0:
315,268,45742,1,0,0:0:0:0:
468,152,45915,2,0,P|488:198|483:256,1,83.9999974365235
383,217,46259,2,0,L|284:159,1,83.9999974365235
123,63,46604,2,0,P|113:136|146:209,1,125.999996154785
159,195,46949,5,0,0:0:0:0:
374,63,47121,2,0,P|312:60|276:73,1,83.9999974365235
199,123,47466,1,0,0:0:0:0:
324,146,47639,1,0,0:0:0:0:
192,23,47811,1,0,0:0:0:0:
0,138,47984,2,0,P|65:144|93:137,1,83.9999974365235
291,65,48328,5,0,0:0:0:0:
159,195,48501,1,0,0:0:0:0:
192,23,48673,1,0,0:0:0:0:
242,222,48846,1,0,0:0:0:0:
123,63,49018,1,0,0:0:0:0:
324,146,49191,1,0,0:0:0:0:
82,140,49363,1,0,0:0:0:0:
291,65,49536,1,0,0:0:0:0:
79,222,49708,6,0,P|67:278|77:326,1,83.9999974365235
227,139,50052,1,0,0:0:0:0:
168,278,50225,2,0,P|170:335|192:378,1,83.9999974365235
315,194,50570,1,0,0:0:0:0:
277,368,50742,2,0,P|325:378|389:355,1,83.9999974365235
488,231,51087,6,0,P|442:187|405:169,1,83.9999974365235
291,65,51432,2,0,P|282:132|294:168,1,83.9999974365235
394,261,51777,1,0,0:0:0:0:
394,42,51949,1,0,0:0:0:0:
488,231,52122,1,0,0:0:0:0:
488,8,52293,1,0,0:0:0:0:
463,312,52466,5,0,0:0:0:0:
439,334,52552,1,0,0:0:0:0:
410,350,52638,1,0,0:0:0:0:
379,359,52724,1,0,0:0:0:0:
346,361,52810,1,0,0:0:0:0:
314,355,52897,1,0,0:0:0:0:
285,341,52983,1,0,0:0:0:0:
259,321,53069,1,0,0:0:0:0:
239,295,53156,1,0,0:0:0:0:
213,274,53242,1,0,0:0:0:0:
183,261,53328,1,0,0:0:0:0:
151,254,53415,1,0,0:0:0:0:
119,256,53501,1,0,0:0:0:0:
87,265,53587,1,0,0:0:0:0:
59,281,53673,1,0,0:0:0:0:
36,304,53759,1,0,0:0:0:0:
24,334,53846,5,0,0:0:0:0:
82,140,54018,1,0,0:0:0:0:
142,338,54190,1,0,0:0:0:0:
227,139,54363,1,0,0:0:0:0:
15,210,54535,1,0,0:0:0:0:
239,295,54708,5,0,0:0:0:0:
269,307,54794,1,0,0:0:0:0:
301,313,54880,1,0,0:0:0:0:
335,311,54966,1,0,0:0:0:0:
368,301,55052,1,0,0:0:0:0:
396,285,55139,1,0,0:0:0:0:
421,261,55225,6,0,P|439:208|400:101,1,157.500006008148
384,93,55570,1,0,0:0:0:0:
303,216,55742,1,0,0:0:0:0:
227,34,55915,2,0,L|227:149,1,105.000004005432
27,112,56259,2,0,P|96:100|147:108,1,105.000004005432
311,134,56604,5,0,0:0:0:0:
84,185,56777,1,0,0:0:0:0:
303,216,56949,1,0,0:0:0:0:
130,103,57122,1,0,0:0:0:0:
239,295,57294,1,0,0:0:0:0:
227,34,57467,1,0,0:0:0:0:
119,256,57639,1,0,0:0:0:0:
273,380,57811,6,0,P|320:342|332:294,1,105.000004005432
311,134,58156,1,0,0:0:0:0:
310,159,58328,2,0,P|357:205|428:220,1,105.000004005432
512,147,58673,1,0,0:0:0:0:
331,300,58846,1,0,0:0:0:0:
407,25,59018,2,0,P|413:94|398:141,1,105.000004005432
237,296,59363,5,0,0:0:0:0:
392,218,59535,1,0,0:0:0:0:
119,256,59708,2,0,P|112:325|128:379,1,105.000004005432
216,219,60053,1,0,0:0:0:0:
18,288,60225,1,0,0:0:0:0:
237,296,60397,1,0,0:0:0:0:
84,185,60570,1,0,0:0:0:0:
304,191,60742,6,0,P|334:252|325:313,1,105.000004005432
180,123,61087,2,0,P|201:58|251:21,1,105.000004005432
216,219,61432,2,0,P|154:254|107:256,1,105.000004005432
18,78,61777,2,0,B|29:158|3:219|21:304,1,210.000008010865
119,359,62294,1,0,0:0:0:0:
180,123,62466,1,0,0:0:0:0:
17,287,62639,1,0,0:0:0:0:
237,296,62811,6,0,P|288:305|338:290,1,105.000004005432
348,265,63070,1,0,0:0:0:0:
334,240,63156,2,0,P|304:295|308:361,1,105.000004005432
455,223,63501,2,0,L|367:144,1,105.000004005432
316,44,63846,2,0,P|387:33|467:107,1,157.500006008148
460,108,64190,1,0,0:0:0:0:
291,130,64363,1,0,0:0:0:0:
384,50,64535,2,0,P|390:108|362:174,1,105.000004005432
237,296,64880,5,0,0:0:0:0:
226,33,65053,1,0,0:0:0:0:
422,300,65225,1,0,0:0:0:0:
180,123,65398,1,0,0:0:0:0:
454,80,65570,1,0,0:0:0:0:
48,96,65742,1,0,0:0:0:0:
48,132,65828,1,0,0:0:0:0:
48,169,65914,1,0,0:0:0:0:
48,206,66000,1,0,0:0:0:0:
48,243,66086,1,0,0:0:0:0:
48,279,66173,1,0,0:0:0:0:
48,315,66259,6,0,P|120:352|186:315,1,157.500006008148
181,287,66604,1,0,0:0:0:0:
275,363,66777,1,0,0:0:0:0:
261,112,66949,2,0,P|250:170|275:241,1,105.000004005432
385,152,67294,2,0,P|394:100|383:49,1,105.000004005432
226,33,67639,5,0,0:0:0:0:
334,240,67812,1,0,0:0:0:0:
383,49,67984,1,0,0:0:0:0:
259,214,68157,1,0,0:0:0:0:
460,108,68329,1,0,0:0:0:0:
180,123,68501,1,0,0:0:0:0:
422,300,68673,1,0,0:0:0:0:
393,323,68759,1,0,0:0:0:0:
360,339,68845,1,0,0:0:0:0:
324,347,68931,1,0,0:0:0:0:
288,347,69018,6,0,P|225:335|194:297,1,105.000004005432
48,132,69363,2,0,P|41:204|49:255,1,105.000004005432
139,194,69708,1,0,0:0:0:0:
29,44,69880,1,0,0:0:0:0:
226,33,70053,2,0,P|292:40|371:93,1,157.500006008148
370,118,70397,5,0,0:0:0:0:
468,25,70570,1,0,0:0:0:0:
460,189,70742,1,0,0:0:0:0:
336,18,70915,2,0,P|290:70|266:136,1,105.000004005432
259,214,71259,1,0,0:0:0:0:
460,108,71432,1,0,0:0:0:0:
274,101,71604,1,0,0:0:0:0:
460,189,71777,5,0,0:0:0:0:
226,33,71949,1,0,0:0:0:0:
422,300,72121,1,0,0:0:0:0:
336,18,72294,1,0,0:0:0:0:
288,347,72466,1,0,0:0:0:0:
468,25,72639,1,0,0:0:0:0:
139,194,72811,1,0,0:0:0:0:
422,300,72984,2,0,P|437:244|432:192,1,105.000004005432
274,101,73328,5,0,0:0:0:0:
218,248,73501,2,0,P|273:259|324:248,1,105.000004005432
139,194,73846,2,0,P|123:260|151:332,1,105.000004005432
311,351,74190,2,0,P|327:285|299:213,1,105.000004005432
180,123,74535,5,0,0:0:0:0:
218,248,74708,1,0,0:0:0:0:
254,68,74880,2,0,P|204:41|151:36,1,105.000004005432
271,179,75225,1,0,0:0:0:0:
358,99,75397,1,0,0:0:0:0:
180,123,75570,2,0,P|175:199|193:246,1,105.000004005432
311,351,75915,5,0,0:0:0:0:
271,179,76087,1,0,0:0:0:0:
422,300,76259,1,0,0:0:0:0:
218,248,76432,1,0,0:0:0:0:
436,188,76604,5,0,0:0:0:0:
390,196,76690,1,0,0:0:0:0:
351,221,76776,1,0,0:0:0:0:
326,260,76862,1,0,0:0:0:0:
300,298,76949,1,0,0:0:0:0:
261,324,77035,1,0,0:0:0:0:
216,332,77121,1,0,0:0:0:0:
170,321,77208,1,0,0:0:0:0:
130,295,77294,6,0,P|97:241|110:148,1,157.500006008148
133,132,77639,1,0,0:0:0:0:
204,235,77811,1,0,0:0:0:0:
156,35,77984,1,0,0:0:0:0:
130,295,78156,1,0,0:0:0:0:
282,102,78328,2,0,P|218:98|125:136,1,157.500006008148
124,161,78673,5,0,0:0:0:0:
271,179,78846,1,0,0:0:0:0:
155,34,79018,2,0,L|51:47,1,105.000004005432
5,215,79363,1,0,0:0:0:0:
124,161,79535,1,0,0:0:0:0:
50,47,79708,2,0,L|49:157,1,105.000004005432
44,329,80053,5,0,0:0:0:0:
204,139,80225,1,0,0:0:0:0:
5,215,80397,1,0,0:0:0:0:
216,332,80570,2,0,P|279:354|328:348,1,105.000004005432
384,128,80915,2,0,P|313:168|269:244,1,157.500006008148
281,257,81259,5,0,0:0:0:0:
512,187,81432,1,0,0:0:0:0:
327,25,81604,1,0,0:0:0:0:
384,229,81777,1,0,0:0:0:0:
468,25,81949,1,0,0:0:0:0:
258,158,82121,2,0,P|261:224|302:276,1,105.000004005432
384,128,82466,1,0,0:0:0:0:
362,98,82552,1,0,0:0:0:0:
332,76,82638,1,0,0:0:0:0:
298,64,82724,1,0,0:0:0:0:
261,62,82821,6,0,P|198:89|155:153,1,105.000004005432
193,309,83166,2,0,P|256:282|299:218,1,105.000004005432
47,226,83511,2,0,P|36:294|53:350,1,105.000004005432
265,164,83856,2,0,P|272:112|261:61,1,105.000004005432
32,145,84210,2,0,L|98:250,1,105.000004005432
207,324,84555,5,0,0:0:0:0:
130,138,84728,1,0,0:0:0:0:
279,18,84900,5,0,0:0:0:0:
195,223,85073,1,0,0:0:0:0:
351,335,85245,5,0,0:0:0:0:
259,112,85416,1,0,0:0:0:0:
490,197,85590,5,0,0:0:0:0:
264,264,85761,1,0,0:0:0:0:
356,36,85935,5,0,0:0:0:0:
466,304,86106,1,0,0:0:0:0:
392,104,86279,5,0,0:0:0:0:
246,384,86452,1,0,0:0:0:0:
230,32,86624,5,0,0:0:0:0:
327,366,86797,1,0,0:0:0:0:
207,164,86969,6,0,B|325:120|315:207|469:152|469:152|418:199|453:271,1,377.999988464356
508,367,88348,1,0,0:0:0:0:
95,234,97289,5,0,0:0:0:0:
124,245,97375,1,0,0:0:0:0:
155,246,97461,1,0,0:0:0:0:
185,237,97547,1,0,0:0:0:0:
211,219,97634,1,0,0:0:0:0:
234,198,97720,1,0,0:0:0:0:
259,180,97806,1,0,0:0:0:0:
289,171,97892,1,0,0:0:0:0:
320,172,97978,1,0,0:0:0:0:
451,168,99389,6,0,P|412:225|320:253,1,157.500006008148
305,233,99733,1,0,0:0:0:0:
381,68,99906,1,0,0:0:0:0:
200,22,100078,2,0,L|200:149,1,105.000004005432
30,155,100423,2,0,P|65:107|116:88,1,105.000004005432
292,82,100768,5,0,0:0:0:0:
119,7,100940,1,0,0:0:0:0:
211,219,101113,1,0,0:0:0:0:
200,22,101285,1,0,0:0:0:0:
95,234,101457,1,0,0:0:0:0:
350,153,101630,1,0,0:0:0:0:
30,155,101802,1,0,0:0:0:0:
165,296,101975,6,0,P|218:306|280:285,1,105.000004005432
350,153,102320,1,0,0:0:0:0:
497,301,102492,2,0,L|497:180,1,105.000004005432
416,25,102837,1,0,0:0:0:0:
416,250,103009,1,0,0:0:0:0:
292,82,103182,2,0,P|260:124|257:229,1,157.500006008148
282,240,103526,5,0,0:0:0:0:
139,83,103699,1,0,0:0:0:0:
350,153,103871,1,0,0:0:0:0:
30,257,104044,2,0,P|21:190|32:148,1,105.000004005432
119,7,104389,1,0,0:0:0:0:
121,186,104561,1,0,0:0:0:0:
292,82,104734,1,0,0:0:0:0:
29,154,104906,5,0,0:0:0:0:
282,240,105078,1,0,0:0:0:0:
197,22,105251,1,0,0:0:0:0:
87,313,105423,1,0,0:0:0:0:
350,153,105595,1,0,0:0:0:0:
30,257,105768,1,0,0:0:0:0:
420,333,105940,1,0,0:0:0:0:
139,83,106113,2,0,L|119:202,1,105.000004005432
144,369,106457,1,0,0:0:0:0:
302,210,106630,6,0,P|259:174|196:162,1,105.000004005432
277,330,106975,2,0,P|327:315|366:281,1,105.000004005432
400,68,107320,2,0,L|459:189,1,105.000004005432
497,301,107664,1,0,0:0:0:0:
500,75,107837,1,0,0:0:0:0:
366,281,108009,1,0,0:0:0:0:
302,22,108182,2,0,L|175:22,1,105.000004005432
29,154,108526,1,0,0:0:0:0:
171,284,108699,2,0,P|252:261|305:204,1,157.500006008148
296,175,109044,5,0,0:0:0:0:
423,353,109217,1,0,0:0:0:0:
400,68,109389,1,0,0:0:0:0:
171,284,109562,1,0,0:0:0:0:
446,162,109733,1,0,0:0:0:0:
197,22,109907,1,0,0:0:0:0:
162,34,109993,1,0,0:0:0:0:
132,55,110079,1,0,0:0:0:0:
109,83,110165,1,0,0:0:0:0:
94,117,110251,1,0,0:0:0:0:
89,153,110338,1,0,0:0:0:0:
94,189,110423,6,0,P|155:202|239:150,1,157.500006008148
233,121,110768,1,0,0:0:0:0:
68,270,110940,2,0,P|122:286|181:281,1,105.000004005432
299,35,111285,2,0,P|245:19|186:24,1,105.000004005432
89,153,111630,1,0,0:0:0:0:
302,237,111802,1,0,0:0:0:0:
196,21,111975,1,0,0:0:0:0:
68,270,112147,1,0,0:0:0:0:
371,144,112320,1,0,0:0:0:0:
12,103,112492,6,0,P|5:169|25:232,1,105.000004005432
302,237,112837,2,0,P|260:185|201:154,1,105.000004005432
68,270,113182,5,0,0:0:0:0:
366,281,113354,1,0,0:0:0:0:
151,99,113526,1,0,0:0:0:0:
277,330,113699,1,0,0:0:0:0:
382,42,113871,2,0,P|325:91|316:182,1,157.500006008148
334,194,114216,1,0,0:0:0:0:
454,6,114389,1,0,0:0:0:0:
499,245,114561,6,0,P|478:328|398:370,1,157.500006008148
387,351,114906,1,0,0:0:0:0:
407,134,115078,1,0,0:0:0:0:
200,233,115251,2,0,P|261:246|321:226,1,105.000004005432
124,184,115595,2,0,P|82:230|69:292,1,105.000004005432
310,111,115940,5,0,0:0:0:0:
219,267,116113,1,0,0:0:0:0:
163,129,116285,5,0,0:0:0:0:
365,248,116458,1,0,0:0:0:0:
267,40,116630,5,0,0:0:0:0:
266,335,116803,1,0,0:0:0:0:
355,35,116975,5,0,0:0:0:0:
177,341,117148,1,0,0:0:0:0:
113,85,117320,5,0,0:0:0:0:
364,334,117493,1,0,0:0:0:0:
183,29,117664,5,0,0:0:0:0:
91,370,117837,1,0,0:0:0:0:
12,91,118009,5,0,0:0:0:0:
261,341,118182,1,0,0:0:0:0:
370,26,118354,5,0,0:0:0:0:
33,219,118527,1,0,0:0:0:0:
466,221,118699,5,0,0:0:0:0:
129,28,118872,1,0,0:0:0:0:
193,221,119044,5,0,0:0:0:0:
290,5,119216,1,0,0:0:0:0:
355,308,119389,1,0,0:0:0:0:
150,69,119561,1,0,0:0:0:0:
20,337,119733,1,0,0:0:0:0:
390,91,119906,1,0,0:0:0:0:
30,37,120078,2,0,P|26:103|71:166,1,105.000004005432
277,258,120423,2,0,P|281:192|236:129,1,105.000004005432
144,256,120768,5,0,0:0:0:0:
160,305,120854,1,0,0:0:0:0:
194,345,120940,1,0,0:0:0:0:
241,368,121026,1,0,0:0:0:0:
293,371,121112,1,0,0:0:0:0:
342,354,121199,1,0,0:0:0:0:
381,319,121285,1,0,0:0:0:0:
404,272,121371,1,0,0:0:0:0:
402,219,121457,6,0,B|337:156|411:51|411:51|250:176|237:62|130:127|130:127|54:122|42:67|42:67|83:45|121:79,1,671.999979492188
256,192,124389,12,0,129647,0:0:0:0:
