osu file format v14

[General]
AudioFilename: audio.mp3
AudioLeadIn: 0
PreviewTime: 41048
Countdown: 0
SampleSet: Soft
StackLeniency: 0.7
Mode: 0
LetterboxInBreaks: 0
WidescreenStoryboard: 1

[Editor]
Bookmarks: 4574,13630,35564,58913
DistanceSpacing: 1.1
BeatDivisor: 2
GridSize: 16
TimelineZoom: 1.9

[Metadata]
Title:PAiNT it BLACK (TV Size)
TitleUnicode:PAiNT it BLACK (TV Size)
Artist:BiSH
ArtistUnicode:BiSH
Creator:GodKei
Version:gary00737's Normal
Source:ブラッククローバー
Tags:KwAIMSuckASFuk pata-mon Necho gary00737 black clover anime japanese op opening 2 AYUNi D アユニ・D LiNGLiNG リンリン AiNA THE END アイナ・ジ・エンド momoko gumi company モモコグミカンパニー cent chihiro chicchi セントチヒロ チッチ hashiyasume atsuko ハシヤスメ アツコ
BeatmapID:2062362
BeatmapSetID:936345

[Difficulty]
HPDrainRate:4
CircleSize:2.7
OverallDifficulty:4
ApproachRate:6
SliderMultiplier:0.9
SliderTickRate:1

[Events]
//Background and Video events
Video,-350,"optc.flv"
0,0,"gay00737.jpg",0,0
//Break Periods
//Storyboard Layer 0 (Background)
//Storyboard Layer 1 (Fail)
//Storyboard Layer 2 (Pass)
//Storyboard Layer 3 (Foreground)
//Storyboard Layer 4 (Overlay)
//Storyboard Sound Samples

[TimingPoints]
294,283.018867924528,4,2,22,65,1,0
12746,-100,4,2,22,70,0,0
13312,-100,4,2,22,80,0,0
13878,-100,4,2,22,50,0,0
22935,-100,4,2,22,60,0,0
31426,-100,4,2,22,65,0,0
38784,-100,4,2,22,65,0,0
39916,-100,4,2,22,75,0,0
40482,-100,4,2,22,65,0,0
41048,-100,4,2,22,80,0,1
59091,-100,4,2,22,65,0,1
59161,-100,4,2,22,80,0,1
77275,-100,4,2,22,65,0,0
87463,-100,4,2,22,70,0,0
88029,-100,4,2,22,80,0,0

[Colours]
Combo1 : 255,0,0
Combo2 : 192,192,192
SliderBorder : 255,215,0

[HitObjects]
396,132,4822,6,0,B|297:113|327:181|224:161,1,180,4|4,3:1|3:0,0:0:0:0:
140,108,5671,1,0,1:0:0:0:
78,30,5954,2,0,L|100:225,1,180,4|4,3:0|3:0,0:0:0:0:
113,306,6803,1,0,1:0:0:0:
209,321,7086,6,0,B|257:301|257:301|402:319,1,180,4|0,3:1|0:0,0:0:0:0:
481,334,7935,1,0,1:0:0:0:
448,242,8218,2,0,P|447:181|452:123,1,90,4|0,3:0|1:0,0:0:0:0:
479,58,8784,2,0,P|418:59|360:54,1,90,4|0,3:0|1:0,0:0:0:0:
320,128,9350,6,0,P|241:186|153:154,1,180,4|4,3:1|3:0,0:0:0:0:
125,74,10199,1,0,1:0:0:0:
228,85,10482,2,0,L|206:280,1,180,4|4,3:0|3:0,0:0:0:0:
197,362,11331,1,0,1:0:0:0:
116,302,11614,6,0,P|71:305|17:313,2,90,4|0|4,1:1|1:0|3:0,0:0:0:0:
207,263,12463,1,0,1:0:0:0:
287,321,12746,2,0,P|331:314|376:311,1,90,0|0,1:3|1:3,0:0:0:0:
474,322,13312,2,0,P|467:277|464:232,1,90,2|2,1:3|1:3,0:0:0:0:
475,135,13878,6,0,P|392:147|309:152,1,135,4|4,3:1|3:3,0:0:0:0:
219,65,14727,2,0,P|143:22|54:49,1,180,2|2,3:0|3:0,0:0:0:0:
25,139,15577,2,0,P|19:183|15:228,1,90,4|2,3:0|3:0,0:0:0:0:
28,326,16143,6,0,P|96:358|163:342,1,135,4|4,3:1|3:3,0:0:0:0:
261,246,16992,2,0,B|294:189|358:187|358:187|415:240,1,180,2|2,3:0|3:0,0:0:0:0:
489,275,17841,2,0,P|492:230|498:185,1,90,4|2,3:0|3:0,0:0:0:0:
512,87,18407,5,4,3:1:0:0:
422,43,18690,1,2,3:0:0:0:
352,114,18972,1,4,3:0:0:0:
352,114,19114,2,0,P|293:106|228:95,1,90,2|4,3:0|3:3,0:0:0:0:
116,76,19822,1,2,3:0:0:0:
47,148,20105,2,0,P|52:192|56:237,1,90,4|2,3:0|3:0,0:0:0:0:
47,336,20671,6,0,P|107:318|181:308,1,135,4|4,3:1|3:0,0:0:0:0:
288,207,21520,2,0,P|348:225|422:235,1,135,2|2,3:0|3:3,0:0:0:0:
427,86,22369,2,0,P|383:72|339:65,1,90,4|2,3:0|3:0,0:0:0:0:
250,113,22935,6,0,P|202:132|152:132,1,90,4|2,3:1|1:3,0:0:0:0:
114,136,23360,2,0,P|133:184|133:234,1,90,4|4,3:0|3:0,0:0:0:0:
109,264,23784,2,0,B|169:236|169:236|306:251,1,180,2|2,1:3|1:3,0:0:0:0:
357,311,24633,1,4,3:0:0:0:
439,259,24916,1,2,1:3:0:0:
414,164,25199,6,0,L|423:70,1,90,4|2,3:1|1:3,0:0:0:0:
433,26,25624,2,0,L|339:35,1,90,4|4,3:0|3:0,0:0:0:0:
312,73,26048,2,0,P|241:134|149:109,1,180,2|2,1:3|1:3,0:0:0:0:
84,57,26897,1,4,3:0:0:0:
71,155,27180,1,2,1:3:0:0:
88,251,27463,6,0,L|-1:243,2,90,4|2|2,3:1|1:3|1:3,0:0:0:0:
117,291,28171,2,0,P|163:273|237:273,1,90,4|4,3:0|3:0,0:0:0:0:
240,236,28595,2,0,P|286:254|360:254,1,90,2|2,1:3|1:3,0:0:0:0:
418,223,29161,1,4,3:0:0:0:
437,125,29444,1,2,1:3:0:0:
458,27,29727,6,0,P|390:67|309:52,1,135,4|4,3:1|3:0,0:0:0:0:
206,137,30577,2,0,P|150:100|84:99,1,135,2|2,1:3|1:3,0:0:0:0:
58,246,31426,2,0,P|100:274|150:274,1,90,2|2,1:3|1:3,0:0:0:0:
230,240,31992,6,0,B|271:222|271:222|342:240,1,90,4|0,3:1|1:0,0:0:0:0:
360,250,32416,2,0,L|368:160,1,90,4|4,3:0|3:0,0:0:0:0:
375,111,32841,1,0,1:0:0:0:
303,42,33124,2,0,L|213:34,1,90,4|0,3:0|1:0,0:0:0:0:
177,68,33548,2,0,L|87:60,1,90,4|2,3:3|1:3,0:0:0:0:
38,53,33973,1,2,1:3:0:0:
11,148,34256,6,0,L|19:238,1,90,4|0,3:1|1:0,0:0:0:0:
19,286,34680,2,0,P|66:270|126:271,1,90,4|4,3:0|3:0,0:0:0:0:
152,285,35105,1,0,1:0:0:0:
234,340,35388,6,0,P|281:356|341:355,1,90,4|0,3:0|1:0,0:0:0:0:
363,333,35812,2,0,P|379:286|378:226,1,90,4|2,3:0|1:3,0:0:0:0:
356,202,36237,1,2,1:3:0:0:
262,168,36520,6,0,L|172:176,2,90,4|0|4,3:1|1:0|3:0,0:0:0:0:
284,124,37227,2,0,P|329:102|403:106,1,90,0|4,1:3|3:0,0:0:0:0:
464,124,37794,1,0,1:0:0:0:
492,164,37935,2,0,L|480:283,1,90,0|4,1:0|3:0,0:0:0:0:
405,315,38501,1,0,1:0:0:0:
310,344,38784,6,0,B|258:320|258:320|134:339,1,180,4|4,3:1|3:0,0:0:0:0:
39,358,39633,1,4,3:0:0:0:
48,259,39916,2,0,L|240:229,1,180,6|4,3:0|1:3,0:0:0:0:
415,289,41048,6,0,P|427:219|438:180,1,90,4|2,1:0|1:3,0:0:0:0:
508,137,41614,1,4,3:0:0:0:
469,45,41897,1,2,1:3:0:0:
392,108,42180,2,0,P|347:98|275:80,1,90,4|2,3:0|1:3,0:0:0:0:
238,14,42746,1,4,3:0:0:0:
149,55,43029,1,2,1:3:0:0:
160,152,43312,6,0,L|171:266,1,90,4|2,1:1|1:3,0:0:0:0:
177,340,43878,1,4,3:0:0:0:
273,362,44161,1,2,1:3:0:0:
323,277,44444,2,0,L|412:268,1,90,4|2,3:0|1:3,0:0:0:0:
421,169,45010,2,0,L|331:177,1,90,4|2,3:0|1:3,0:0:0:0:
240,219,45577,5,4,1:0:0:0:
181,139,45860,2,0,L|189:49,2,90,2|4|2,1:3|3:0|1:3,0:0:0:0:
95,188,46709,2,0,P|67:235|70:287,1,90,4|2,3:0|1:3,0:0:0:0:
135,338,47275,2,0,L|224:346,1,90,4|2,3:0|1:3,0:0:0:0:
322,363,47841,5,4,1:0:0:0:
419,346,48124,2,0,P|461:294|440:180,1,180,2|2,1:3|1:3,0:0:0:0:
307,46,49256,1,2,1:3:0:0:
240,119,49539,2,0,L|150:110,1,90,4|2,3:0|1:3,0:0:0:0:
67,56,50105,5,4,1:0:0:0:
4,132,50388,2,0,L|12:221,1,90,2|4,1:3|3:0,0:0:0:0:
21,320,50954,1,2,1:3:0:0:
112,358,51237,2,0,L|201:350,1,90,4|2,3:0|1:3,0:0:0:0:
234,312,51661,2,0,L|323:320,1,90,4|4,3:0|3:0,0:0:0:0:
372,326,52086,1,2,1:3:0:0:
451,267,52369,6,0,P|441:221|450:169,1,90,4|2,1:0|1:3,0:0:0:0:
485,148,52794,2,0,P|495:102|486:50,1,90,2|4,1:3|3:0,0:0:0:0:
458,20,53218,1,2,1:3:0:0:
371,67,53501,1,4,3:0:0:0:
283,21,53784,1,2,1:3:0:0:
196,68,54067,2,0,L|107:60,1,90,4|2,3:0|1:3,0:0:0:0:
17,104,54633,6,0,L|9:15,2,90,4|2|4,1:0|1:3|3:0,0:0:0:0:
26,202,55482,1,2,1:3:0:0:
114,246,55765,2,0,P|169:221|234:222,1,90,4|2,3:0|1:3,0:0:0:0:
265,145,56331,2,0,P|320:170|385:169,1,90,4|2,3:0|1:3,0:0:0:0:
435,125,56897,5,4,1:1:0:0:
405,320,57463,1,4,3:0:0:0:
210,290,58029,1,4,3:0:0:0:
240,95,58595,1,4,3:3:0:0:
435,125,59161,6,0,P|424:168|418:213,1,90,4|2,1:0|1:3,0:0:0:0:
450,307,59727,1,4,3:3:0:0:
371,367,60010,1,2,1:3:0:0:
289,310,60293,2,0,P|229:302|181:298,1,90,4|2,3:0|1:3,0:0:0:0:
111,344,60859,1,4,3:0:0:0:
38,276,61142,1,2,1:3:0:0:
126,231,61425,6,0,P|120:176|114:142,1,90,4|2,1:0|1:3,0:0:0:0:
63,56,61991,1,4,3:0:0:0:
148,6,62274,1,2,1:3:0:0:
198,91,62558,2,0,P|252:85|287:79,1,90,4|2,3:0|1:3,0:0:0:0:
379,44,63124,2,0,P|384:98|391:133,1,90,4|2,3:0|1:3,0:0:0:0:
456,207,63690,5,4,1:0:0:0:
420,299,63973,2,0,L|510:307,2,90,2|4|2,1:3|3:0|1:3,0:0:0:0:
356,226,64822,2,0,P|316:205|258:215,1,90,4|2,3:0|1:3,0:0:0:0:
192,266,65388,2,0,L|103:258,1,90,4|2,3:0|1:3,0:0:0:0:
3,250,65954,5,4,1:0:0:0:
59,168,66237,2,0,B|50:40|50:40|112:80,1,180,2|2,1:3|1:3,0:0:0:0:
253,184,67369,1,2,1:3:0:0:
328,120,67652,2,0,L|418:111,1,90,4|2,3:0|1:3,0:0:0:0:
495,172,68218,5,4,1:0:0:0:
420,236,68501,2,0,L|330:245,1,90,2|4,1:3|3:0,0:0:0:0:
255,308,69068,1,2,1:3:0:0:
177,247,69350,2,0,L|87:238,1,90,4|2,3:0|1:3,0:0:0:0:
43,215,69775,2,0,P|30:172|42:122,1,90,4|0,3:0|0:0,0:0:0:0:
69,89,70199,1,2,1:3:0:0:
164,63,70482,6,0,P|210:73|262:64,1,90,4|2,1:0|1:3,0:0:0:0:
283,29,70906,2,0,P|329:19|381:28,1,90,2|4,1:3|3:0,0:0:0:0:
411,56,71331,1,2,1:3:0:0:
463,139,71614,1,4,3:0:0:0:
463,237,71897,1,2,1:3:0:0:
411,320,72180,2,0,L|322:312,1,90,4|2,3:0|1:3,0:0:0:0:
261,233,72746,6,0,L|269:144,2,90,4|2|4,1:0|1:3|3:0,0:0:0:0:
223,323,73595,1,2,1:3:0:0:
133,365,73878,2,0,L|44:357,1,90,4|2,3:0|1:3,0:0:0:0:
3,266,74444,2,0,L|11:177,1,90,4|2,3:0|1:3,0:0:0:0:
24,78,75010,5,4,1:0:0:0:
122,91,75293,1,2,1:3:0:0:
220,78,75577,1,4,3:2:0:0:
318,91,75860,1,2,1:3:0:0:
407,48,76143,2,0,P|345:113|348:202,1,180,4|4,3:0|3:0,0:0:0:0:
400,281,76992,1,0,1:0:0:0:
471,349,77275,6,0,B|421:337|421:337|326:351,1,135,4|4,1:0|3:0,0:0:0:0:
293,327,77841,2,0,P|244:290|158:326,1,135,2|4,1:3|3:0,0:0:0:0:
145,344,78407,2,0,L|76:340,1,45,4|2,3:0|1:3,0:0:0:0:
33,268,78831,2,0,L|35:223,1,45,4|2,3:0|1:3,0:0:0:0:
48,124,79256,1,2,0:0:0:0:
130,69,79539,6,0,B|229:50|199:118|302:98,1,180,4|4,1:0|3:0,0:0:0:0:
379,37,80388,1,0,1:0:0:0:
453,101,80671,2,0,L|431:296,1,180,4|4,3:0|3:0,0:0:0:0:
423,378,81520,1,0,1:0:0:0:
341,321,81803,6,0,B|293:341|293:341|148:323,1,180,4|4,3:1|3:0,0:0:0:0:
69,303,82652,1,0,1:0:0:0:
8,224,82935,2,0,P|7:163|12:105,1,90,4|0,3:0|1:0,0:0:0:0:
74,60,83501,2,0,P|118:57|163:59,1,90,4|0,3:0|1:0,0:0:0:0:
238,123,84067,6,0,P|317:181|405:149,1,180,4|4,3:1|3:0,0:0:0:0:
433,69,84916,1,0,1:0:0:0:
330,80,85199,2,0,L|308:275,1,180,4|4,3:0|3:0,0:0:0:0:
297,357,86048,1,0,1:0:0:0:
389,320,86331,6,0,P|434:323|488:331,2,90,4|0|4,3:1|1:0|3:0,0:0:0:0:
309,258,87180,1,0,1:0:0:0:
217,295,87463,2,0,P|173:288|126:279,1,90,0|0,1:3|1:3,0:0:0:0:
66,202,88029,2,0,P|73:158|82:111,1,90,2|2,1:3|1:3,0:0:0:0:
103,68,88454,1,2,1:3:0:0:
