osu file format v14

[General]
AudioFilename: audio.mp3
AudioLeadIn: 0
PreviewTime: 41048
Countdown: 0
SampleSet: Soft
StackLeniency: 0.7
Mode: 0
LetterboxInBreaks: 0
WidescreenStoryboard: 0

[Editor]
DistanceSpacing: 1
BeatDivisor: 4
GridSize: 8
TimelineZoom: 1.9

[Metadata]
Title:PAiNT it BLACK (TV Size)
TitleUnicode:PAiNT it BLACK (TV Size)
Artist:BiSH
ArtistUnicode:BiSH
Creator:GodKei
Version:Kw's Another
Source:ブラッククローバー
Tags:KwAIMSuckASFuk pata-mon Necho gary00737 black clover anime japanese op opening 2 AYUNi D アユニ・D LiNGLiNG リンリン AiNA THE END アイナ・ジ・エンド momoko gumi company モモコグミカンパニー cent chihiro chicchi セントチヒロ チッチ hashiyasume atsuko ハシヤスメ アツコ
BeatmapID:1962522
BeatmapSetID:936345

[Difficulty]
HPDrainRate:5
CircleSize:4
OverallDifficulty:8
ApproachRate:9
SliderMultiplier:1.6
SliderTickRate:1

[Events]
//Background and Video events
0,0,"SZOF2va.jpg",0,0
Video,-350,"optc.flv"
//Break Periods
//Storyboard Layer 0 (Background)
//Storyboard Layer 1 (Fail)
//Storyboard Layer 2 (Pass)
//Storyboard Layer 3 (Foreground)
//Storyboard Layer 4 (Overlay)
//Storyboard Sound Samples

[TimingPoints]
294,283.018867924528,4,2,23,65,1,0
4327,-100,4,2,23,5,0,0
4397,-100,4,2,23,65,0,0
4822,-83.3333333333333,4,2,23,65,0,0
12746,-83.3333333333333,4,2,23,70,0,0
13312,-83.3333333333333,4,2,23,80,0,0
13878,-125,4,2,23,50,0,0
22935,-100,4,2,23,60,0,0
31426,-100,4,2,23,65,0,0
31496,-100,4,2,23,5,0,0
31567,-100,4,2,23,65,0,0
31638,-100,4,2,23,5,0,0
31709,-100,4,2,23,65,0,0
31779,-100,4,2,23,5,0,0
31850,-100,4,2,23,65,0,0
31921,-100,4,2,23,5,0,0
31992,-100,4,2,23,65,0,0
33761,-100,4,2,23,5,0,0
33831,-100,4,2,23,65,0,0
34044,-100,4,2,23,5,0,0
34114,-100,4,2,23,65,0,0
36308,-100,4,2,23,5,0,0
36378,-100,4,2,23,65,0,0
38784,-100,4,2,23,65,0,0
39916,-100,4,2,23,75,0,0
40482,-100,4,2,23,65,0,0
40553,-100,4,2,23,5,0,0
40624,-100,4,2,23,65,0,0
41048,-76.9230769230769,4,2,23,80,0,1
59091,-76.9230769230769,4,2,23,65,0,1
59161,-76.9230769230769,4,2,23,80,0,1
59798,-76.9230769230769,4,2,23,5,0,1
59869,-76.9230769230769,4,2,23,80,0,1
59940,-76.9230769230769,4,2,23,5,0,1
60011,-76.9230769230769,4,2,23,80,0,1
60930,-76.9230769230769,4,2,23,5,0,1
61001,-76.9230769230769,4,2,23,80,0,1
61072,-76.9230769230769,4,2,23,5,0,1
61143,-76.9230769230769,4,2,23,80,0,1
64327,-76.9230769230769,4,2,23,5,0,1
64397,-76.9230769230769,4,2,23,80,0,1
64468,-76.9230769230769,4,2,23,5,0,1
64539,-76.9230769230769,4,2,23,80,0,1
77275,-125,4,2,23,65,0,0
78407,-100,4,2,23,65,0,0
79256,-83.3333333333333,4,2,23,65,0,0
79539,-83.3333333333333,4,2,23,65,0,0
87463,-83.3333333333333,4,2,23,70,0,0
88029,-83.3333333333333,4,2,23,80,0,0

[Colours]
Combo1 : 255,0,0
Combo2 : 255,128,0
Combo3 : 127,127,127

[HitObjects]
256,192,294,12,0,3831,3:0:0:0:
507,189,4114,5,0,3:0:0:0:
507,189,4185,1,0,3:0:0:0:
507,189,4256,1,0,1:0:0:0:
417,280,4397,2,0,B|314:294|348:196|212:227,1,200,2|0,3:1|0:0,0:0:0:0:
200,238,4822,6,0,L|192:131,1,95.9999970703126,4|0,3:2|0:0,0:0:0:0:
72,207,5105,2,0,L|67:314,1,95.9999970703126,0|0,1:2|0:0,0:0:0:0:
17,127,5388,1,0,3:2:0:0:
102,75,5529,2,0,P|164:63|206:65,1,95.9999970703126,0|0,0:0|1:2,0:0:0:0:
335,185,5812,1,0,0:0:0:0:
335,185,5954,6,0,P|314:156|307:83,1,95.9999970703126,0|0,3:2|0:0,0:0:0:0:
500,113,6237,2,0,L|368:123,1,95.9999970703126,0|0,1:2|0:0,0:0:0:0:
407,301,6520,1,0,3:2:0:0:
407,301,6661,2,0,P|420:235|412:191,2,95.9999970703126,0|0|0,0:0|1:2|0:0,0:0:0:0:
152,230,7086,6,0,P|216:259|249:258,1,95.9999970703126,0|0,3:2|0:0,0:0:0:0:
335,185,7369,1,0,1:2:0:0:
257,67,7510,2,0,L|249:179,1,95.9999970703126,0|0,0:0|3:2,0:0:0:0:
278,263,7793,1,0,0:0:0:0:
403,60,7935,2,0,L|413:165,1,95.9999970703126,0|0,1:2|0:0,0:0:0:0:
196,210,8218,5,0,3:2:0:0:
278,263,8360,1,0,0:0:0:0:
167,314,8501,2,0,P|114:329|50:324,1,95.9999970703126,0|0,1:2|0:0,0:0:0:0:
27,215,8784,1,0,3:2:0:0:
27,215,8855,1,2,0:2:0:0:
27,215,8926,2,0,L|31:101,2,95.9999970703126,2|0|0,0:0|1:2|0:0,0:0:0:0:
159,85,9350,6,0,P|92:59|69:38,1,95.9999970703126,0|0,3:2|0:0,0:0:0:0:
268,34,9633,2,0,P|264:87|240:130,1,95.9999970703126,0|0,1:2|0:0,0:0:0:0:
152,195,9916,1,0,3:2:0:0:
221,275,10058,1,0,0:0:0:0:
71,357,10199,2,0,L|76:236,1,95.9999970703126,0|0,1:2|0:0,0:0:0:0:
210,365,10482,5,0,3:2:0:0:
221,275,10624,1,0,0:0:0:0:
335,330,10765,2,0,P|344:282|333:213,1,95.9999970703126,0|0,1:2|0:0,0:0:0:0:
343,134,11048,2,0,L|457:141,1,95.9999970703126,0|0,3:2|0:0,0:0:0:0:
512,16,11331,2,0,L|401:19,1,95.9999970703126,0|0,1:2|0:0,0:0:0:0:
153,116,11614,6,0,P|165:162|188:204,1,95.9999970703126,4|0,3:2|0:0,0:0:0:0:
94,206,11897,1,0,3:2:0:0:
247,123,12039,2,0,L|362:136,1,95.9999970703126,0|0,3:2|3:2,0:0:0:0:
273,220,12322,1,0,3:0:0:0:
153,116,12463,2,0,L|51:127,1,95.9999970703126,0|0,3:2|3:3,0:0:0:0:
257,299,12746,5,0,3:2:0:0:
343,134,12888,1,0,1:2:0:0:
341,303,13029,1,0,1:2:0:0:
256,134,13171,1,0,1:2:0:0:
351,319,13312,2,0,L|462:312,1,95.9999970703126,0|0,1:2|1:2,0:0:0:0:
512,220,13595,2,0,L|408:211,1,95.9999970703126,0|0,1:2|1:2,0:0:0:0:
161,261,13878,6,0,P|116:274|40:210,1,128,6|0,3:2|3:2,0:0:0:0:
121,178,14303,2,0,L|127:88,1,64,2|0,0:0|3:2,0:0:0:0:
219,190,14586,1,0,0:0:0:0:
219,190,14727,2,0,P|239:219|245:263,1,64,2|0,3:2|0:0,0:0:0:0:
155,353,15010,6,0,P|207:335|236:338,1,64,0|0,3:2|0:0,0:0:0:0:
326,376,15293,2,0,L|317:302,1,64,2|0,3:2|0:0,0:0:0:0:
435,308,15577,2,0,L|428:388,1,64,0|0,3:2|0:0,0:0:0:0:
373,227,15860,2,0,P|414:202|456:202,1,64,2|0,3:2|0:0,0:0:0:0:
506,81,16143,5,6,3:2:0:0:
506,81,16284,2,0,L|430:75,1,64,0|0,0:0|3:2,0:0:0:0:
362,87,16567,1,2,0:0:0:0:
362,87,16709,2,0,P|329:49|327:16,1,64,0|0,3:2|0:0,0:0:0:0:
226,162,16992,1,2,3:2:0:0:
226,162,17133,6,0,L|307:154,1,64,0|0,0:0|3:2,0:0:0:0:
384,202,17416,1,0,0:0:0:0:
384,202,17558,2,0,P|362:230|359:273,1,64,2|0,3:2|0:0,0:0:0:0:
433,345,17841,2,0,P|458:317|467:288,1,64,2|0,3:2|0:0,0:0:0:0:
348,337,18124,2,0,L|266:340,1,64,2|0,3:2|0:0,0:0:0:0:
92,137,18407,6,0,P|99:169|96:201,1,64,4|0,3:2|0:0,0:0:0:0:
14,332,18690,2,0,P|39:313|81:302,1,64,2|0,3:2|0:0,0:0:0:0:
179,256,18973,1,2,3:2:0:0:
179,256,19114,2,0,L|176:340,1,64,2|0,0:0|3:2,0:0:0:0:
242,174,19397,6,0,L|237:88,1,64,2|0,0:0|3:2,0:0:0:0:
308,42,19680,1,0,0:0:0:0:
308,42,19822,2,0,P|276:25|224:23,1,64,2|0,3:2|0:0,0:0:0:0:
347,126,20105,2,0,P|345:163|361:204,1,64,2|0,3:2|0:0,0:0:0:0:
396,53,20388,2,0,P|427:46|453:28,1,64,2|0,3:2|0:0,0:0:0:0:
476,338,20671,6,0,L|468:249,1,64,6|0,3:2|0:0,0:0:0:0:
328,359,20954,1,0,3:2:0:0:
328,359,21095,2,0,P|365:334|397:325,1,64,2|0,0:0|3:2,0:0:0:0:
293,275,21378,1,0,0:0:0:0:
293,275,21520,2,0,P|261:254|221:249,1,64,2|0,3:2|0:0,0:0:0:0:
143,288,21803,5,0,3:2:0:0:
143,288,21944,2,0,L|150:365,1,64,2|0,0:0|3:2,0:0:0:0:
42,263,22227,1,0,0:0:0:0:
42,263,22369,2,0,P|36:222|43:187,1,64,2|0,3:2|0:0,0:0:0:0:
114,89,22652,2,0,P|122:131|119:152,1,64,2|0,3:2|0:0,0:0:0:0:
264,359,22935,6,0,L|367:349,1,80,4|0,3:2|0:0,0:0:0:0:
482,254,23218,1,8,0:2:0:0:
416,185,23360,2,0,P|396:253|443:333,1,160,0|0,0:0|3:2,0:0:0:0:
382,59,23784,6,0,L|218:53,1,160,8|0,0:2|3:2,0:0:0:0:
145,154,24209,1,0,0:0:0:0:
145,154,24350,2,0,L|320:146,1,160,8|0,0:2|0:0,0:0:0:0:
364,218,24775,1,0,3:2:0:0:
262,311,24916,2,0,P|239:266|236:225,1,80,8|0,0:2|0:0,0:0:0:0:
69,221,25199,6,0,L|163:229,1,80,0|0,3:2|0:0,0:0:0:0:
239,80,25482,2,0,P|251:159|234:239,1,160,8|0,0:2|0:0,0:0:0:0:
136,299,25907,1,0,3:2:0:0:
72,146,26048,2,0,P|66:88|71:47,1,80,8|0,0:2|0:0,0:0:0:0:
309,205,26331,6,0,L|212:200,1,80,0|0,3:2|0:0,0:0:0:0:
393,125,26614,2,0,L|498:118,1,80,8|0,0:2|0:0,0:0:0:0:
385,298,26897,1,0,0:0:0:0:
481,244,27039,1,0,3:2:0:0:
309,205,27180,2,0,P|295:261|303:309,1,80,8|0,0:2|0:0,0:0:0:0:
132,110,27463,6,0,L|225:102,1,80,4|0,3:2|0:0,0:0:0:0:
71,281,27746,2,0,P|41:235|35:189,1,80,8|0,0:2|0:0,0:0:0:0:
191,276,28029,2,0,P|182:333|166:362,1,80,0|0,0:0|3:2,0:0:0:0:
238,196,28312,1,8,0:2:0:0:
238,196,28454,6,0,L|148:187,1,80,0|0,0:0|3:2,0:0:0:0:
312,282,28737,1,0,0:0:0:0:
312,282,28878,2,0,L|413:275,1,80,8|0,0:2|0:0,0:0:0:0:
361,200,29161,1,0,0:0:0:0:
369,355,29303,1,0,3:2:0:0:
474,246,29445,2,0,P|462:207|437:170,1,80,8|0,0:2|0:0,0:0:0:0:
270,82,29728,6,0,P|316:93|356:80,1,80,0|0,3:2|0:0,0:0:0:0:
156,26,30011,2,0,L|165:192,1,160,8|0,0:2|0:0,0:0:0:0:
81,241,30435,1,0,3:2:0:0:
156,335,30577,2,0,B|241:340|232:292|306:289,1,160,8|0,0:2|3:2,0:0:0:0:
340,201,31001,1,0,3:2:0:0:
260,78,31143,6,0,L|256:163,1,80,8|2,0:2|0:2,0:0:0:0:
258,178,31355,1,8,0:2:0:0:
258,178,31426,1,0,3:2:0:0:
411,232,31567,1,8,0:2:0:0:
223,270,31709,1,8,0:0:0:0:
429,229,31850,1,8,0:0:0:0:
296,345,31992,6,0,P|307:309|302:265,1,80,4|0,3:2|0:0,0:0:0:0:
258,178,32275,1,8,0:0:0:0:
81,305,32416,2,0,P|151:316|229:260,1,160,4|0,3:2|3:2,0:0:0:0:
98,212,32841,2,0,L|4:221,1,80,8|0,0:0|0:0,0:0:0:0:
301,168,33124,6,0,P|345:163|391:175,1,80,0|0,3:2|3:2,0:0:0:0:
461,223,33407,1,8,0:0:0:0:
398,338,33548,2,0,P|338:329|260:388,1,160,0|0,0:0|3:2,0:0:0:0:
144,160,33973,1,8,0:0:0:0:
187,306,34114,1,0,3:2:0:0:
226,142,34256,6,0,L|233:42,1,80,4|0,3:2|0:0,0:0:0:0:
261,237,34539,1,8,0:0:0:0:
130,248,34680,2,0,P|65:205|56:120,1,160,4|0,3:2|3:2,0:0:0:0:
134,0,35105,2,0,P|146:59|146:92,1,80,8|0,0:0|0:0,0:0:0:0:
365,88,35388,6,0,L|268:80,1,80,0|0,3:2|3:2,0:0:0:0:
417,27,35671,1,8,0:0:0:0:
443,177,35812,2,0,P|457:126|456:83,1,80,0|0,0:0|3:2,0:0:0:0:
318,203,36095,1,0,3:2:0:0:
318,203,36237,2,0,P|328:262|347:303,1,80,8|0,0:0|3:2,0:0:0:0:
493,344,36520,6,0,L|391:352,1,80,4|0,3:2|0:0,0:0:0:0:
255,276,36803,2,0,L|351:281,1,80,8|0,0:0|0:0,0:0:0:0:
207,176,37086,1,0,3:2:0:0:
162,310,37228,1,0,0:0:0:0:
162,310,37369,1,8,0:0:0:0:
114,197,37511,6,0,P|102:146|107:110,1,80,0|0,0:0|3:2,0:0:0:0:
189,18,37794,2,0,P|199:66|196:101,1,80,0|8,0:0|0:0,0:0:0:0:
90,29,38077,1,0,0:0:0:0:
25,134,38218,1,0,3:2:0:0:
25,134,38360,1,0,0:0:0:0:
196,96,38501,2,0,L|300:85,1,80,8|0,0:0|0:0,0:0:0:0:
334,266,38784,6,0,P|295:234|282:201,1,80,4|0,3:2|0:0,0:0:0:0:
406,192,39067,1,0,1:2:0:0:
403,314,39209,1,0,3:2:0:0:
482,205,39350,2,0,L|475:115,1,80,0|0,1:2|3:2,0:0:0:0:
286,14,39633,2,0,L|286:100,1,80,0|0,1:2|1:2,0:0:0:0:
285,114,39845,1,0,0:0:0:0:
285,114,39916,5,0,1:2:0:0:
199,269,40058,1,0,3:2:0:0:
202,116,40199,1,0,1:2:0:0:
284,271,40341,1,0,3:2:0:0:
95,270,40482,5,0,1:2:0:0:
95,270,40624,2,0,B|193:255|180:331|289:296,1,200,2|0,3:1|0:0,0:0:0:0:
348,346,41048,6,0,P|325:275|435:258,1,207.999990478516,4|8,3:1|0:0,0:0:0:0:
475,334,41473,1,0,0:0:0:0:
512,198,41614,2,0,L|500:93,1,103.999995239258,0|0,3:0|3:0,0:0:0:0:
338,44,41897,2,0,P|377:97|423:122,1,103.999995239258,8|0,0:0|0:0,0:0:0:0:
282,266,42180,5,0,3:0:0:0:
364,197,42322,1,0,3:0:0:0:
255,154,42463,2,0,L|139:163,1,103.999995239258,8|0,0:0|0:0,0:0:0:0:
131,162,42676,1,8,0:0:0:0:
131,162,42746,1,0,3:0:0:0:
26,232,42888,1,0,3:0:0:0:
116,324,43029,2,0,P|160:286|174:231,1,103.999995239258,8|0,0:0|0:0,0:0:0:0:
28,117,43312,6,0,L|44:341,1,207.999990478516,0|8,3:0|0:0,0:0:0:0:
213,174,43737,1,2,0:0:0:0:
213,174,43808,1,8,0:0:0:0:
213,174,43878,2,0,P|276:161|327:176,1,103.999995239258,0|0,3:0|3:0,0:0:0:0:
311,351,44161,2,0,P|281:299|278:245,1,103.999995239258,8|0,0:0|0:0,0:0:0:0:
485,270,44445,6,0,L|379:276,1,103.999995239258,0|0,3:0|3:0,0:0:0:0:
313,169,44728,2,0,L|439:176,1,103.999995239258,8|0,0:0|0:0,0:0:0:0:
490,142,44940,1,8,0:0:0:0:
490,142,45011,2,0,P|502:88|489:33,1,103.999995239258,0|0,3:0|3:0,0:0:0:0:
338,22,45294,2,0,P|353:65|411:103,1,103.999995239258,8|0,0:0|0:0,0:0:0:0:
222,184,45577,6,0,P|237:125|281:93,1,103.999995239258,0|0,3:2|3:0,0:0:0:0:
282,272,45860,2,0,B|235:249|185:283|185:283|136:319|67:270,1,207.999990478516,8|0,0:0|3:0,0:0:0:0:
5,171,46284,1,0,3:0:0:0:
103,95,46426,2,0,P|115:160|114:209,1,103.999995239258,8|0,0:0|0:0,0:0:0:0:
233,102,46709,6,0,P|201:47|191:-8,1,103.999995239258,0|0,3:0|3:0,0:0:0:0:
394,26,46992,2,0,P|366:85|328:113,1,103.999995239258,8|0,0:0|0:0,0:0:0:0:
318,189,47204,1,8,0:0:0:0:
318,189,47275,2,0,L|433:198,1,103.999995239258,0|0,3:0|3:0,0:0:0:0:
501,308,47558,2,0,L|379:313,1,103.999995239258,8|0,0:0|0:0,0:0:0:0:
251,264,47841,6,0,P|286:312|299:362,1,103.999995239258,0|0,3:2|3:0,0:0:0:0:
145,333,48124,2,0,L|150:219,1,103.999995239258,8|0,0:0|0:0,0:0:0:0:
204,66,48407,1,0,3:0:0:0:
228,169,48548,1,0,3:0:0:0:
109,72,48690,6,0,P|37:113|56:236,1,207.999990478516,8|0,0:0|3:0,0:0:0:0:
126,162,49114,1,0,3:0:0:0:
250,263,49256,2,0,L|128:255,1,103.999995239258,8|0,0:0|0:0,0:0:0:0:
88,343,49468,1,8,0:0:0:0:
88,343,49539,2,0,L|216:339,1,103.999995239258,0|0,3:0|3:0,0:0:0:0:
222,165,49822,2,0,P|247:223|248:287,1,103.999995239258,8|0,0:0|0:0,0:0:0:0:
317,355,50105,6,0,L|439:348,1,103.999995239258,0|0,3:0|3:0,0:0:0:0:
475,170,50388,2,0,P|494:243|490:284,1,103.999995239258,8|0,0:0|0:0,0:0:0:0:
395,117,50671,2,0,P|441:79|499:74,1,103.999995239258,0|0,3:0|3:0,0:0:0:0:
382,208,50954,2,0,P|325:189|287:149,1,103.999995239258,8|0,0:0|0:0,0:0:0:0:
215,12,51237,6,0,L|221:133,1,103.999995239258,0|0,3:0|3:0,0:0:0:0:
149,232,51520,1,8,0:0:0:0:
63,163,51661,1,2,0:0:0:0:
63,163,51732,1,8,0:0:0:0:
63,163,51803,2,0,P|100:114|150:93,1,103.999995239258,0|0,3:0|3:0,0:0:0:0:
252,237,52086,2,0,L|121:230,1,103.999995239258,8|0,0:0|0:0,0:0:0:0:
335,67,52369,6,0,L|466:57,1,103.999995239258,0|0,3:0|3:0,0:0:0:0:
512,142,52652,1,8,0:0:0:0:
410,245,52794,1,2,0:0:0:0:
410,245,52864,1,8,0:0:0:0:
410,245,52935,2,0,P|380:191|376:138,1,103.999995239258,0|0,3:0|3:0,0:0:0:0:
504,248,53218,2,0,P|482:311|453:340,1,103.999995239258,8|0,0:0|0:0,0:0:0:0:
271,159,53501,6,0,L|383:149,1,103.999995239258,0|0,3:0|3:0,0:0:0:0:
202,51,53784,2,0,L|85:44,1,103.999995239258,8|0,0:0|0:0,0:0:0:0:
24,88,53996,1,8,0:0:0:0:
24,88,54067,2,0,P|15:148|30:201,1,103.999995239258,0|0,3:0|3:0,0:0:0:0:
189,186,54350,2,0,P|134:149|88:145,1,103.999995239258,8|0,0:0|0:0,0:0:0:0:
102,347,54633,6,0,L|109:228,1,103.999995239258,0|0,3:0|3:0,0:0:0:0:
277,174,54916,2,0,L|269:301,1,103.999995239258,8|0,0:0|0:0,0:0:0:0:
322,346,55128,1,8,0:0:0:0:
322,346,55199,2,0,P|386:336|422:299,1,103.999995239258,0|0,3:0|3:0,0:0:0:0:
443,165,55482,2,0,P|457:230|496:264,1,103.999995239258,8|0,0:0|0:0,0:0:0:0:
352,149,55765,5,0,3:0:0:0:
450,75,55907,1,0,3:0:0:0:
331,37,56048,2,0,L|208:47,1,103.999995239258,8|0,0:0|0:0,0:0:0:0:
153,86,56261,1,8,0:0:0:0:
153,86,56331,2,0,L|33:79,1,103.999995239258,0|0,3:0|3:0,0:0:0:0:
174,199,56614,1,8,0:0:0:0:
251,132,56756,1,0,0:0:0:0:
262,258,56897,6,0,B|228:297|227:364|227:364|183:339|104:342,1,207.999990478516,0|8,3:0|0:0,0:0:0:0:
70,168,57322,1,2,0:0:0:0:
70,168,57393,1,8,0:0:0:0:
70,168,57463,2,0,L|184:162,1,103.999995239258,0|0,3:0|3:0,0:0:0:0:
333,54,57746,2,0,L|229:49,1,103.999995239258,8|0,0:0|0:0,0:0:0:0:
334,140,58029,5,0,3:0:0:0:
441,82,58171,1,0,3:0:0:0:
452,244,58312,2,0,P|415:198|413:144,1,103.999995239258,8|0,0:0|0:0,0:0:0:0:
496,173,58595,1,0,3:0:0:0:
407,312,58737,1,8,0:0:0:0:
407,312,58808,1,8,0:0:0:0:
407,312,58878,2,0,L|296:318,1,103.999995239258,0|0,3:0|3:0,0:0:0:0:
99,277,59161,6,0,B|227:291|204:229|296:227,1,207.999990478516,4|8,3:2|0:0,0:0:0:0:
334,140,59586,1,0,0:0:0:0:
235,85,59727,2,0,L|121:94,1,103.999995239258,0|0,3:0|3:0,0:0:0:0:
18,235,60010,2,0,P|65:202|130:201,1,103.999995239258,8|0,0:0|0:0,0:0:0:0:
239,174,60293,5,0,3:0:0:0:
326,233,60435,1,0,3:0:0:0:
227,288,60576,2,0,L|114:279,1,103.999995239258,8|0,0:0|0:0,0:0:0:0:
101,281,60789,1,8,0:0:0:0:
101,281,60859,1,0,3:0:0:0:
160,194,61001,1,0,3:0:0:0:
190,371,61143,2,0,L|326:360,1,103.999995239258,8|0,0:0|0:0,0:0:0:0:
368,228,61426,6,0,B|397:199|397:199|384:375,1,207.999990478516,0|8,3:0|0:0,0:0:0:0:
495,256,61850,1,2,0:0:0:0:
495,256,61921,1,8,0:0:0:0:
495,256,61991,2,0,L|484:147,1,103.999995239258,0|0,3:0|3:0,0:0:0:0:
368,27,62275,2,0,L|366:140,1,103.999995239258,8|0,0:0|0:0,0:0:0:0:
170,136,62558,6,0,P|216:158|267:165,1,103.999995239258,0|0,3:0|3:0,0:0:0:0:
115,69,62841,2,0,P|62:73|13:97,1,103.999995239258,8|0,0:0|0:0,0:0:0:0:
15,179,63053,1,8,0:0:0:0:
15,179,63124,2,0,L|19:311,1,103.999995239258,0|0,3:0|3:0,0:0:0:0:
132,367,63407,2,0,L|138:263,1,103.999995239258,8|0,0:0|0:0,0:0:0:0:
318,256,63690,6,0,P|275:271|227:312,1,103.999995239258,0|0,3:2|3:0,0:0:0:0:
388,345,63973,2,0,P|434:363|428:249,1,207.999990478516,8|0,0:0|3:0,0:0:0:0:
289,175,64397,1,0,3:0:0:0:
383,92,64539,2,0,L|379:218,1,103.999995239258,8|0,0:0|0:0,0:0:0:0:
440,22,64822,6,0,P|370:10|312:35,1,103.999995239258,0|0,3:0|3:0,0:0:0:0:
239,186,65105,2,0,P|277:151|296:103,1,103.999995239258,8|0,0:0|0:0,0:0:0:0:
232,42,65317,1,8,0:0:0:0:
231,41,65388,2,0,L|127:32,1,103.999995239258,0|0,3:0|3:0,0:0:0:0:
6,138,65671,2,0,L|114:132,1,103.999995239258,8|0,0:0|0:0,0:0:0:0:
145,280,65954,6,0,P|104:238|60:218,1,103.999995239258,0|0,3:2|3:0,0:0:0:0:
113,361,66237,2,0,P|173:361|229:323,1,103.999995239258,8|0,0:0|0:0,0:0:0:0:
223,315,66449,1,8,0:0:0:0:
223,315,66520,1,0,3:0:0:0:
317,358,66661,1,0,3:0:0:0:
436,232,66803,6,0,B|367:240|367:240|305:208|305:208|236:215,1,207.999990478516,8|0,0:0|3:0,0:0:0:0:
351,257,67228,1,0,3:0:0:0:
401,119,67369,2,0,L|280:111,1,103.999995239258,8|0,0:0|0:0,0:0:0:0:
239,55,67581,1,8,0:0:0:0:
239,55,67652,2,0,L|135:58,1,103.999995239258,0|0,3:0|3:0,0:0:0:0:
21,115,67935,2,0,P|49:71|48:14,1,103.999995239258,8|0,0:0|0:0,0:0:0:0:
115,171,68218,6,0,L|110:298,1,103.999995239258,0|0,3:0|3:0,0:0:0:0:
235,364,68501,2,0,L|230:254,1,103.999995239258,8|0,0:0|0:0,0:0:0:0:
269,193,68713,1,8,0:0:0:0:
269,193,68784,2,0,P|315:155|373:150,1,103.999995239258,0|0,3:0|3:0,0:0:0:0:
440,284,69067,2,0,P|383:265|345:225,1,103.999995239258,8|0,0:0|0:0,0:0:0:0:
447,71,69350,6,0,L|441:193,1,103.999995239258,0|0,3:0|3:0,0:0:0:0:
362,17,69633,1,8,0:0:0:0:
266,116,69774,1,2,0:0:0:0:
266,116,69845,1,8,0:0:0:0:
266,116,69916,2,0,P|323:116|378:95,1,103.999995239258,0|0,3:0|3:0,0:0:0:0:
256,25,70199,2,0,P|187:50|152:90,1,103.999995239258,8|0,0:0|0:0,0:0:0:0:
154,260,70482,6,0,L|150:137,1,103.999995239258,0|0,3:0|3:0,0:0:0:0:
81,58,70765,1,8,0:0:0:0:
13,155,70907,1,2,0:0:0:0:
13,155,70977,1,8,0:0:0:0:
13,155,71048,2,0,L|11:260,1,103.999995239258,0|0,3:0|3:0,0:0:0:0:
159,363,71331,2,0,L|153:241,1,103.999995239258,8|0,0:0|0:0,0:0:0:0:
213,164,71614,6,0,P|155:148|110:158,1,103.999995239258,0|0,3:0|3:0,0:0:0:0:
232,253,71897,2,0,P|287:243|320:198,1,103.999995239258,8|0,0:0|0:0,0:0:0:0:
319,135,72109,1,8,0:0:0:0:
319,135,72180,2,0,L|313:31,1,103.999995239258,0|0,3:0|3:0,0:0:0:0:
446,1,72463,2,0,L|440:117,1,103.999995239258,8|0,0:0|0:0,0:0:0:0:
479,246,72746,6,0,P|431:215|425:318,1,207.999990478516,0|8,3:0|0:0,0:0:0:0:
262,220,73171,1,2,0:0:0:0:
262,220,73241,1,8,0:0:0:0:
262,220,73312,2,0,L|148:225,1,103.999995239258,0|0,3:0|3:0,0:0:0:0:
109,50,73595,2,0,P|157:86|177:142,1,103.999995239258,8|0,0:0|0:0,0:0:0:0:
41,260,73878,5,0,3:0:0:0:
86,173,74020,1,0,3:0:0:0:
145,312,74161,2,0,L|249:305,1,103.999995239258,8|0,0:0|0:0,0:0:0:0:
327,336,74374,1,8,0:0:0:0:
326,335,74444,2,0,P|350:279|343:222,1,103.999995239258,0|0,3:0|3:0,0:0:0:0:
298,93,74727,1,8,0:0:0:0:
240,168,74869,1,0,0:0:0:0:
360,159,75010,6,0,L|499:143,1,103.999995239258,0|0,3:0|0:0,0:0:0:0:
372,18,75293,2,0,L|266:11,1,103.999995239258,8|0,0:0|0:0,0:0:0:0:
196,37,75506,1,8,0:0:0:0:
196,37,75576,2,0,P|206:100|238:145,1,103.999995239258,0|0,3:2|0:0,0:0:0:0:
45,153,75859,2,0,P|97:118|125:53,1,103.999995239258,8|0,0:0|0:0,0:0:0:0:
196,256,76142,5,0,3:0:0:0:
158,173,76284,1,0,3:0:0:0:
121,352,76425,2,0,P|84:306|82:252,1,103.999995239258,8|0,0:0|0:0,0:0:0:0:
158,173,76708,1,0,3:0:0:0:
273,176,76850,1,8,0:0:0:0:
273,176,76921,1,8,0:0:0:0:
273,176,76991,2,0,L|376:170,1,103.999995239258,0|0,3:0|3:0,0:0:0:0:
500,271,77275,6,0,L|307:270,1,192,0|0,3:0|3:0,0:0:0:0:
370,77,77841,2,0,P|431:98|472:167,1,128,8|0,0:0|0:0,0:0:0:0:
414,239,78265,1,0,3:0:0:0:
278,100,78407,5,0,3:0:0:0:
278,100,78548,2,0,L|282:-5,1,80,8|0,0:0|0:0,0:0:0:0:
171,104,78831,1,0,3:0:0:0:
171,104,78973,2,0,L|180:204,1,80,8|0,0:0|0:0,0:0:0:0:
288,272,79256,2,0,P|301:235|261:251,1,95.9999970703126,2|0,3:1|0:0,0:0:0:0:
85,295,79539,6,0,P|137:272|203:275,1,95.9999970703126,4|0,3:2|0:0,0:0:0:0:
321,359,79822,2,0,P|292:308|289:259,1,95.9999970703126,0|0,1:2|0:0,0:0:0:0:
415,181,80105,1,0,3:2:0:0:
433,280,80246,1,0,0:0:0:0:
320,192,80388,2,0,L|326:87,1,95.9999970703126,0|0,1:2|0:0,0:0:0:0:
458,28,80671,5,0,3:2:0:0:
493,117,80812,1,0,0:0:0:0:
368,24,80954,2,0,P|315:12|273:27,1,95.9999970703126,0|0,1:2|0:0,0:0:0:0:
196,189,81237,1,0,3:2:0:0:
80,216,81378,1,0,0:0:0:0:
186,96,81520,2,0,P|238:108|281:151,1,95.9999970703126,0|0,1:2|0:0,0:0:0:0:
263,329,81803,6,0,L|272:215,1,95.9999970703126,0|0,3:2|0:0,0:0:0:0:
171,373,82086,1,0,1:2:0:0:
76,330,82228,2,0,L|69:229,1,95.9999970703126,0|0,0:0|3:2,0:0:0:0:
24,149,82511,1,0,0:0:0:0:
149,68,82652,2,0,P|145:104|95:168,1,95.9999970703126,0|0,1:2|0:0,0:0:0:0:
106,1,82935,5,0,3:2:0:0:
227,39,83077,1,0,0:0:0:0:
72,76,83218,1,0,1:2:0:0:
249,37,83360,1,0,0:0:0:0:
164,143,83501,1,0,3:2:0:0:
164,143,83572,1,2,0:0:0:0:
164,143,83643,2,0,L|160:239,2,95.9999970703126,2|0|0,0:0|1:2|0:0,0:0:0:0:
358,188,84067,6,0,P|302:156|259:155,1,95.9999970703126,0|0,3:2|0:0,0:0:0:0:
354,279,84350,2,0,P|411:261|443:215,1,95.9999970703126,0|0,1:2|0:0,0:0:0:0:
381,97,84633,1,0,3:2:0:0:
358,188,84775,1,0,0:0:0:0:
480,104,84916,2,0,L|473:7,1,95.9999970703126,0|0,1:2|0:0,0:0:0:0:
264,8,85199,5,0,3:2:0:0:
160,40,85341,1,0,0:0:0:0:
290,111,85482,2,0,P|353:111|381:96,1,95.9999970703126,0|0,1:2|0:0,0:0:0:0:
286,224,85765,2,0,L|295:326,1,95.9999970703126,0|0,3:2|0:0,0:0:0:0:
401,384,86048,2,0,L|405:284,1,95.9999970703126,0|0,1:2|0:0,0:0:0:0:
203,294,86331,6,0,P|250:316|324:312,1,95.9999970703126,4|0,3:2|0:0,0:0:0:0:
40,232,86614,1,0,3:2:0:0:
182,157,86756,1,0,3:2:0:0:
42,132,86897,1,0,3:2:0:0:
200,160,87039,1,0,3:0:0:0:
24,240,87180,2,0,L|22:354,1,95.9999970703126,0|0,3:2|3:3,0:0:0:0:
208,240,87463,5,0,3:2:0:0:
216,72,87605,1,0,1:2:0:0:
304,240,87746,1,0,1:2:0:0:
296,72,87888,1,0,1:2:0:0:
208,248,88029,6,0,P|152:240|96:240,1,95.9999970703126,0|0,1:2|1:2,0:0:0:0:
369,168,88312,1,0,1:2:0:0:
369,168,88383,1,0,0:0:0:0:
369,168,88454,1,0,1:2:0:0:
