osu file format v14

[General]
AudioFilename: audio.mp3
AudioLeadIn: 0
PreviewTime: 36209
Countdown: 0
SampleSet: Soft
StackLeniency: 0.7
Mode: 0
LetterboxInBreaks: 0
WidescreenStoryboard: 1

[Editor]
DistanceSpacing: 0.8
BeatDivisor: 4
GridSize: 8
TimelineZoom: 2.2

[Metadata]
Title:HiDE the BLUE
TitleUnicode:HiDE the BLUE
Artist:BiSH
ArtistUnicode:BiSH
Creator:Nao Tomori
Version:coco's Insane
Source:3D彼女 リアルガール
Tags:3d kanojo real girlfriend aina the end Momoko Gumi Company モモコグミカンパニー Cent Chihiro Chicchi セントチヒロ チッチ Hashiyasume Atsuko ハシヤスメ アツコ Rin Rin リンリン Ayuni D アユニ season 1 ending ed hobbes2 loli catgirl cococolaco akitoshi -laura- corinn mir kisses
BeatmapID:1605398
BeatmapSetID:762467

[Difficulty]
HPDrainRate:6
CircleSize:4
OverallDifficulty:8
ApproachRate:9
SliderMultiplier:1.76
SliderTickRate:1

[Events]
//Background and Video events
0,0,"red hair bg.jpg",0,0
//Break Periods
//Storyboard Layer 0 (Background)
//Storyboard Layer 1 (Fail)
//Storyboard Layer 2 (Pass)
//Storyboard Layer 3 (Foreground)
//Storyboard Sound Samples

[TimingPoints]
440,307.692307692308,4,2,1,70,1,0
440,-133.333333333333,4,2,0,40,0,0
5209,-133.333333333333,4,2,1,70,0,0
5363,-100,4,2,1,70,0,0
14901,-100,4,2,1,5,0,0
15209,-111.111111111111,4,2,1,50,0,0
20055,-111.111111111111,4,2,1,5,0,0
20132,-111.111111111111,4,2,1,50,0,0
25363,-111.111111111111,4,2,1,70,0,0
26593,-111.111111111111,4,2,1,70,0,0
31516,-111.111111111111,4,2,1,70,0,0
34901,-133.333333333333,4,2,1,35,0,0
37286,-133.333333333333,4,2,1,35,0,0
37363,-133.333333333333,4,2,1,35,0,0
39670,-133.333333333333,4,2,1,70,0,0
39824,-111.111111111111,4,2,1,70,0,0
44747,-90.9090909090908,4,2,1,70,0,0
46286,-90.9090909090908,4,2,1,70,0,0
48747,-90.9090909090908,4,2,1,70,0,0
52440,-90.9090909090908,4,2,1,70,0,0
53670,-90.9090909090908,4,2,1,70,0,0
54901,-90.9090909090908,4,2,1,70,0,0
57363,-90.9090909090908,4,2,1,70,0,0
57978,-90.9090909090908,4,2,1,70,0,0
59824,-90.9090909090908,4,2,1,70,0,0
65978,-90.9090909090908,4,2,1,70,0,0
67209,-90.9090909090908,4,2,1,70,0,0
68440,-90.9090909090908,4,2,1,70,0,0
72132,-90.9090909090908,4,2,1,70,0,0
74593,-90.9090909090908,4,2,1,70,0,0
78440,-90.9090909090908,4,2,1,70,0,0
83670,-117.647058823529,4,2,1,70,0,0

[Colours]
Combo1 : 222,222,222
Combo2 : 214,94,80
Combo3 : 117,188,236

[HitObjects]
25,184,440,6,0,P|61:174|102:173,1,66.0000025177003,2|0,0:0|0:0,0:0:0:0:
188,43,747,1,0,0:0:0:0:
201,125,901,2,0,P|168:122|136:113,1,66.0000025177003,2|0,0:0|0:0,0:0:0:0:
83,36,1209,1,0,0:0:0:0:
20,98,1363,1,0,0:0:0:0:
122,244,1516,6,0,P|127:174|137:105,1,132.000005035401,2|0,0:0|0:0,0:0:0:0:
212,215,1978,2,0,P|247:217|286:212,1,66.0000025177003,0|0,0:0|0:0,0:0:0:0:
366,241,2286,1,2,0:0:0:0:
335,331,2440,1,0,0:0:0:0:
277,214,2593,1,2,0:0:0:0:
308,123,2747,1,0,0:0:0:0:
277,214,2901,5,2,0:0:0:0:
277,214,4132,1,2,0:0:0:0:
375,54,5209,6,0,L|368:88,1,33.0000012588501,8|8,0:0|0:0,0:0:0:0:
243,167,5363,2,0,B|332:133|314:202|422:175,2,176,6|2|2,0:0|0:0|0:0,0:0:0:0:
289,245,6132,1,0,0:0:0:0:
368,86,6286,1,2,0:0:0:0:
498,225,6440,1,8,0:0:0:0:
498,225,6516,1,0,0:0:0:0:
498,225,6593,6,0,P|495:267|487:329,1,88,2|8,0:0|0:0,0:0:0:0:
499,133,6901,1,2,0:0:0:0:
404,243,7055,2,0,L|397:296,2,44,0|0|10,0:0|0:0|0:0,0:0:0:0:
326,87,7363,1,0,0:0:0:0:
326,87,7440,1,0,0:0:0:0:
326,87,7516,2,0,P|368:84|430:76,1,88,10|8,0:0|0:0,0:0:0:0:
365,171,7747,1,8,0:0:0:0:
365,171,7824,6,0,P|296:179|241:131,1,132,6|0,0:0|0:0,0:0:0:0:
248,143,8132,2,0,P|254:186|260:230,1,88,2|0,0:0|0:0,0:0:0:0:
162,47,8440,2,0,P|155:91|147:161,1,88,2|0,0:0|0:0,0:0:0:0:
149,134,8670,1,0,0:0:0:0:
149,134,8747,1,10,0:0:0:0:
326,87,8901,1,8,0:0:0:0:
181,238,9055,6,0,L|121:229,1,44,0|0,0:0|0:0,0:0:0:0:
19,263,9209,1,8,0:0:0:0:
65,338,9363,2,0,P|56:266|43:198,1,132,10|0,0:0|0:0,0:0:0:0:
149,321,9670,2,0,B|200:329|200:329|223:309|223:309|272:315,1,132,10|0,0:0|0:0,0:0:0:0:
361,288,9978,2,0,P|307:325|336:401,1,132,2|0,0:0|0:0,0:0:0:0:
274,229,10286,6,0,P|266:176|249:96,1,132,6|0,0:0|0:0,0:0:0:0:
249,99,10593,2,0,P|302:108|339:103,1,88,2|0,0:0|0:0,0:0:0:0:
480,308,10901,2,0,P|418:275|359:288,1,132,2|0,0:0|0:0,0:0:0:0:
360,287,11209,2,0,P|363:237|368:188,1,88,8|8,0:0|0:0,0:0:0:0:
274,229,11440,1,0,0:0:0:0:
274,229,11516,6,0,P|224:225|141:212,1,132,6|0,0:0|0:0,0:0:0:0:
71,263,11824,2,0,B|63:306|63:306|77:352,1,88,2|0,0:0|0:0,0:0:0:0:
9,203,12132,2,0,B|25:149|25:149|6:67,1,132,2|0,0:0|0:0,0:0:0:0:
8,75,12440,2,0,P|49:80|105:82,1,88,8|8,0:0|0:0,0:0:0:0:
179,47,12670,1,8,0:0:0:0:
179,47,12747,6,0,P|242:76|252:175,2,176,6|2|10,0:0|0:0|0:0,0:0:0:0:
165,135,13516,1,8,0:0:0:0:
346,77,13670,2,0,P|387:71|443:69,1,88,10|8,0:0|0:0,0:0:0:0:
297,2,13978,5,10,0:0:0:0:
165,135,14132,1,8,0:0:0:0:
334,225,14286,1,10,0:0:0:0:
191,304,14440,5,8,0:0:0:0:
191,304,14516,1,8,0:0:0:0:
191,304,14593,1,10,0:0:0:0:
346,77,14747,1,8,0:0:0:0:
348,359,15209,6,0,P|353:319|357:280,1,79.1999975830079,6|0,0:0|0:0,0:0:0:0:
441,227,15516,2,0,P|445:266|450:305,1,79.1999975830079,2|0,0:0|0:0,0:0:0:0:
358,191,15824,2,0,P|318:195|279:200,1,79.1999975830079,2|0,0:0|0:0,0:0:0:0:
434,140,16132,2,0,P|473:144|512:149,1,79.1999975830079,2|8,0:0|0:3,0:0:0:0:
271,121,16440,6,0,L|279:200,1,79.1999975830079,2|0,0:0|0:0,0:0:0:0:
178,78,16747,2,0,L|186:-1,1,79.1999975830079,2|8,0:0|0:3,0:0:0:0:
84,201,17055,2,0,P|152:202|193:157,1,118.799996374512,2|0,0:0|0:0,0:0:0:0:
187,169,17363,2,0,L|179:248,1,79.1999975830079,2|0,0:0|0:0,0:0:0:0:
413,254,17670,6,0,P|357:202|256:209,1,158.399995166016,2|2,0:0|0:0,0:0:0:0:
219,330,18132,2,0,P|167:338|136:331,2,79.1999975830079,0|2|0,0:0|0:0|0:0,0:0:0:0:
179,247,18593,1,2,0:0:0:0:
66,382,18747,1,8,0:3:0:0:
70,154,18901,6,0,P|79:213|87:297,1,118.799996374512,2|0,0:0|0:0,0:0:0:0:
64,296,19209,1,2,0:0:0:0:
172,154,19363,1,8,0:3:0:0:
276,265,19516,2,0,P|282:205|291:147,1,118.799996374512,2|0,0:0|0:0,0:0:0:0:
291,147,19824,2,0,P|322:160|370:165,1,79.1999975830079,2|0,0:0|0:0,0:0:0:0:
478,116,20132,6,0,P|435:128|415:246,1,158.399995166016,2|2,0:0|0:0,0:0:0:0:
503,330,20593,2,0,P|438:325|358:325,1,118.799996374512,0|0,0:0|0:0,0:0:0:0:
307,362,20901,2,0,B|265:379|265:379|237:378|212:355|212:355|179:357|156:365,1,158.399995166016,0|8,0:0|0:3,0:0:0:0:
275,126,21363,6,0,P|269:185|263:295,2,158.399995166016,2|2|2,0:0|0:0|0:0,0:0:0:0:
299,37,22132,1,0,0:0:0:0:
182,139,22286,2,0,P|122:144|69:82,1,118.799996374512,2|0,0:0|0:0,0:0:0:0:
72,20,22593,5,2,0:0:0:0:
72,20,22901,1,2,0:0:0:0:
8,170,23055,2,0,P|2:209|0:248,1,79.1999975830079,0|2,0:0|0:0,0:0:0:0:
182,139,23363,2,0,P|187:178|190:217,1,79.1999975830079,0|2,0:0|0:0,0:0:0:0:
123,346,23670,1,0,0:0:0:0:
113,259,23824,6,0,P|199:252|244:313,1,158.399995166016,2|2,0:0|0:0,0:0:0:0:
303,365,24286,1,2,0:3:0:0:
405,267,24440,2,0,L|322:280,1,79.1999975830079,2|2,0:0|0:3,0:0:0:0:
497,281,24747,1,2,0:0:0:0:
325,187,24901,1,2,0:3:0:0:
325,187,24978,1,2,0:3:0:0:
325,187,25055,6,0,P|297:133|320:62,1,118.799996374512,6|0,0:0|0:0,0:0:0:0:
336,51,25363,1,8,0:0:0:0:
223,184,25516,1,0,0:0:0:0:
384,121,25670,2,0,L|471:128,1,79.1999975830079,0|0,0:0|0:0,0:0:0:0:
216,95,25978,2,0,L|129:102,1,79.1999975830079,8|0,0:0|0:0,0:0:0:0:
96,164,26209,1,0,0:0:0:0:
96,164,26286,6,0,P|92:91|82:31,1,118.799996374512,0|0,0:0|0:0,0:0:0:0:
86,46,26593,2,0,L|7:39,1,79.1999975830079,8|0,0:0|0:0,0:0:0:0:
174,183,26901,1,0,0:0:0:0:
6,125,27055,1,2,0:0:0:0:
181,12,27209,2,0,B|219:9|219:9|268:19,1,79.1999975830079,8|0,0:0|0:0,0:0:0:0:
324,86,27440,1,0,0:0:0:0:
324,86,27516,6,0,B|365:101|365:101|447:82,1,118.799996374512,2|0,0:0|0:0,0:0:0:0:
460,77,27824,1,8,0:0:0:0:
320,176,27978,2,0,B|309:216|309:216|314:268,1,79.1999975830079,0|0,0:0|0:0,0:0:0:0:
379,384,28286,2,0,B|390:344|390:344|385:292,1,79.1999975830079,0|8,0:0|0:0,0:0:0:0:
512,234,28593,1,0,0:0:0:0:
512,234,28670,1,0,0:0:0:0:
512,234,28747,6,0,L|380:222,1,118.799996374512,0|0,0:0|0:0,0:0:0:0:
393,223,29055,1,8,0:0:0:0:
305,334,29209,1,0,0:0:0:0:
465,313,29363,2,0,L|386:305,1,79.1999975830079,0|0,0:0|0:0,0:0:0:0:
302,98,29670,2,0,P|309:127|319:175,1,79.1999975830079,8|0,0:0|0:0,0:0:0:0:
269,255,29901,1,0,0:0:0:0:
269,255,29978,6,0,P|189:251|153:224,1,118.799996374512,6|0,0:0|0:0,0:0:0:0:
145,205,30286,1,8,0:0:0:0:
92,350,30440,2,0,P|86:300|80:265,1,79.1999975830079,0|0,0:0|0:0,0:0:0:0:
242,90,30747,2,0,P|235:129|231:168,1,79.1999975830079,0|8,0:0|0:0,0:0:0:0:
149,27,31055,1,0,0:0:0:0:
149,27,31132,1,0,0:0:0:0:
149,27,31209,6,0,B|104:35|104:35|86:54|86:54|39:61,1,118.799996374512,0|0,0:0|0:0,0:0:0:0:
7,68,31516,1,8,0:0:0:0:
152,111,31670,1,0,0:0:0:0:
41,226,31824,2,0,P|48:180|51:141,1,79.1999975830079,0|0,0:0|0:0,0:0:0:0:
151,290,32132,2,0,P|144:244|141:205,1,79.1999975830079,8|0,0:0|0:0,0:0:0:0:
225,166,32363,1,0,0:0:0:0:
225,166,32440,6,0,L|364:174,1,118.799996374512,2|0,0:0|0:0,0:0:0:0:
369,174,32747,1,8,0:0:0:0:
499,99,32901,2,0,B|458:90|458:90|421:96,1,79.1999975830079,0|0,0:0|0:0,0:0:0:0:
444,342,33209,2,0,B|478:305|478:305|472:191,1,158.399995166016,0|0,0:0|0:0,0:0:0:0:
462,171,33593,1,0,0:0:0:0:
462,171,33670,5,6,0:0:0:0:
391,268,33824,1,8,0:0:0:0:
391,268,33901,1,8,0:0:0:0:
391,268,33978,1,10,0:0:0:0:
355,54,34132,1,2,0:0:0:0:
288,238,34286,5,10,0:0:0:0:
454,117,34440,1,10,0:0:0:0:
269,27,34593,1,10,0:0:0:0:
345,140,34747,1,10,0:0:0:0:
192,117,34901,6,0,P|224:112|257:110,2,66.0000025177003,6|0|0,0:0|0:0|0:0,0:0:0:0:
114,171,35363,2,0,P|81:169|48:164,1,66.0000025177003,2|0,0:3|0:0,0:0:0:0:
201,212,35670,1,2,0:3:0:0:
109,82,35824,1,2,0:3:0:0:
107,302,35978,2,0,P|112:231|114:166,1,132.000005035401,2|0,0:3|0:0,0:0:0:0:
21,87,36440,5,0,0:0:0:0:
21,87,36593,1,0,0:0:0:0:
187,17,36747,1,0,0:0:0:0:
187,17,36901,1,0,0:0:0:0:
239,202,37055,2,0,L|232:103,1,99.0000037765504,0|0,0:0|0:0,0:0:0:0:
232,103,37363,6,0,B|164:131|165:81|78:115,1,132.000005035401,2|0,0:3|0:0,0:0:0:0:
187,17,37824,2,0,B|254:-11|254:39|340:4,1,132.000005035401,2|2,0:3|0:3,0:0:0:0:
406,131,38440,6,0,L|398:-23,1,132.000005035401,0|0,0:0|0:0,0:0:0:0:
499,33,38901,2,0,L|493:105,1,66.0000025177003,0|0,0:0|0:0,0:0:0:0:
351,193,39209,1,0,0:0:0:0:
420,144,39363,1,0,0:0:0:0:
498,198,39516,1,0,0:0:0:0:
270,227,39670,1,0,0:0:0:0:
270,227,39747,1,0,0:0:0:0:
270,227,39824,6,0,P|328:277|404:264,1,158.399995166016,6|8,0:0|0:0,0:0:0:0:
226,321,40286,2,0,P|162:319|104:304,1,118.799996374512,2|0,0:0|0:0,0:0:0:0:
109,305,40593,2,0,L|97:202,1,79.1999975830079,8|2,0:0|0:0,0:0:0:0:
39,80,40901,1,0,0:0:0:0:
39,80,40978,1,0,0:0:0:0:
39,80,41055,6,0,P|76:87|138:93,1,79.1999975830079,6|8,0:0|0:0,0:0:0:0:
117,91,41286,2,0,L|135:43,1,39.5999987915039,8|8,0:0|0:0,0:0:0:0:
0,193,41516,2,0,P|37:185|176:184,1,158.399995166016,2|8,0:0|0:0,0:0:0:0:
217,38,41978,2,0,L|226:122,1,79.1999975830079,2|0,0:0|0:0,0:0:0:0:
283,188,42209,1,0,0:0:0:0:
283,188,42286,6,0,B|335:191|335:191|386:154|391:88,1,158.399995166016,14|10,0:0|0:0,0:0:0:0:
370,269,42747,2,0,L|364:319,1,39.5999987915039,8|8,0:0|0:0,0:0:0:0:
434,207,42901,2,0,L|534:219,1,79.1999975830079,14|8,0:0|0:0,0:0:0:0:
284,353,43209,2,0,L|184:365,1,79.1999975830079,10|8,0:0|0:0,0:0:0:0:
455,301,43516,5,6,0:0:0:0:
256,192,43593,12,0,44286,0:0:0:0:
295,131,44747,6,0,B|373:145|373:145|394:181|394:181|465:192,1,193.600005908203,6|8,0:0|0:0,0:0:0:0:
316,228,45209,1,0,0:0:0:0:
484,184,45363,2,0,B|503:132|503:132|498:76,1,96.8000029541017,0|2,0:0|0:0,0:0:0:0:
301,239,45670,2,0,B|282:291|282:291|287:347,1,96.8000029541017,8|0,0:0|0:0,0:0:0:0:
222,189,45978,6,0,P|151:184|101:133,1,145.200004431152,2|0,0:0|0:0,0:0:0:0:
101,103,46286,1,8,0:0:0:0:
115,260,46440,2,0,P|111:309|103:358,1,96.8000029541017,2|0,0:0|0:0,0:0:0:0:
211,92,46747,2,0,P|215:141|223:190,2,96.8000029541017,2|8|0,0:0|0:0|0:0,0:0:0:0:
42,176,47209,6,0,B|111:146|111:146|235:192,1,193.600005908203,2|8,0:0|0:0,0:0:0:0:
336,69,47670,1,0,0:0:0:0:
325,254,47824,2,0,P|317:203|310:148,1,96.8000029541017,0|0,0:0|0:0,0:0:0:0:
429,30,48132,2,0,P|422:77|415:125,1,96.8000029541017,8|0,0:0|0:0,0:0:0:0:
336,69,48440,6,0,B|213:61|259:127|156:122,1,193.600005908203,2|8,0:0|0:0,0:0:0:0:
62,85,48901,2,0,P|69:126|76:188,1,96.8000029541017,2|0,0:0|0:0,0:0:0:0:
173,36,49209,1,2,0:0:0:0:
66,205,49363,2,0,P|59:246|52:308,1,96.8000029541017,8|0,0:0|0:0,0:0:0:0:
206,325,49670,6,0,P|249:270|319:271,1,145.200004431152,6|0,0:0|0:0,0:0:0:0:
361,343,49978,2,0,L|369:192,1,145.200004431152,8|0,0:0|0:0,0:0:0:0:
338,175,50286,2,0,B|392:170|392:170|416:152|416:152|481:148,1,145.200004431152,0|0,0:0|0:0,0:0:0:0:
495,158,50593,2,0,P|499:101|505:58,1,96.8000029541017,8|0,0:0|0:0,0:0:0:0:
478,382,50901,6,0,P|466:288|451:222,1,145.200004431152,2|0,0:0|0:0,0:0:0:0:
433,227,51209,2,0,P|376:272|313:247,1,145.200004431152,8|0,0:0|0:0,0:0:0:0:
290,254,51516,2,0,L|292:146,1,96.8000029541017,0|2,0:0|0:0,0:0:0:0:
361,321,51824,2,0,P|293:357|230:334,1,145.200004431152,8|0,0:0|0:0,0:0:0:0:
175,272,52132,6,0,B|65:273|120:338|-4:337,1,193.600005908203,6|8,0:0|0:0,0:0:0:0:
0,206,52593,1,0,0:0:0:0:
0,206,52670,1,0,0:0:0:0:
0,206,52747,2,0,B|110:207|55:272|179:271,1,193.600005908203,0|8,0:0|0:0,0:0:0:0:
250,209,53209,1,0,0:0:0:0:
151,82,53363,6,0,P|155:130|163:179,2,96.8000029541017,6|0|8,0:0|0:0|0:0,0:0:0:0:
217,19,53824,1,0,0:0:0:0:
64,137,53978,1,0,0:0:0:0:
250,209,54132,1,2,0:0:0:0:
49,242,54286,2,0,P|105:229|145:212,1,96.8000029541017,8|8,0:0|0:0,0:0:0:0:
189,136,54516,1,0,0:0:0:0:
189,136,54593,6,0,B|242:114|242:114|319:120|362:192,2,193.600005908203,6|8|0,0:0|0:0|0:0,0:0:0:0:
306,35,55363,1,2,0:0:0:0:
250,209,55516,1,8,0:0:0:0:
450,196,55670,6,0,P|394:188|353:180,1,96.8000029541017,0|2,0:0|0:0,0:0:0:0:
248,94,55978,2,0,P|295:85|343:79,1,96.8000029541017,0|8,0:0|0:0,0:0:0:0:
330,273,56286,2,0,P|337:162|345:68,1,193.600005908203,2|2,0:0|0:0,0:0:0:0:
427,106,56747,1,8,0:0:0:0:
249,181,56901,1,0,0:0:0:0:
368,360,57055,6,0,P|296:357|244:309,1,145.200004431152,2|0,0:0|0:0,0:0:0:0:
237,287,57363,2,0,L|223:384,1,96.8000029541017,8|0,0:0|0:0,0:0:0:0:
355,263,57670,2,0,L|369:360,1,96.8000029541017,0|2,0:0|0:0,0:0:0:0:
229,196,57978,2,0,B|181:209|181:209|161:244|161:244|89:264,1,145.200004431152,8|0,0:0|0:0,0:0:0:0:
91,278,58286,5,2,0:0:0:0:
101,76,58440,2,0,B|114:123|114:123|105:170,1,96.8000029541017,0|8,0:0|0:0,0:0:0:0:
241,381,58747,2,0,B|228:334|228:334|236:286,1,96.8000029541017,2|0,0:0|0:0,0:0:0:0:
139,349,59055,1,2,0:0:0:0:
323,328,59209,1,8,0:0:0:0:
155,105,59363,1,8,0:0:0:0:
155,105,59440,1,0,0:0:0:0:
155,105,59516,6,0,B|123:149|123:149|144:242,1,145.200004431152,6|0,0:0|0:0,0:0:0:0:
160,260,59824,2,0,P|104:255|59:252,1,96.8000029541017,10|0,0:0|0:0,0:0:0:0:
216,170,60132,1,10,0:0:0:0:
147,8,60286,2,0,P|150:56|154:104,1,96.8000029541017,0|10,0:0|0:0,0:0:0:0:
28,150,60593,1,0,0:0:0:0:
28,150,60670,1,2,0:0:0:0:
28,150,60747,6,0,P|104:147|159:96,1,145.200004431152,10|0,0:0|0:0,0:0:0:0:
154,103,61055,2,0,P|202:98|250:95,1,96.8000029541017,10|0,0:0|0:0,0:0:0:0:
61,59,61363,5,10,0:0:0:0:
198,193,61516,1,0,0:0:0:0:
229,13,61670,5,10,0:0:0:0:
119,226,61824,1,0,0:0:0:0:
119,226,61901,1,0,0:0:0:0:
119,226,61978,5,14,0:0:0:0:
138,0,62132,1,0,0:0:0:0:
217,226,62286,5,8,0:0:0:0:
144,91,62440,1,2,0:0:0:0:
161,306,62593,5,8,0:0:0:0:
227,134,62747,1,0,0:0:0:0:
237,356,62901,5,10,0:0:0:0:
147,179,63055,1,0,0:0:0:0:
99,375,63209,5,6,0:0:0:0:
297,280,63363,2,0,L|396:289,2,96.8000029541017,0|10|0,0:0|0:0|0:0,0:0:0:0:
478,167,63824,5,8,0:0:0:0:
451,191,63900,1,2,0:0:0:0:
418,205,63977,1,2,0:0:0:0:
382,206,64054,1,2,0:0:0:0:
348,193,64132,1,8,0:0:0:0:
314,180,64208,1,8,0:0:0:0:
278,180,64286,2,0,P|251:188|215:203,1,48.4000014770508,8|8,0:0|0:0,0:0:0:0:
425,311,64440,6,0,P|416:215|395:120,1,193.600005908203,6|8,0:0|0:0,0:0:0:0:
232,195,64901,1,0,0:0:0:0:
295,46,65055,2,0,P|342:44|391:35,1,96.8000029541017,0|0,0:0|0:0,0:0:0:0:
223,106,65363,2,0,P|176:104|127:95,1,96.8000029541017,8|0,0:0|0:0,0:0:0:0:
145,237,65670,6,0,P|105:190|5:201,1,145.200004431152,2|0,0:0|0:0,0:0:0:0:
10,213,65978,1,8,0:0:0:0:
47,97,66132,2,0,L|38:0,1,96.8000029541017,0|0,0:0|0:0,0:0:0:0:
145,237,66440,2,0,L|154:140,2,96.8000029541017,2|8|0,0:0|0:0|0:0,0:0:0:0:
33,332,66901,6,0,B|140:332|89:267|211:275,1,193.600005908203,2|8,0:0|0:0,0:0:0:0:
47,247,67363,1,0,0:0:0:0:
188,360,67516,2,0,P|239:362|294:335,1,96.8000029541017,0|0,0:0|0:0,0:0:0:0:
396,307,67824,2,0,P|447:305|502:332,1,96.8000029541017,8|0,0:0|0:0,0:0:0:0:
353,241,68132,6,0,P|361:309|377:406,1,145.200004431152,2|0,0:0|0:0,0:0:0:0:
373,384,68440,1,8,0:0:0:0:
273,264,68593,2,0,P|224:260|164:261,1,96.8000029541017,0|0,0:0|0:0,0:0:0:0:
402,162,68901,2,0,P|451:158|511:159,1,96.8000029541017,2|8,0:0|0:0,0:0:0:0:
458,248,69209,1,0,0:0:0:0:
437,67,69363,6,0,P|394:22|315:52,1,145.200004431152,6|0,0:0|0:0,0:0:0:0:
303,55,69670,2,0,P|236:63|158:61,1,145.200004431152,8|0,0:0|0:0,0:0:0:0:
114,0,69978,2,0,B|135:49|135:49|120:139,1,145.200004431152,0|0,0:0|0:0,0:0:0:0:
95,169,70286,2,0,P|139:163|195:159,1,96.8000029541017,8|0,0:0|0:0,0:0:0:0:
4,291,70593,6,0,B|58:274|58:274|90:289|90:289|141:276,1,145.200004431152,2|0,0:0|0:0,0:0:0:0:
158,240,70901,2,0,P|152:305|150:385,1,145.200004431152,8|0,0:0|0:0,0:0:0:0:
169,377,71209,2,0,P|211:371|269:367,1,96.8000029541017,0|2,0:0|0:0,0:0:0:0:
95,200,71516,2,0,P|142:237|240:206,1,145.200004431152,8|0,0:0|0:0,0:0:0:0:
274,173,71824,6,0,P|268:269|264:366,1,193.600005908203,6|8,0:0|0:0,0:0:0:0:
495,326,72286,1,0,0:0:0:0:
495,326,72363,1,0,0:0:0:0:
495,326,72440,2,0,P|436:286|368:301,1,145.200004431152,0|0,0:0|0:0,0:0:0:0:
355,320,72747,2,0,P|360:257|358:212,1,96.8000029541017,8|0,0:0|0:0,0:0:0:0:
512,193,73055,6,0,B|398:202|451:126|330:130,1,193.600005908203,6|8,0:0|0:0,0:0:0:0:
496,108,73516,1,0,0:0:0:0:
261,187,73670,2,0,L|243:298,2,96.8000029541017,0|2|8,0:0|0:0|0:0,0:0:0:0:
0,119,74132,1,8,0:0:0:0:
0,119,74209,1,8,0:0:0:0:
0,119,74286,6,0,B|26:138|61:145|61:145|115:132|175:89,2,193.600005908203,6|8|0,0:0|0:0|0:0,0:0:0:0:
22,227,75055,1,2,0:0:0:0:
67,53,75209,1,8,0:0:0:0:
108,230,75363,6,0,L|100:331,1,96.8000029541017,0|2,0:0|0:0,0:0:0:0:
243,172,75670,2,0,L|344:180,1,96.8000029541017,0|8,0:0|0:0,0:0:0:0:
211,98,75978,2,0,L|195:300,1,193.600005908203,2|2,0:0|0:0,0:0:0:0:
283,363,76440,2,0,L|291:262,1,96.8000029541017,8|0,0:0|0:0,0:0:0:0:
347,94,76747,6,0,B|389:97|389:97|426:125|431:188,1,145.200004431152,2|0,0:0|0:0,0:0:0:0:
425,218,77055,1,8,0:0:0:0:
484,72,77209,1,0,0:0:0:0:
339,179,77363,2,0,P|290:176|242:173,1,96.8000029541017,0|0,0:0|0:0,0:0:0:0:
395,304,77670,2,0,P|449:301|510:297,1,96.8000029541017,8|0,0:0|0:0,0:0:0:0:
310,267,77978,5,2,0:0:0:0:
333,82,78132,2,0,P|336:130|338:178,1,96.8000029541017,2|8,0:0|0:0,0:0:0:0:
148,213,78440,1,2,0:0:0:0:
236,269,78593,2,0,P|238:221|242:173,1,96.8000029541017,2|2,0:0|0:0,0:0:0:0:
52,153,78901,2,0,P|55:201|66:304,1,145.200004431152,8|8,0:0|0:0,0:0:0:0:
76,323,79209,5,14,0:0:0:0:
236,269,79363,1,0,0:0:0:0:
130,112,79516,5,10,0:0:0:0:
173,353,79670,1,0,0:0:0:0:
244,155,79824,5,10,0:0:0:0:
65,297,79978,1,0,0:0:0:0:
210,55,80132,5,10,0:0:0:0:
151,255,80286,1,2,0:0:0:0:
151,255,80363,1,2,0:0:0:0:
151,255,80440,5,10,0:0:0:0:
334,212,80593,1,0,0:0:0:0:
69,196,80747,5,10,0:0:0:0:
250,253,80900,1,0,0:0:0:0:
10,272,81055,5,10,0:0:0:0:
162,157,81209,1,0,0:0:0:0:
121,360,81363,5,10,0:0:0:0:
83,106,81516,1,0,0:0:0:0:
83,106,81593,1,0,0:0:0:0:
83,106,81670,5,14,0:0:0:0:
159,260,81824,1,0,0:0:0:0:
168,46,81978,5,10,0:0:0:0:
91,202,82132,1,2,0:0:0:0:
91,202,82209,1,2,0:0:0:0:
91,202,82286,6,0,P|87:145|81:96,1,96.8000029541017,10|10,0:0|0:0,0:0:0:0:
265,10,82593,2,0,P|259:58|256:106,1,96.8000029541017,8|2,0:0|0:0,0:0:0:0:
77,22,82901,6,0,P|125:25|173:30,1,96.8000029541017,14|0,0:0|0:0,0:0:0:0:
334,155,83209,2,0,P|382:151|430:146,1,96.8000029541017,2|10,0:0|0:0,0:0:0:0:
247,193,83516,1,14,0:0:0:0:
344,5,83670,2,2,P|337:79|334:154,1,149.600002853394,2|0,0:0|0:0,0:0:0:0:
349,339,84132,5,6,0:0:0:0:
256,192,84209,12,2,85363,0:0:0:0:
